osu file format v14

[General]
AudioFilename: audio.mp3
AudioLeadIn: 0
PreviewTime: 54731
Countdown: 0
SampleSet: Soft
StackLeniency: 0.7
Mode: 0
LetterboxInBreaks: 0
WidescreenStoryboard: 0

[Editor]
Bookmarks: 54913
DistanceSpacing: 1.6
BeatDivisor: 4
GridSize: 32
TimelineZoom: 2

[Metadata]
Title:Hitorigoto -TV MIX-
TitleUnicode:ヒトリゴト -TV MIX-
Artist:ClariS
ArtistUnicode:ClariS
Creator:Tofu1222
Version:Moecho's Manga
Source:エロマンガ先生
Tags:eromanga sensei ero manga eromanga-sensei opening tv size eromangasensei Suzuki_1112 1112deng kanor Level9 Ryuusei Aika RsAk Moeri Moecho [Kamiya] victorica_db [Emiria]
BeatmapID:1288675
BeatmapSetID:602861

[Difficulty]
HPDrainRate:6
CircleSize:4.2
OverallDifficulty:9
ApproachRate:9.2
SliderMultiplier:1.8
SliderTickRate:1

[Events]
//Background and Video events
Video,0,"eromanga.avi"
0,0,"BG_Moe.jpg",0,0
//Break Periods
//Storyboard Layer 0 (Background)
//Storyboard Layer 1 (Fail)
//Storyboard Layer 2 (Pass)
//Storyboard Layer 3 (Foreground)
//Storyboard Sound Samples

[TimingPoints]
1095,363.636363636364,4,2,33,75,1,0
1095,-100,4,2,33,75,0,0
2004,-200,4,2,33,75,0,0
2549,-88.8888888888889,4,2,33,75,0,0
3458,-175.438596491228,4,2,33,75,0,0
4004,-80,4,2,33,75,0,0
4913,-158.730158730159,4,2,33,75,0,0
5458,-133.333333333333,4,2,33,80,0,1
6185,-100,4,2,33,75,0,1
6670,-100,4,2,33,75,0,0
6913,-100,4,2,33,75,0,0
7822,-200,4,2,33,75,0,0
8367,-88.4955752212389,4,2,33,75,0,0
9276,-175.438596491228,4,2,33,75,0,0
9822,-80,4,2,33,75,0,0
10731,-158.730158730159,4,2,33,75,0,0
11276,-133.333333333333,4,2,33,80,0,1
12004,-100,4,2,33,75,0,1
12488,-100,4,2,33,75,0,0
12731,-100,4,2,33,70,0,1
15617,-100,4,2,33,70,0,0
15640,-100,4,2,33,70,0,1
18526,-100,4,2,33,70,0,0
18549,-100,4,2,33,70,0,1
21435,-100,4,2,33,70,0,0
21458,-100,4,2,33,70,0,1
24367,-111.111111111111,4,2,33,65,0,0
36004,-133.333333333333,4,2,33,55,0,0
41095,-133.333333333333,4,2,33,60,0,0
41458,-80,4,2,33,65,0,0
41822,-100,4,2,33,70,0,0
47640,-100,4,2,33,70,0,0
53458,-80,4,2,33,80,0,1
53822,-80,4,2,33,80,0,1
54004,-88.4955752212389,4,2,33,80,0,1
54367,-66.6666666666667,4,2,34,40,0,0
54413,-66.6666666666667,4,2,34,20,0,0
54913,-80,4,2,50,100,0,1
55095,-80,4,2,33,80,0,1
56367,-80,4,2,51,85,0,1
56549,-80,4,2,33,80,0,1
57095,-80,4,2,50,85,0,1
57276,-80,4,2,33,80,0,1
57799,-80,4,2,33,80,0,0
57822,-80,4,2,52,85,0,1
58004,-80,4,2,33,80,0,1
59276,-80,4,2,51,85,0,1
59458,-80,4,2,33,80,0,1
60004,-80,4,2,50,85,0,1
60185,-80,4,2,33,80,0,1
60708,-80,4,2,33,80,0,0
60731,-80,4,2,52,85,0,1
60913,-80,4,2,33,80,0,1
62163,-80,4,2,33,80,0,0
62185,-80,4,2,53,85,0,1
62367,-80,4,2,33,80,0,1
62913,-80,4,2,54,85,0,1
63095,-80,4,2,33,80,0,1
63617,-80,4,2,33,80,0,0
63640,-80,4,2,55,85,0,1
63822,-80,4,2,33,80,0,1
64004,-80,4,2,54,85,0,1
64185,-80,4,2,33,80,0,1
64345,-80,4,2,33,80,0,0
64367,-80,4,2,55,85,0,1
64549,-80,4,2,33,80,0,1
64731,-80,4,2,53,85,0,1
64913,-80,4,2,33,80,0,1
65095,-80,4,2,33,80,0,0
65276,-80,4,2,56,85,0,0
65458,-80,4,2,33,80,0,0
65640,-80,4,2,57,85,0,0
65822,-80,4,2,33,80,0,0
66004,-80,4,2,58,85,0,0
66185,-80,4,2,33,80,0,0
66367,-80,4,2,55,85,0,0
66549,-80,4,2,50,100,0,1
66731,-80,4,2,33,80,0,1
68004,-80,4,2,51,85,0,1
68185,-80,4,2,33,80,0,1
68731,-80,4,2,50,85,0,1
68913,-80,4,2,33,80,0,1
69435,-80,4,2,33,80,0,0
69458,-80,4,2,52,85,0,1
69640,-80,4,2,33,80,0,1
70913,-80,4,2,51,85,0,1
71095,-80,4,2,33,80,0,1
71640,-80,4,2,50,85,0,1
71822,-80,4,2,33,80,0,1
72345,-80,4,2,33,80,0,0
72367,-80,4,2,52,85,0,1
72549,-80,4,2,33,80,0,1
73799,-80,4,2,33,80,0,0
73822,-80,4,2,53,85,0,1
74004,-80,4,2,33,80,0,1
74549,-80,4,2,54,85,0,1
74731,-80,4,2,33,80,0,1
75254,-80,4,2,33,80,0,0
75276,-80,4,2,55,85,0,1
75458,-80,4,2,33,80,0,1
75981,-80,4,2,33,80,0,0
76004,-80,4,2,53,85,0,1
76185,-80,4,2,33,80,0,1
76731,-80,4,2,52,100,0,0
76913,-80,4,2,33,80,0,0
77458,-80,4,2,60,85,0,0
77640,-80,4,2,33,80,0,0
78185,-80,4,2,59,100,0,1
78367,-80,4,2,33,80,0,1
78913,-80,4,2,52,85,0,1
79095,-80,4,2,33,80,0,1
79640,-80,4,2,52,85,0,1
79822,-80,4,2,33,80,0,1
80367,-80,4,2,60,85,0,1
80549,-80,4,2,33,80,0,1
81072,-80,4,2,33,80,0,0
81095,-80,4,2,59,85,0,1
81276,-80,4,2,33,80,0,1
81822,-80,4,2,52,85,0,1
82004,-80,4,2,33,80,0,1
82549,-80,4,2,50,85,0,1
82731,-80,4,2,33,80,0,1
83276,-80,4,2,52,85,0,1
83458,-80,4,2,33,80,0,1
83981,-80,4,2,33,80,0,0
84004,-80,4,2,59,85,0,1
84185,-80,4,2,33,80,0,1
84731,-80,4,2,52,85,0,1
84913,-80,4,2,33,80,0,1
85458,-80,4,2,52,85,0,1
85640,-80,4,2,33,80,0,1
86185,-80,4,2,60,85,0,1
86367,-80,4,2,33,80,0,1
86890,-80,4,2,33,80,0,0
86913,-100,4,2,59,85,0,1
86935,-100,4,2,33,80,0,0
87640,-100,4,2,52,85,0,0
88004,-100,4,2,33,80,0,0
88276,-100,4,2,60,60,0,1
88299,-100,4,2,33,80,0,0
89095,-100,4,2,33,20,0,0

[Colours]
Combo1 : 215,215,183
Combo2 : 0,128,128
Combo3 : 192,192,192
Combo4 : 255,128,192

[HitObjects]
176,130,1095,5,8,3:2:0:0:
378,227,1276,1,8,3:2:0:0:
269,308,1458,5,0,0:0:0:0:
306,245,1822,1,0,0:0:0:0:
378,227,2004,6,0,P|331:199|276:202,1,112.5,2|0,0:0|0:0,0:0:0:0:
223,254,2549,5,8,3:2:0:0:
431,113,2731,1,8,3:2:0:0:
511,276,2913,5,0,0:0:0:0:
430,289,3276,1,0,0:0:0:0:
378,227,3458,6,0,B|341:256|341:256|352:336,1,128.249998434448,2|0,0:0|0:0,0:0:0:0:
411,384,4004,5,8,3:2:0:0:
159,259,4185,1,8,3:2:0:0:
301,120,4367,5,0,0:0:0:0:
211,161,4549,1,0,0:0:0:0:
292,219,4731,1,0,0:0:0:0:
301,119,4913,6,0,P|237:146|219:212,1,141.749995674133,2|0,0:0|0:0,0:0:0:0:
395,302,5458,6,0,B|381:247|285:227|244:294|244:294|217:277|175:290,1,236.250009012223,4|0,3:2|0:0,0:0:0:0:
137,363,6185,6,0,B|181:361|181:361|215:374|215:374|261:371,2,120,12|8|8,3:2|3:2|3:2,0:0:0:0:
276,291,6913,5,8,3:2:0:0:
66,208,7095,1,8,3:2:0:0:
179,134,7276,5,0,0:0:0:0:
180,206,7640,1,0,0:0:0:0:
132,259,7822,6,0,P|183:239|237:251,1,112.5,2|0,0:0|0:0,0:0:0:0:
276,317,8367,5,8,3:2:0:0:
383,93,8549,1,8,3:2:0:0:
244,160,8731,5,0,0:0:0:0:
321,186,9095,1,0,0:0:0:0:
400,167,9276,6,0,B|373:119|373:119|300:109,1,128.249998434448,2|0,0:0|0:0,0:0:0:0:
244,160,9822,5,8,3:2:0:0:
480,321,10004,1,8,3:2:0:0:
394,378,10185,5,0,0:0:0:0:
388,275,10367,1,0,0:0:0:0:
480,321,10549,1,0,0:0:0:0:
394,378,10731,6,0,B|350:379|350:379|314:337|314:337|317:294,1,141.749995674133,2|0,0:0|0:0,0:0:0:0:
349,187,11276,6,0,P|239:211|209:320,1,236.250009012223,4|0,3:2|0:0,0:0:0:0:
328,380,12004,6,0,P|381:355|405:301,2,120,12|8|8,3:2|3:2|3:2,0:0:0:0:
57,211,12731,5,6,0:0:0:0:
245,255,12913,1,0,3:0:0:0:
97,342,13095,2,0,P|100:297|123:259,1,90,10|0,0:0|3:0,0:0:0:0:
213,188,13458,1,2,0:0:0:0:
78,142,13640,1,0,3:0:0:0:
122,259,13822,1,10,0:0:0:0:
78,142,14004,6,0,L|65:52,1,90,0|2,3:0|0:0,0:0:0:0:
219,282,14367,2,0,L|206:371,1,90,0|10,3:0|0:0,0:0:0:0:
305,113,14731,2,0,L|216:126,1,90,0|2,3:0|0:0,0:0:0:0:
89,283,15095,2,0,L|0:270,1,90,0|10,3:0|0:0,0:0:0:0:
206,171,15458,1,2,3:2:0:0:
216,150,15549,1,10,0:0:0:0:
216,127,15640,5,6,0:0:0:0:
156,232,15822,1,0,3:0:0:0:
314,335,16004,2,0,L|301:246,1,90,10|0,0:0|3:0,0:0:0:0:
130,161,16367,1,2,0:0:0:0:
301,157,16549,1,0,3:0:0:0:
223,284,16731,1,10,0:0:0:0:
301,157,16913,6,0,L|288:68,1,90,0|2,3:0|0:0,0:0:0:0:
135,246,17276,2,0,L|122:335,1,90,0|10,3:0|0:0,0:0:0:0:
224,192,17640,1,2,3:2:0:0:
221,169,17731,1,10,0:0:0:0:
218,146,17822,1,2,0:0:0:0:
52,204,18004,1,0,3:0:0:0:
233,282,18185,1,10,0:0:0:0:
160,335,18367,1,2,3:2:0:0:
141,349,18458,1,10,0:0:0:0:
123,363,18549,5,6,0:0:0:0:
143,244,18731,1,0,3:0:0:0:
323,320,18913,2,0,P|330:276|315:234,1,90,10|0,0:0|3:0,0:0:0:0:
162,156,19276,1,2,0:0:0:0:
270,139,19458,1,0,3:0:0:0:
143,244,19640,1,10,0:0:0:0:
270,139,19822,6,0,L|359:127,1,90,0|2,3:0|0:0,0:0:0:0:
143,244,20185,2,0,L|53:232,1,90,0|10,3:0|0:0,0:0:0:0:
255,323,20549,2,0,L|243:233,1,90,0|2,3:0|0:0,0:0:0:0:
83,138,20913,2,0,L|94:48,1,90,0|10,3:0|0:0,0:0:0:0:
7,198,21276,1,2,3:2:0:0:
26,210,21367,1,10,0:0:0:0:
48,213,21458,5,6,0:0:0:0:
165,152,21640,1,0,3:0:0:0:
255,323,21822,2,0,L|165:311,1,90,10|0,0:0|3:0,0:0:0:0:
128,222,22185,1,2,0:0:0:0:
71,350,22367,1,0,3:0:0:0:
223,233,22549,1,10,0:0:0:0:
83,151,22731,6,0,L|72:61,1,90,0|6,3:0|0:0,0:0:0:0:
322,239,23095,2,0,L|311:329,1,90,0|14,3:0|0:0,0:0:0:0:
159,122,23458,1,2,3:2:0:0:
156,99,23549,1,10,0:0:0:0:
153,76,23640,1,6,0:0:0:0:
237,184,23822,1,2,3:2:0:0:
234,207,23913,1,2,3:2:0:0:
231,230,24004,1,10,0:0:0:0:
228,253,24095,1,10,0:0:0:0:
225,276,24185,1,10,0:0:0:0:
222,299,24276,1,10,0:0:0:0:
219,322,24367,5,4,3:2:0:0:
150,254,24549,1,2,0:0:0:0:
62,336,24731,2,0,P|101:340|139:326,1,80.9999975280763,8|2,3:2|0:0,0:0:0:0:
237,184,25095,2,0,L|224:103,1,80.9999975280763,0|2,3:0|0:0,0:0:0:0:
62,48,25458,2,0,P|101:44|139:58,1,80.9999975280763,8|2,3:2|0:0,0:0:0:0:
317,157,25822,6,0,L|304:237,1,80.9999975280763,0|2,3:0|0:0,0:0:0:0:
450,336,26185,2,0,P|411:340|373:326,1,80.9999975280763,8|2,3:2|0:0,0:0:0:0:
237,184,26549,2,0,L|224:103,1,80.9999975280763,0|2,3:0|0:0,0:0:0:0:
450,48,26913,2,0,P|411:44|373:58,1,80.9999975280763,8|2,3:2|0:0,0:0:0:0:
225,262,27276,5,0,3:0:0:0:
151,167,27458,1,2,0:0:0:0:
317,198,27640,1,8,3:2:0:0:
211,339,27822,1,2,0:0:0:0:
251,105,28004,5,0,3:0:0:0:
225,262,28185,1,2,0:0:0:0:
189,48,28367,5,8,3:2:0:0:
237,184,28549,1,2,0:0:0:0:
151,167,28731,5,0,3:0:0:0:
285,313,28913,2,0,L|365:302,1,80.9999975280763,2|8,3:2|0:0,0:0:0:0:
156,207,29276,2,0,L|150:166,1,40.4999987640381,2|8,0:0|0:0,0:0:0:0:
214,265,29458,1,0,3:0:0:0:
222,106,29640,1,2,0:0:0:0:
73,198,29822,1,8,3:2:0:0:
222,106,30004,1,10,0:0:0:0:
218,86,30095,1,8,0:0:0:0:
214,66,30186,5,4,3:2:0:0:
150,130,30367,1,2,0:0:0:0:
62,48,30549,2,0,P|101:44|139:58,1,80.9999975280763,8|2,3:2|0:0,0:0:0:0:
237,200,30913,2,0,L|224:281,1,80.9999975280763,0|2,3:0|0:0,0:0:0:0:
62,336,31276,2,0,P|101:340|139:326,1,80.9999975280763,8|2,3:2|0:0,0:0:0:0:
317,227,31640,6,0,L|304:147,1,80.9999975280763,0|2,3:0|0:0,0:0:0:0:
450,48,32004,2,0,P|411:44|373:58,1,80.9999975280763,8|2,3:2|0:0,0:0:0:0:
237,200,32367,2,0,L|224:281,1,80.9999975280763,0|2,3:0|0:0,0:0:0:0:
450,336,32731,2,0,P|411:340|373:326,1,80.9999975280763,8|2,3:2|0:0,0:0:0:0:
225,122,33095,5,0,3:0:0:0:
151,217,33277,1,2,0:0:0:0:
317,186,33459,1,8,3:2:0:0:
211,45,33641,1,2,0:0:0:0:
251,279,33823,5,0,3:0:0:0:
225,122,34004,1,2,0:0:0:0:
189,336,34186,5,8,3:2:0:0:
237,200,34368,1,2,0:0:0:0:
151,217,34550,5,0,3:0:0:0:
285,71,34732,2,0,L|365:82,1,80.9999975280763,2|8,3:2|0:0,0:0:0:0:
156,177,35095,2,0,L|150:218,1,40.4999987640381,2|8,0:0|0:0,0:0:0:0:
214,119,35277,1,0,3:0:0:0:
222,278,35459,1,2,0:0:0:0:
73,186,35641,1,8,3:2:0:0:
222,278,35823,1,10,0:0:0:0:
218,298,35914,1,8,0:0:0:0:
214,318,36005,5,4,3:2:0:0:
20,238,36367,2,0,P|79:206|146:210,2,135.000005149842,0|8|0,3:0|0:0|0:0,0:0:0:0:
271,315,37276,1,8,0:0:0:0:
181,363,37458,6,0,L|176:295,1,67.5000025749208,0|8,3:0|0:0,0:0:0:0:
234,233,37822,1,0,3:0:0:0:
345,375,38185,6,0,P|362:310|334:250,1,135.000005149842,8|0,0:0|3:0,0:0:0:0:
147,212,38731,1,8,0:0:0:0:
275,18,38913,6,0,L|257:151,1,135.000005149842,4|0,3:2|0:0,0:0:0:0:
79,267,39640,2,0,P|122:294|172:294,2,101.250003862381,8|8|0,0:0|0:0|3:0,0:0:0:0:
253,370,40367,6,0,L|257:302,1,67.5000025749208,0|8,3:0|0:0,0:0:0:0:
145,211,40731,1,0,3:0:0:0:
145,211,41095,6,0,P|143:233|148:255,2,45.0000017166138,8|8|8,0:0|0:0|0:0,0:0:0:0:
236,156,41458,6,0,P|245:121|241:84,2,75,8|8|8,0:0|0:0|0:0,0:0:0:0:
205,330,41822,6,0,L|115:337,1,90,4|0,3:2|0:0,0:0:0:0:
67,195,42185,5,8,0:0:0:0:
149,256,42367,1,0,0:0:0:0:
50,384,42549,2,0,P|37:341|48:298,1,90,0|0,3:0|0:0,0:0:0:0:
67,195,42913,5,8,0:0:0:0:
197,158,43095,1,0,0:0:0:0:
105,38,43277,2,0,P|92:80|103:123,1,90,0|0,3:0|0:0,0:0:0:0:
220,229,43640,5,8,0:0:0:0:
272,166,43822,1,0,0:0:0:0:
144,214,44004,1,0,3:0:0:0:
301,324,44185,2,0,P|310:281|299:238,1,90,0|8,3:0|0:0,0:0:0:0:
144,214,44549,6,0,L|54:206,1,90,0|0,0:0|3:0,0:0:0:0:
162,135,44913,1,0,0:0:0:0:
0,118,45095,6,0,P|37:93|81:91,1,90,8|0,0:0|0:0,0:0:0:0:
228,187,45458,2,0,L|235:276,1,90,0|0,3:0|0:0,0:0:0:0:
302,348,45822,5,8,0:0:0:0:
181,336,46004,1,0,0:0:0:0:
376,377,46185,2,0,P|380:332|359:294,1,90,0|0,3:0|0:0,0:0:0:0:
181,336,46549,2,0,L|91:343,1,90,8|0,0:0|0:0,0:0:0:0:
235,276,46913,5,0,3:0:0:0:
89,192,47095,2,0,P|126:168|170:168,1,90,0|8,3:0|0:0,0:0:0:0:
297,217,47458,1,0,0:0:0:0:
138,338,47640,6,0,L|146:248,1,90,4|0,3:2|0:0,0:0:0:0:
289,127,48004,2,0,L|297:217,1,90,10|0,0:0|0:0,0:0:0:0:
454,348,48367,2,0,P|409:348|372:324,1,90,0|0,3:0|0:0,0:0:0:0:
374,159,48731,5,10,0:0:0:0:
284,303,48913,1,0,0:0:0:0:
436,272,49095,2,0,L|450:172,1,90,0|0,3:0|0:0,0:0:0:0:
512,40,49458,6,0,P|467:39|430:63,1,90,10|0,0:0|0:0,0:0:0:0:
354,242,49822,2,0,P|376:203|374:159,1,90,0|0,3:0|3:0,0:0:0:0:
258,4,50185,2,0,P|279:42|319:62,1,90,10|0,0:0|0:0,0:0:0:0:
492,112,50549,5,0,3:0:0:0:
376,201,50731,2,0,L|286:188,1,90,0|10,0:0|0:0,0:0:0:0:
110,298,51095,5,0,0:0:0:0:
201,236,51277,2,0,L|188:325,1,90,0|0,3:0|0:0,0:0:0:0:
44,127,51640,2,0,L|31:37,1,90,10|0,0:0|0:0,0:0:0:0:
5,209,52004,5,0,3:0:0:0:
118,63,52185,1,0,0:0:0:0:
72,233,52367,5,10,3:2:0:0:
199,180,52548,1,0,0:0:0:0:
110,298,52731,5,0,3:0:0:0:
284,316,52912,1,0,0:0:0:0:
107,375,53095,5,10,3:2:0:0:
314,250,53276,1,10,0:0:0:0:
314,250,53367,1,10,0:0:0:0:
314,250,53458,5,0,3:0:0:0:
493,346,53640,2,0,P|442:368|388:359,1,112.5,0|0,3:0|0:0,0:0:0:0:
136,302,54004,6,0,B|187:298|187:298|238:320|238:320|283:315,1,152.550000465546,4|0,3:2|0:0,0:0:0:0:
314,250,54367,2,0,P|298:244|281:243,8,33.7500012874604,2|2|2|2|2|2|2|2|2,0:0|0:0|0:0|0:0|0:0|0:0|0:0|0:0|0:0,0:0:0:0:
175,375,54913,5,6,1:2:0:0:
76,227,55095,1,2,0:0:0:0:
238,154,55276,1,8,3:2:0:0:
76,227,55458,1,2,0:0:0:0:
93,99,55640,5,0,3:0:0:0:
144,281,55822,1,2,0:0:0:0:
0,259,56004,5,8,3:2:0:0:
157,198,56186,1,2,0:0:0:0:
10,172,56367,5,2,1:2:0:0:
67,309,56549,1,2,0:0:0:0:
224,251,56731,1,8,3:2:0:0:
67,309,56913,2,0,P|120:295|173:311,1,112.5,2|2,0:0|1:2,0:0:0:0:
294,113,57276,5,2,0:0:0:0:
83,188,57458,1,8,3:2:0:0:
254,334,57640,1,10,3:2:0:0:
355,176,57822,5,6,1:2:0:0:
224,251,58004,1,2,0:0:0:0:
349,335,58185,1,8,3:2:0:0:
224,251,58367,1,2,0:0:0:0:
428,207,58549,5,0,3:0:0:0:
286,212,58731,1,2,0:0:0:0:
391,274,58913,5,8,3:2:0:0:
220,176,59095,1,2,0:0:0:0:
290,288,59276,5,2,1:2:0:0:
279,134,59458,1,2,0:0:0:0:
421,72,59640,1,8,3:2:0:0:
279,134,59822,2,0,P|330:125|396:156,1,112.5,2|2,0:0|1:2,0:0:0:0:
187,75,60185,5,2,0:0:0:0:
421,72,60367,1,8,3:2:0:0:
307,274,60549,1,10,3:2:0:0:
222,145,60731,5,6,1:2:0:0:
339,81,60913,1,2,0:0:0:0:
146,141,61095,1,8,3:2:0:0:
263,211,61276,1,2,0:0:0:0:
81,182,61458,5,0,3:0:0:0:
265,80,61640,1,2,0:0:0:0:
23,126,61822,1,8,3:2:0:0:
301,147,62004,1,2,0:0:0:0:
92,78,62185,5,6,1:2:0:0:
191,252,62367,1,2,0:0:0:0:
61,335,62549,1,8,3:2:0:0:
139,168,62731,1,2,0:0:0:0:
0,274,62913,6,0,P|49:250|103:262,1,112.5,2|2,1:2|0:0,0:0:0:0:
195,340,63276,2,0,L|307:331,1,112.5,8|10,3:2|0:0,0:0:0:0:
486,137,63640,5,6,1:2:0:0:
436,282,63822,1,2,0:0:0:0:
400,142,64004,5,10,1:2:0:0:
357,266,64186,1,2,0:0:0:0:
221,56,64367,5,6,1:2:0:0:
279,252,64549,1,2,0:0:0:0:
127,20,64731,5,10,1:2:0:0:
200,242,64913,1,2,0:0:0:0:
344,16,65095,5,8,3:2:0:0:
112,96,65276,1,2,1:2:0:0:
404,121,65458,5,8,3:2:0:0:
97,172,65639,1,2,1:2:0:0:
422,249,65822,5,8,3:2:0:0:
82,248,66004,1,2,1:2:0:0:
405,373,66185,5,8,3:2:0:0:
67,324,66366,1,2,1:2:0:0:
296,82,66549,5,6,1:2:0:0:
161,223,66731,1,2,0:0:0:0:
331,270,66913,1,8,3:2:0:0:
161,223,67095,1,2,0:0:0:0:
360,171,67276,5,0,3:0:0:0:
183,116,67458,1,2,0:0:0:0:
235,289,67640,1,8,3:2:0:0:
407,234,67822,1,2,0:0:0:0:
235,289,68004,6,0,P|287:271|339:288,1,112.5,2|2,1:2|0:0,0:0:0:0:
493,171,68367,1,8,3:2:0:0:
389,123,68549,2,0,L|407:234,1,112.5,2|2,0:0|1:2,0:0:0:0:
286,365,68913,5,2,0:0:0:0:
107,243,69095,1,8,3:2:0:0:
301,152,69276,1,10,3:2:0:0:
292,295,69458,5,6,1:2:0:0:
107,243,69640,1,2,0:0:0:0:
213,384,69822,1,8,3:2:0:0:
298,223,70004,1,2,0:0:0:0:
196,269,70185,5,0,3:0:0:0:
353,371,70367,2,0,P|381:323|378:268,1,112.5,2|8,0:0|3:2,0:0:0:0:
214,153,70731,1,2,0:0:0:0:
316,112,70913,2,0,L|297:223,1,112.5,2|2,1:2|0:0,0:0:0:0:
196,269,71276,1,8,3:2:0:0:
43,207,71458,2,0,P|95:189|149:204,1,112.5,2|2,0:0|1:2,0:0:0:0:
295,384,71822,5,2,0:0:0:0:
377,167,72004,1,8,3:2:0:0:
149,204,72185,1,10,3:2:0:0:
390,265,72367,5,6,1:2:0:0:
224,143,72549,2,0,L|232:255,1,112.5,2|8,0:0|3:2,0:0:0:0:
301,155,72913,1,2,0:0:0:0:
149,296,73095,1,0,3:0:0:0:
312,253,73276,5,2,0:0:0:0:
149,204,73458,1,8,3:2:0:0:
212,355,73640,2,0,L|324:345,1,112.5,2|6,0:0|1:2,0:0:0:0:
475,223,74004,6,0,P|426:195|371:196,1,112.5,2|8,0:0|3:2,0:0:0:0:
229,251,74367,1,2,0:0:0:0:
401,297,74549,1,2,1:2:0:0:
301,220,74731,1,2,0:0:0:0:
175,322,74913,2,0,P|143:276|146:221,1,112.5,8|10,3:2|0:0,0:0:0:0:
99,373,75276,5,6,1:2:0:0:
330,303,75458,1,2,0:0:0:0:
53,286,75640,5,8,3:2:0:0:
345,378,75822,1,2,0:0:0:0:
62,178,76004,5,6,1:2:0:0:
405,175,76186,1,2,0:0:0:0:
98,68,76367,5,8,3:2:0:0:
347,227,76549,1,2,3:2:0:0:
173,7,76731,6,0,L|186:118,1,112.5,2|2,1:2|0:0,0:0:0:0:
465,292,77095,2,0,L|478:180,1,112.5,8|2,3:2|0:0,0:0:0:0:
81,291,77458,2,0,P|128:320|183:319,1,112.5,2|2,1:2|0:0,0:0:0:0:
333,199,77822,1,8,3:2:0:0:
260,258,78004,1,10,3:2:0:0:
405,136,78185,6,0,L|395:23,1,112.5,6|2,1:2|0:0,0:0:0:0:
333,199,78549,1,8,3:2:0:0:
441,295,78731,1,2,0:0:0:0:
512,151,78913,2,0,P|460:129|405:136,1,112.5,2|2,1:2|0:0,0:0:0:0:
260,258,79276,1,8,3:2:0:0:
333,199,79458,1,2,0:0:0:0:
437,327,79640,6,0,L|326:315,1,112.5,2|2,1:2|0:0,0:0:0:0:
180,125,80004,2,0,L|292:113,1,112.5,8|2,3:2|0:0,0:0:0:0:
459,75,80367,2,0,P|460:130|431:177,1,112.5,2|2,1:2|0:0,0:0:0:0:
222,45,80731,1,8,3:2:0:0:
361,147,80913,1,10,3:2:0:0:
220,219,81095,6,0,L|108:200,1,112.5,6|2,1:2|0:0,0:0:0:0:
185,130,81458,1,8,3:2:0:0:
280,282,81640,1,2,0:0:0:0:
94,377,81822,2,0,P|66:329|69:273,1,112.5,2|2,1:2|0:0,0:0:0:0:
192,334,82185,1,8,3:2:0:0:
27,206,82367,1,2,0:0:0:0:
192,334,82549,6,0,L|305:326,1,112.5,2|2,1:2|0:0,0:0:0:0:
468,172,82913,2,0,L|356:164,1,112.5,8|2,3:2|0:0,0:0:0:0:
405,384,83276,2,0,L|412:271,1,112.5,2|2,1:2|0:0,0:0:0:0:
248,102,83640,2,0,L|255:214,1,112.5,8|2,3:2|0:0,0:0:0:0:
511,310,84004,6,0,P|466:276|411:271,1,112.5,6|2,1:2|0:0,0:0:0:0:
255,214,84367,1,8,3:2:0:0:
464,177,84549,1,2,0:0:0:0:
366,354,84731,2,0,L|254:347,1,112.5,2|2,1:2|0:0,0:0:0:0:
358,195,85095,1,8,3:2:0:0:
153,228,85276,1,10,3:2:0:0:
339,7,85458,6,0,P|354:60|342:114,1,112.5,2|2,1:2|0:0,0:0:0:0:
253,346,85822,2,0,P|238:293|250:239,1,112.5,8|2,3:2|0:0,0:0:0:0:
480,246,86185,5,2,1:2:0:0:
278,161,86367,1,2,0:0:0:0:
441,90,86549,5,8,3:2:0:0:
323,318,86731,1,2,3:2:0:0:
103,179,86913,6,0,B|116:130|116:130|184:86|184:86|231:93,1,180,6|0,1:2|0:0,0:0:0:0:
238,251,87458,1,2,0:0:0:0:
103,179,87640,6,0,P|146:103|232:93,1,180,2|0,1:2|0:0,0:0:0:0:
238,251,88276,6,0,B|290:231|290:231|397:266|397:266|531:257|509:85|392:107,1,405,4|0,3:2|0:0,0:0:0:0:
