osu file format v14

[General]
AudioFilename: audio.mp3
AudioLeadIn: 0
PreviewTime: 54731
Countdown: 0
SampleSet: Soft
StackLeniency: 0.2
Mode: 0
LetterboxInBreaks: 0
WidescreenStoryboard: 0

[Editor]
DistanceSpacing: 2
BeatDivisor: 4
GridSize: 16
TimelineZoom: 3.899998

[Metadata]
Title:Hitorigoto -TV MIX-
TitleUnicode:ヒトリゴト -TV MIX-
Artist:ClariS
ArtistUnicode:ClariS
Creator:Tofu1222
Version:Lv9's Insane
Source:エロマンガ先生
Tags:eromanga sensei ero manga eromanga-sensei opening tv size eromangasensei Suzuki_1112 1112deng kanor Level9 Ryuusei Aika RsAk Moeri Moecho [Kamiya] victorica_db [Emiria]
BeatmapID:1282701
BeatmapSetID:602861

[Difficulty]
HPDrainRate:6
CircleSize:4.5
OverallDifficulty:8
ApproachRate:9.2
SliderMultiplier:1.92
SliderTickRate:1

[Events]
//Background and Video events
0,0,"BG_Lv9.jpg",0,0
Video,0,"eromanga.avi"
//Break Periods
//Storyboard Layer 0 (Background)
//Storyboard Layer 1 (Fail)
//Storyboard Layer 2 (Pass)
//Storyboard Layer 3 (Foreground)
//Storyboard Sound Samples

[TimingPoints]
1095,363.636363636364,4,2,33,75,1,0
1095,-133.333333333333,4,2,33,75,0,0
1458,-200,4,2,33,75,0,0
2549,-133.333333333333,4,2,33,75,0,0
2913,-200,4,2,33,75,0,0
4004,-133.333333333333,4,2,33,75,0,0
4367,-200,4,2,33,75,0,0
5458,-200,4,2,33,80,0,0
6185,-200,4,2,33,75,0,0
6913,-133.333333333333,4,2,33,75,0,0
7276,-200,4,2,33,75,0,0
8367,-133.333333333333,4,2,33,75,0,0
8731,-200,4,2,33,75,0,0
9822,-133.333333333333,4,2,33,75,0,0
10185,-200,4,2,33,75,0,0
11276,-200,4,2,33,80,0,0
12004,-100,4,2,33,75,0,0
12731,-100,4,2,33,70,0,1
15913,-100,4,2,33,35,0,1
16004,-100,4,2,33,70,0,1
18822,-100,4,2,33,35,0,1
18913,-100,4,2,33,70,0,1
21731,-100,4,2,33,35,0,1
21822,-100,4,2,33,70,0,1
23822,-100,4,2,33,50,0,1
24185,-133.333333333333,4,2,33,50,0,0
24345,-133.333333333333,4,2,33,70,0,0
24367,-133.333333333333,4,2,33,65,0,0
24731,-200,4,2,33,65,0,0
27185,-200,4,2,33,33,0,0
27276,-200,4,2,33,65,0,0
28913,-133.333333333333,4,2,33,65,0,0
29185,-133.333333333333,4,2,33,5,0,0
29276,-133.333333333333,4,2,33,65,0,0
30004,-200,4,2,33,65,0,0
33004,-200,4,2,33,33,0,0
33095,-200,4,2,33,65,0,0
34731,-133.333333333333,4,2,33,65,0,0
35004,-133.333333333333,4,2,33,5,0,0
35095,-133.333333333333,4,2,33,65,0,0
35458,-200,4,2,33,65,0,0
35640,-166.666666666667,4,2,33,48,0,0
35822,-142.857142857143,4,2,33,56,0,0
35913,-142.857142857143,4,2,33,48,0,0
36004,-200,4,2,33,55,0,0
38095,-200,4,2,33,28,0,0
38185,-200,4,2,33,55,0,0
41095,-166.666666666667,4,2,33,60,0,0
41458,-142.857142857143,4,2,33,65,0,0
41822,-142.857142857143,4,2,33,70,0,0
52004,-125,4,2,33,70,0,0
53276,-125,4,2,33,60,0,0
53458,-125,4,2,33,80,0,0
54004,-111.111111111111,4,2,33,80,0,0
54428,-111.111111111111,4,2,33,20,0,0
54488,-111.111111111111,4,2,34,40,0,0
54519,-111.111111111111,4,2,34,20,0,0
54913,-100,4,2,50,100,0,1
55095,-100,4,2,33,80,0,1
56367,-100,4,2,51,85,0,1
56549,-100,4,2,33,80,0,1
57095,-100,4,2,50,85,0,1
57185,-100,4,2,50,43,0,1
57276,-100,4,2,33,80,0,1
57367,-100,4,2,33,40,0,1
57458,-100,4,2,33,80,0,1
57549,-100,4,2,33,40,0,1
57640,-100,4,2,33,80,0,1
57822,-100,4,2,52,85,0,1
58004,-100,4,2,33,80,0,1
59276,-100,4,2,51,85,0,1
59458,-100,4,2,33,80,0,1
60004,-100,4,2,50,85,0,1
60095,-100,4,2,50,43,0,1
60185,-100,4,2,33,80,0,1
60367,-100,4,2,33,70,0,1
60458,-100,4,2,33,35,0,1
60549,-100,4,2,33,70,0,1
60640,-100,4,2,33,35,0,1
60731,-100,4,2,52,85,0,1
60913,-100,4,2,33,80,0,1
62185,-100,4,2,53,85,0,1
62367,-100,4,2,33,80,0,1
62913,-100,4,2,54,85,0,1
63185,-100,4,2,33,43,0,1
63276,-100,4,2,33,80,0,1
63640,-142.857142857143,4,2,55,85,0,0
63913,-142.857142857143,4,2,33,43,0,0
64004,-125,4,2,54,85,0,0
64276,-125,4,2,33,43,0,0
64367,-111.111111111111,4,2,55,85,0,0
64640,-111.111111111111,4,2,33,43,0,0
64731,-100,4,2,53,85,0,0
64913,-100,4,2,33,80,0,0
65276,-100,4,2,56,85,0,0
65458,-100,4,2,33,80,0,0
65640,-100,4,2,57,85,0,0
65822,-100,4,2,33,80,0,0
66004,-100,4,2,58,85,0,0
66185,-100,4,2,33,80,0,0
66367,-100,4,2,55,85,0,0
66549,-100,4,2,50,100,0,1
66731,-100,4,2,33,80,0,1
68004,-100,4,2,51,85,0,1
68185,-100,4,2,33,80,0,1
68731,-100,4,2,50,85,0,1
68822,-100,4,2,50,43,0,1
68913,-100,4,2,33,80,0,1
69004,-100,4,2,33,40,0,1
69095,-100,4,2,33,80,0,1
69185,-100,4,2,33,40,0,1
69276,-100,4,2,33,80,0,1
69458,-100,4,2,52,85,0,1
69640,-100,4,2,33,80,0,1
70913,-100,4,2,51,85,0,1
71095,-100,4,2,33,80,0,1
71640,-100,4,2,50,85,0,1
71731,-100,4,2,50,43,0,1
71822,-100,4,2,33,80,0,1
71913,-100,4,2,33,40,0,1
72004,-100,4,2,33,80,0,1
72095,-100,4,2,33,40,0,1
72185,-100,4,2,33,80,0,1
72367,-100,4,2,52,85,0,1
72549,-100,4,2,33,80,0,1
73822,-100,4,2,53,85,0,1
74004,-100,4,2,33,80,0,1
74276,-100,4,2,33,40,0,1
74367,-100,4,2,33,80,0,1
74549,-100,4,2,54,85,0,1
74731,-100,4,2,33,80,0,1
74913,-100,4,2,33,70,0,1
75185,-100,4,2,33,35,0,1
75276,-100,4,2,55,85,0,1
75458,-100,4,2,33,80,0,1
76004,-100,4,2,53,85,0,1
76185,-100,4,2,33,80,0,1
76731,-100,4,2,52,100,0,1
76913,-100,4,2,33,80,0,1
77458,-100,4,2,60,85,0,1
77640,-100,4,2,33,80,0,1
78185,-100,4,2,59,100,0,1
78367,-100,4,2,33,80,0,1
78913,-100,4,2,52,85,0,1
79185,-100,4,2,33,43,0,1
79276,-100,4,2,33,80,0,1
79640,-100,4,2,52,85,0,1
79913,-100,4,2,33,43,0,1
80004,-100,4,2,33,80,0,1
80367,-100,4,2,60,85,0,1
80549,-100,4,2,33,80,0,1
81095,-100,4,2,59,85,0,1
81367,-100,4,2,33,43,0,1
81458,-100,4,2,33,80,0,1
81822,-100,4,2,52,85,0,1
82004,-100,4,2,33,80,0,1
82549,-100,4,2,50,85,0,1
82731,-100,4,2,33,80,0,1
83276,-100,4,2,52,85,0,1
83458,-100,4,2,33,80,0,1
84004,-100,4,2,59,85,0,1
84185,-100,4,2,33,80,0,1
84731,-100,4,2,52,85,0,1
84913,-100,4,2,33,80,0,1
85458,-100,4,2,52,85,0,1
85640,-100,4,2,33,80,0,1
86185,-100,4,2,60,85,0,1
86367,-100,4,2,33,80,0,1
86913,-125,4,2,59,85,0,0
86935,-125,4,2,33,80,0,0
88276,-125,4,2,60,60,0,0
88322,-125,4,2,33,40,0,0

[Colours]
Combo1 : 215,215,183
Combo2 : 0,128,128
Combo3 : 192,192,192
Combo4 : 255,128,192

[HitObjects]
230,110,1095,6,0,P|231:75|243:41,1,72.0000027465821,8|8,3:2|3:2,0:0:0:0:
128,192,1458,2,0,B|197:164|197:219|267:191,1,144,0|2,0:0|0:0,0:0:0:0:
319,122,2185,1,0,0:0:0:0:
382,238,2549,6,0,P|393:272|392:307,1,72.0000027465821,8|8,3:2|3:2,0:0:0:0:
297,285,2913,2,0,P|229:274|178:322,1,144,0|2,3:0|0:0,0:0:0:0:
128,192,3640,1,0,0:0:0:0:
179,322,4004,6,0,P|196:291|191:256,1,72.0000027465821,8|8,3:2|3:2,0:0:0:0:
228,175,4367,2,0,B|159:147|159:202|89:174,1,144,0|2,0:0|0:0,0:0:0:0:
95,42,5095,2,0,P|128:42|139:74,1,72
125,92,5458,5,4,0:0:0:0:
256,192,5549,12,8,6731,3:2:0:0:
342,318,6913,6,8,P|308:316|296:285,1,72.0000027465821
449,172,7276,2,0,P|460:241|428:304,1,144,0|2,3:0|0:0,0:0:0:0:
372,227,8004,1,0,0:0:0:0:
316,151,8367,6,8,P|317:117|348:105,1,72.0000027465821
372,227,8731,2,0,P|302:238|239:206,1,144,0|2,3:0|0:0,0:0:0:0:
228,101,9458,1,0,0:0:0:0:
248,322,9822,6,8,B|213:308|213:335|178:321,1,72.0000027465821,8|10,0:0|0:0,0:0:0:0:
96,336,10185,2,0,P|153:306|124:249,1,144,0|2,3:0|0:0,0:0:0:0:
56,152,10913,2,0,P|53:175|62:197,1,48,0|0,0:0|0:0,0:0:0:0:
150,160,11276,6,0,B|182:151|214:160|214:160|246:143|246:143|278:160|314:151,1,168,4|0,3:2|0:0,0:0:0:0:
264,78,12004,6,0,P|229:109|220:156,1,96,12|2,3:2|0:0,0:0:0:0:
236,196,12276,1,0,0:0:0:0:
268,226,12367,1,0,0:0:0:0:
311,239,12458,1,0,0:0:0:0:
355,233,12549,2,0,P|371:216|378:193,1,48,10|10,3:2|3:2,0:0:0:0:
323,137,12731,5,6,0:0:0:0:
438,281,12913,1,0,3:0:0:0:
216,233,13095,2,0,P|168:236|121:247,1,96,10|0,0:0|3:0,0:0:0:0:
96,336,13458,1,2,0:0:0:0:
146,156,13640,1,0,3:0:0:0:
218,248,13822,1,10,0:0:0:0:
40,239,14004,6,0,B|15:246|15:246|9:211|26:179,1,96,0|2,3:0|0:0,0:0:0:0:
101,56,14367,2,0,B|106:31|106:31|140:43|159:74,1,96,0|10,3:0|0:0,0:0:0:0:
229,199,14731,2,0,B|247:216|247:216|220:239|184:241,1,96,0|2,3:0|0:0,0:0:0:0:
123,165,15095,5,0,3:0:0:0:
253,120,15276,1,10,0:0:0:0:
135,153,15458,1,0,3:0:0:0:
302,266,15640,6,0,B|331:251|361:266|361:266|391:295|436:280,1,144,6|2,3:2|0:0,0:0:0:0:
413,203,16004,2,0,P|383:166|381:119,1,96,10|0,0:0|3:0,0:0:0:0:
474,133,16367,1,2,0:0:0:0:
328,341,16549,1,0,3:0:0:0:
437,279,16731,1,10,0:0:0:0:
251,226,16913,6,0,B|222:221|209:204|209:204|226:192|255:197,1,96,0|2,3:0|0:0,0:0:0:0:
372,279,17276,2,0,B|382:306|374:325|374:325|355:316|344:289,1,96,0|10,3:0|0:0,0:0:0:0:
358,148,17640,2,0,B|376:125|397:123|397:123|399:143|380:166,1,96,2|2,3:2|0:0,0:0:0:0:
327,217,18004,5,0,3:0:0:0:
264,85,18185,1,10,0:0:0:0:
333,232,18367,1,0,3:0:0:0:
397,123,18549,6,0,P|446:76|508:104,1,144,4|2,3:2|0:0,0:0:0:0:
419,217,18913,2,0,B|363:235|382:198|326:217,1,96,10|0,0:0|3:0,0:0:0:0:
250,311,19276,1,2,0:0:0:0:
207,199,19458,1,0,3:0:0:0:
348,311,19640,1,10,0:0:0:0:
191,201,19822,6,0,P|190:153|205:107,1,96,0|2,3:0|0:0,0:0:0:0:
377,131,20185,2,0,P|336:155|290:166,1,96,0|10,3:0|0:0,0:0:0:0:
255,41,20549,2,0,B|244:17|244:17|278:30|298:61,1,96,0|2,3:0|0:0,0:0:0:0:
287,181,20913,5,0,3:0:0:0:
398,27,21095,1,10,0:0:0:0:
193,97,21276,1,0,3:0:0:0:
289,166,21458,6,0,B|344:174|344:174|369:192|369:192|424:201,1,144,6|2,3:2|0:0,0:0:0:0:
474,133,21822,2,0,B|501:113|501:113|441:122,1,96,10|0,0:0|3:0,0:0:0:0:
273,244,22185,1,2,0:0:0:0:
229,113,22367,1,0,3:0:0:0:
370,193,22549,1,10,0:0:0:0:
135,153,22731,6,0,B|111:160|96:180|96:180|118:184|139:199,1,96,0|6,3:0|0:0,0:0:0:0:
218,312,23095,2,0,B|223:287|213:264|213:264|198:282|176:292,1,96,0|10,3:0|0:0,0:0:0:0:
37,303,23458,2,0,B|55:319|80:322|80:322|72:301|74:276,1,96,2|2,3:2|0:0,0:0:0:0:
135,153,23822,5,0,0:0:0:0:
229,113,24004,1,10,0:0:0:0:
325,156,24185,2,0,L|361:151,1,36.0000013732911,0|10,3:2|3:2,0:0:0:0:
443,50,24367,5,4,0:0:0:0:
445,34,24731,2,0,L|397:26,1,48,8|2,3:2|0:0,0:0:0:0:
325,156,25095,2,0,P|330:178|345:196,1,48,0|2,3:0|0:0,0:0:0:0:
240,104,25458,2,0,L|192:96,1,48,8|2,3:2|0:0,0:0:0:0:
346,196,25822,2,0,P|368:190|386:175,1,48,0|2,3:0|0:0,0:0:0:0:
186,207,26185,2,0,L|178:255,1,48,8|2,3:2|0:0,0:0:0:0:
386,174,26549,2,0,P|380:151|365:133,1,48,0|2,3:0|0:0,0:0:0:0:
273,244,26913,6,0,B|263:284|283:274|273:314,1,72,8|0,3:2|0:0,0:0:0:0:
269,329,27276,1,0,3:0:0:0:
353,260,27458,5,2,0:0:0:0:
433,276,27640,1,8,3:2:0:0:
486,214,27822,1,2,0:0:0:0:
438,290,28004,5,0,3:0:0:0:
336,171,28185,1,2,0:0:0:0:
350,275,28367,5,8,3:2:0:0:
439,122,28549,1,2,0:0:0:0:
446,121,28640,1,10,0:0:0:0:
454,120,28731,5,0,3:0:0:0:
273,244,28913,2,0,P|220:232|166:227,1,108.000004119873,2|0,3:2|0:0,0:0:0:0:
154,238,29276,2,0,P|122:254|87:248,1,72.0000027465821,2|0,0:0|3:0,0:0:0:0:
40,167,29640,1,2,0:0:0:0:
42,151,29731,1,2,0:0:0:0:
45,135,29822,1,8,3:2:0:0:
190,38,30004,2,0,L|186:14,1,24,10|8,0:0|0:0,0:0:0:0:
238,120,30185,5,4,3:2:0:0:
240,104,30549,6,0,L|287:111,1,48,8|2,3:2|0:0,0:0:0:0:
425,201,30913,2,0,P|401:203|381:217,1,48,0|2,3:0|0:0,0:0:0:0:
238,120,31277,2,0,L|231:167,1,48,8|2,3:2|0:0,0:0:0:0:
381,217,31640,2,0,P|371:238|373:262,1,48,0|2,3:0|0:0,0:0:0:0:
221,321,32004,2,0,L|268:328,1,48,8|2,3:2|0:0,0:0:0:0:
373,262,32368,2,0,P|387:281|408:291,1,48,0|2,3:0|0:0,0:0:0:0:
447,203,32731,6,0,B|442:175|442:175|447:160|447:160|442:133,1,72,8|0,3:2|0:0,0:0:0:0:
446,116,33095,1,0,3:0:0:0:
311,140,33276,5,2,0:0:0:0:
240,104,33458,1,8,3:2:0:0:
235,24,33640,1,2,0:0:0:0:
226,112,33822,5,0,3:0:0:0:
145,148,34004,1,2,0:0:0:0:
240,121,34185,5,8,3:2:0:0:
209,258,34367,1,2,0:0:0:0:
198,235,34457,1,8,0:0:0:0:
215,216,34548,5,0,0:0:0:0:
195,342,34731,2,0,P|149:363|111:329,1,108.000004119873,2|0,0:0|0:0,0:0:0:0:
110,328,35095,2,2,P|137:348|129:381,1,72.0000027465821
209,258,35458,6,0,L|233:258,1,24
332,188,35640,6,8,P|319:195|315:208,1,28.7999991210938
419,320,35822,6,10,P|419:303|409:291,1,33.5999989746094
332,188,36004,6,0,P|386:248|420:174,1,192,4|8,3:2|0:0,0:0:0:0:
287,48,36973,6,0,B|279:78|279:78|287:109,1,64,0|0,3:0|3:0,0:0:0:0:
366,288,37458,6,0,B|301:277|301:277|271:256|271:256|207:246,1,168,0|0,3:0|0:0,0:0:0:0:
191,256,38185,2,0,B|174:278|174:278|135:284|135:284|113:268,1,96,8|0,0:0|3:0,0:0:0:0:
52,158,38731,1,8,0:0:0:0:
54,173,38822,1,2,0:0:0:0:
57,189,38913,6,0,L|72:94,1,96,4|0,3:2|0:0,0:0:0:0:
141,192,39640,1,8,0:0:0:0:
177,287,39882,6,0,L|188:351,1,64,0|0,3:0|3:0,0:0:0:0:
139,207,40367,6,0,B|177:187|215:207|215:207|253:226|292:207,1,160,0|0,3:0|0:0,0:0:0:0:
370,158,41095,6,0,P|380:142|382:124,2,38.399998828125,8|8|8,0:0|0:0|0:0,0:0:0:0:
418,236,41458,6,0,P|437:226|450:209,2,44.7999986328125,8|8|8,0:0|0:0|0:0,0:0:0:0:
340,284,41822,5,4,3:2:0:0:
292,206,42004,1,0,0:0:0:0:
313,37,42185,5,8,0:0:0:0:
432,64,42367,1,0,0:0:0:0:
298,54,42549,2,0,B|283:69|283:69|286:114,1,67.1999979492188,0|0,3:0|0:0,0:0:0:0:
370,158,42913,1,8,0:0:0:0:
202,72,43095,1,0,0:0:0:0:
387,173,43276,2,0,B|402:187|402:187|447:184,1,67.1999979492188,0|0,3:0|0:0,0:0:0:0:
486,103,43640,1,8,0:0:0:0:
457,273,43822,1,0,0:0:0:0:
419,353,44004,6,0,B|404:339|404:339|359:342,1,67.1999979492188,0|0,3:0|0:0,0:0:0:0:
347,354,44276,1,2,0:0:0:0:
336,365,44367,1,8,0:0:0:0:
230,328,44549,2,0,L|95:335,1,134.399995898438,0|0,3:0|3:0,0:0:0:0:
96,336,45095,5,8,0:0:0:0:
21,249,45276,1,0,0:0:0:0:
99,115,45458,2,0,P|106:82|109:49,1,67.1999979492188,0|0,3:0|0:0,0:0:0:0:
15,330,45822,1,8,0:0:0:0:
102,255,46003,1,0,0:0:0:0:
27,168,46185,2,0,P|19:135|16:102,1,67.1999979492188,0|0,3:0|0:0,0:0:0:0:
191,61,46549,1,8,0:0:0:0:
160,192,46731,1,0,0:0:0:0:
311,158,46913,6,0,L|321:91,1,67.1999979492188,0|0,3:0|0:0,0:0:0:0:
323,75,47185,1,2,0:0:0:0:
326,59,47276,1,8,0:0:0:0:
418,236,47458,2,0,B|383:246|383:246|398:150,1,134.399995898438
506,124,48004,5,10,0:0:0:0:
329,43,48185,1,0,0:0:0:0:
376,35,48367,1,0,3:0:0:0:
423,27,48549,1,0,0:0:0:0:
292,206,48731,5,10,0:0:0:0:
163,66,48913,1,0,0:0:0:0:
242,78,49095,1,0,3:0:0:0:
321,91,49276,1,0,0:0:0:0:
160,192,49458,5,10,0:0:0:0:
400,104,49640,1,0,0:0:0:0:
293,17,49822,1,0,3:0:0:0:
346,197,50004,1,0,3:0:0:0:
372,30,50185,1,10,0:0:0:0:
253,249,50367,1,2,0:0:0:0:
245,263,50458,1,2,0:0:0:0:
233,275,50549,6,0,P|168:258|101:254,1,134.399995898438,0|10,3:0|0:0,0:0:0:0:
15,330,51095,1,0,0:0:0:0:
171,241,51276,2,0,B|188:221|188:221|184:147,1,100.799996923828,0|0,3:0|0:0,0:0:0:0:
242,78,51640,6,0,L|309:74,1,67.1999979492188,10|2,0:0|0:0,0:0:0:0:
342,157,51913,1,2,0:0:0:0:
352,144,52004,6,0,B|406:146|429:201|429:201|388:247|391:303|435:337|435:337|497:301|497:269|481:252|481:252|466:274|478:305|509:332,1,460.8,0|10,3:0|3:2,0:0:0:0:
320,232,53276,2,0,P|314:249|314:268,1,38.4,10|10,0:0|0:0,0:0:0:0:
336,344,53458,5,0,3:0:0:0:
101,253,53640,1,0,3:0:0:0:
85,242,54004,6,0,B|117:226|149:242|149:242|181:258|213:242|229:210|213:178|181:162,1,201.599993847656,4|0,3:2|0:0,0:0:0:0:
168,92,54488,6,0,P|171:85|172:78,11,14.3999995605469,2|2|2|2|2|2|2|2|2|2|2|2,0:0|0:0|0:0|0:0|0:0|0:0|0:0|0:0|0:0|0:0|0:0|0:0,0:0:0:0:
190,167,54913,6,0,P|222:200|269:207,1,96,6|2,1:2|0:0,0:0:0:0:
352,144,55276,1,8,3:2:0:0:
288,304,55458,1,2,0:0:0:0:
288,59,55640,5,0,3:0:0:0:
362,239,55822,1,2,0:0:0:0:
437,80,56004,5,8,3:2:0:0:
378,255,56185,1,2,0:0:0:0:
258,130,56367,5,2,1:2:0:0:
273,224,56549,1,2,0:0:0:0:
179,239,56731,1,8,3:2:0:0:
164,145,56913,1,2,0:0:0:0:
239,313,57095,6,0,P|262:316|285:313,1,48,2|0,1:2|0:0,0:0:0:0:
363,257,57277,2,0,P|377:238|386:216,1,48,2|0,0:0|0:0,0:0:0:0:
376,121,57459,2,0,P|367:99|352:80,1,48,8|0,3:2|0:0,0:0:0:0:
264,41,57640,1,2,3:2:0:0:
248,38,57731,1,10,0:0:0:0:
232,35,57822,5,6,1:2:0:0:
464,64,58004,1,2,0:0:0:0:
258,130,58185,5,8,3:2:0:0:
480,61,58367,1,2,0:0:0:0:
386,215,58549,5,0,3:0:0:0:
400,16,58731,1,2,0:0:0:0:
464,272,58913,5,8,3:2:0:0:
352,80,59095,1,2,0:0:0:0:
293,251,59276,5,2,1:2:0:0:
321,325,59458,1,2,0:0:0:0:
399,337,59640,1,8,3:2:0:0:
448,275,59822,1,2,0:0:0:0:
232,202,60004,6,0,L|184:209,1,48,2|0,1:2|0:0,0:0:0:0:
20,103,60185,1,2,0:0:0:0:
35,105,60276,1,2,0:0:0:0:
51,108,60367,6,0,L|99:115,1,48,8|0,3:2|0:0,0:0:0:0:
253,72,60549,2,0,L|209:50,1,48,10|0,3:2|0:0,0:0:0:0:
312,252,60731,6,0,P|358:252|385:214,1,96,6|2,1:2|0:0,0:0:0:0:
359,110,61095,1,8,3:2:0:0:
399,337,61276,1,2,0:0:0:0:
288,176,61458,5,0,3:0:0:0:
384,352,61640,1,2,0:0:0:0:
259,268,61822,5,8,3:2:0:0:
360,218,62004,1,2,0:0:0:0:
184,208,62185,5,6,1:2:0:0:
376,234,62367,1,2,0:0:0:0:
210,50,62549,5,8,3:2:0:0:
274,283,62731,1,2,0:0:0:0:
368,113,62913,6,0,P|396:54|454:83,1,144,2|0,1:2|0:0,0:0:0:0:
381,190,63276,2,0,B|326:194|343:170|288:175,1,96,8|2,3:2|3:2,0:0:0:0:
87,190,63640,6,0,B|102:237|102:237|87:285,1,100.799996923828,6|0,1:2|0:0,0:0:0:0:
87,286,64004,6,0,P|102:335|151:319,1,115.2,10|0,1:2|0:0,0:0:0:0:
152,318,64367,6,0,B|198:310|198:310|226:290|226:290|272:283,1,129.599996044922,6|0,1:2|0:0,0:0:0:0:
273,282,64731,6,0,B|333:291|333:291|300:301,1,96,10|2,1:2|0:0,0:0:0:0:
232,202,65095,5,8,3:2:0:0:
311,212,65276,1,2,1:2:0:0:
368,155,65458,1,8,3:2:0:0:
354,74,65640,1,2,1:2:0:0:
354,148,65822,5,8,3:2:0:0:
423,188,66004,1,2,1:2:0:0:
493,136,66185,1,8,3:2:0:0:
460,44,66367,1,2,1:2:0:0:
456,280,66549,6,0,P|409:268|361:264,1,96,6|2,1:2|0:0,0:0:0:0:
273,282,66913,1,8,3:2:0:0:
354,148,67095,1,2,0:0:0:0:
361,264,67276,5,0,3:0:0:0:
272,80,67458,1,2,0:0:0:0:
257,298,67640,5,8,3:2:0:0:
288,64,67822,1,2,0:0:0:0:
160,96,68004,5,2,1:2:0:0:
169,190,68185,1,2,0:0:0:0:
83,150,68367,1,8,3:2:0:0:
74,55,68549,1,2,0:0:0:0:
185,206,68731,6,0,L|232:198,1,48,2|0,1:2|0:0,0:0:0:0:
263,79,68913,2,0,P|280:94|292:115,1,48,2|0,0:0|0:0,0:0:0:0:
299,300,69094,2,0,P|311:280|315:256,1,48,8|0,3:2|0:0,0:0:0:0:
375,174,69276,1,2,3:2:0:0:
382,172,69367,1,10,0:0:0:0:
390,171,69458,5,6,1:2:0:0:
232,197,69640,1,2,0:0:0:0:
416,256,69822,5,8,3:2:0:0:
192,272,70004,1,2,0:0:0:0:
396,342,70185,5,0,3:0:0:0:
176,256,70367,1,2,0:0:0:0:
304,352,70549,5,8,3:2:0:0:
173,141,70731,1,2,0:0:0:0:
315,197,70913,5,2,1:2:0:0:
390,171,71095,1,2,0:0:0:0:
415,95,71276,1,8,3:2:0:0:
367,29,71458,1,2,0:0:0:0:
226,113,71641,6,0,P|226:136|233:159,1,48,2|0,1:2|0:0,0:0:0:0:
260,255,71823,2,0,P|279:268|302:276,1,48,2|0,0:0|0:0,0:0:0:0:
395,310,72004,2,0,P|417:302|437:288,1,48,8|0,3:2|0:0,0:0:0:0:
463,186,72185,1,2,3:2:0:0:
465,170,72276,1,10,0:0:0:0:
468,154,72367,5,6,1:2:0:0:
315,197,72549,1,2,0:0:0:0:
384,112,72731,2,0,B|401:87|401:87|391:23,1,96,8|2,3:2|0:0,0:0:0:0:
288,64,73095,1,0,3:0:0:0:
468,154,73276,1,2,0:0:0:0:
330,258,73458,5,8,3:2:0:0:
399,206,73640,2,0,L|383:111,1,96,2|6,0:0|1:2,0:0:0:0:
251,225,74004,2,0,P|184:234|175:300,1,144,2|0,0:0|0:0,0:0:0:0:
195,311,74367,2,0,P|153:333|106:325,1,96,2|2,0:0|1:2,0:0:0:0:
298,315,74731,1,2,0:0:0:0:
299,292,74822,1,2,0:0:0:0:
314,274,74913,6,0,B|350:262|382:284|382:284|413:307|450:295,1,144,8|0,3:2|0:0,0:0:0:0:
424,224,75276,6,0,P|420:176|409:130,1,96,6|2,1:2|0:0,0:0:0:0:
288,64,75640,1,8,3:2:0:0:
241,224,75822,1,2,0:0:0:0:
311,158,76004,1,6,1:2:0:0:
125,103,76185,1,2,0:0:0:0:
256,344,76367,5,8,3:2:0:0:
176,256,76549,2,0,L|128:263,1,48,2|2,3:2|0:0,0:0:0:0:
240,328,76731,6,0,B|300:337|300:337|328:357|328:357|361:347|361:347|421:356,2,192,2|8|2,1:2|3:2|1:2,0:0:0:0:
146,348,77640,1,2,0:0:0:0:
241,224,77822,2,0,P|239:176|209:140,1,96,8|2,3:2|3:2,0:0:0:0:
131,93,78185,6,0,P|130:170|192:124,1,192,6|8,1:2|3:2,0:0:0:0:
188,55,78731,1,2,0:0:0:0:
241,224,78913,6,0,B|317:236|299:181|375:193,1,144,2|0,1:2|0:0,0:0:0:0:
355,268,79276,2,0,L|362:315,2,48,8|0|2,3:2|0:0|0:0,0:0:0:0:
480,224,79640,6,0,B|488:168|488:168|479:138|479:138|488:83,1,144,2|0,1:2|0:0,0:0:0:0:
476,16,80004,6,0,B|455:30|455:30|462:74|462:74|486:82,1,96,8|2,3:2|0:0,0:0:0:0:
357,128,80367,6,0,P|267:136|240:222,1,192,2|8,1:2|3:2,0:0:0:0:
298,315,80913,1,10,3:2:0:0:
318,201,81095,6,0,B|242:213|260:158|184:170,1,144,6|0,1:2|0:0,0:0:0:0:
201,245,81458,2,0,P|189:291|185:339,1,96,8|2,3:2|0:0,0:0:0:0:
196,359,81822,6,0,P|221:333|185:338,1,96,2|2,1:2|0:0,0:0:0:0:
318,201,82185,6,0,P|359:222|405:214,1,96,8|2,3:2|0:0,0:0:0:0:
512,144,82549,1,2,0:0:0:0:
467,76,82731,1,2,0:0:0:0:
444,189,82913,2,0,P|405:214|389:257,1,96,8|2,3:2|0:0,0:0:0:0:
391,304,83276,2,0,P|388:257|359:222,1,96,2|2,3:2|0:0,0:0:0:0:
190,121,83640,1,8,3:2:0:0:
190,121,84004,6,0,P|120:69|70:140,1,192,6|8,1:2|3:2,0:0:0:0:
186,214,84549,1,2,0:0:0:0:
106,325,84731,6,0,B|88:300|88:300|98:236,1,96,2|2,1:2|0:0,0:0:0:0:
190,121,85095,2,0,B|184:155|184:155|192:179|192:179|186:214,1,96,8|2,3:2|3:2,0:0:0:0:
180,245,85367,1,10,0:0:0:0:
178,261,85458,5,2,1:2:0:0:
240,328,85822,2,0,B|279:308|319:328|319:328|359:367|419:347,1,192,8|2,3:2|1:2,0:0:0:0:
384,264,86549,2,0,P|353:227|351:180,1,96,8|2,3:2|3:2,0:0:0:0:
359,152,86822,1,10,0:0:0:0:
380,132,86913,6,0,B|347:230|216:174|216:174|247:34|346:66|346:66|313:83|297:132,1,460.8,6|0,1:2|0:0,0:0:0:0:
380,132,88276,6,0,L|398:128,1,19.2,4|0,3:2|3:2,3:2:0:0:
