osu file format v14

[General]
AudioFilename: audio.mp3
AudioLeadIn: 0
PreviewTime: 54731
Countdown: 0
SampleSet: None
StackLeniency: 0.7
Mode: 3
LetterboxInBreaks: 0
SpecialStyle: 0
WidescreenStoryboard: 0

[Editor]
DistanceSpacing: 0.85
BeatDivisor: 4
GridSize: 32
TimelineZoom: 1.4

[Metadata]
Title:Hitorigoto -TV MIX-
TitleUnicode:ヒトリゴト -TV MIX-
Artist:ClariS
ArtistUnicode:ClariS
Creator:Tofu1222
Version:Easy
Source:エロマンガ先生
Tags:eromanga sensei ero manga eromanga-sensei opening tv size eromangasensei Suzuki_1112 1112deng kanor Level9 Ryuusei Aika RsAk Moeri Moecho [Kamiya] victorica_db [Emiria]
BeatmapID:1273379
BeatmapSetID:602861

[Difficulty]
HPDrainRate:7
CircleSize:4
OverallDifficulty:7
ApproachRate:5
SliderMultiplier:1.4
SliderTickRate:1

[Events]
//Background and Video events
Video,0,"eromanga.avi"
0,0,"BG_Tofu.jpg",0,0
//Break Periods
//Storyboard Layer 0 (Background)
//Storyboard Layer 1 (Fail)
//Storyboard Layer 2 (Pass)
//Storyboard Layer 3 (Foreground)
//Storyboard Sound Samples
Sample,1095,0,"Whistle 2.wav",70
Sample,12731,0,"D#4S_Eb4S_s.wav",100
Sample,12731,0,"Crash.wav",70
Sample,13095,0,"A#5S_Bb5S_s.wav",100
Sample,13458,0,"G5S_s.wav",100
Sample,13822,0,"A#5S_Bb5S_s.wav",100
Sample,14185,0,"Bassdrum.wav",70
Sample,14549,0,"Snare.wav",70
Sample,14913,0,"Bassdrum.wav",70
Sample,15276,0,"Snare.wav",70
Sample,15640,0,"G#4S_Ab4S_s.wav",100
Sample,16004,0,"D#6S_Eb6S_s.wav",100
Sample,16367,0,"C6S_s.wav",100
Sample,16731,0,"D#6S_Eb6S_s.wav",100
Sample,17095,0,"Bassdrum.wav",70
Sample,17458,0,"Snare.wav",70
Sample,17822,0,"Bassdrum.wav",70
Sample,18185,0,"Snare.wav",70
Sample,18367,0,"B5S_s.wav",100
Sample,18549,0,"D#4S_Eb4S_s.wav",100
Sample,18913,0,"A#5S_Bb5S_s.wav",100
Sample,19276,0,"G5S_s.wav",100
Sample,19640,0,"A#5S_Bb5S_s.wav",100
Sample,20004,0,"Bassdrum.wav",70
Sample,20367,0,"Snare.wav",70
Sample,20731,0,"Bassdrum.wav",70
Sample,21095,0,"Snare.wav",70
Sample,21458,0,"G#4S_Ab4S_s.wav",100
Sample,21822,0,"D#6S_Eb6S_s.wav",100
Sample,22185,0,"C6S_s.wav",100
Sample,22549,0,"D#6S_Eb6S_s.wav",100
Sample,22913,0,"Crash.wav",70
Sample,22913,0,"Bassdrum.wav",70
Sample,23276,0,"Crash.wav",70
Sample,23276,0,"Snare.wav",70
Sample,23640,0,"Crash.wav",70
Sample,23640,0,"Bassdrum.wav",70
Sample,24004,0,"Snare.wav",70
Sample,24185,0,"B5S_s.wav",100
Sample,24367,0,"D#4S_Eb4S_s.wav",100
Sample,24549,0,"hihat02.wav",50
Sample,24731,0,"A#5S_Bb5S_s.wav",100
Sample,24913,0,"hihat02.wav",50
Sample,25095,0,"D#6S_Eb6S_s.wav",100
Sample,25276,0,"hihat02.wav",50
Sample,25458,0,"F6S_s.wav",100
Sample,25640,0,"hihat02.wav",50
Sample,25822,0,"G6S_s.wav",100
Sample,26004,0,"hihat02.wav",50
Sample,26185,0,"F6S_s.wav",100
Sample,26367,0,"hihat02.wav",50
Sample,26549,0,"D#6S_Eb6S_s.wav",100
Sample,26731,0,"hihat02.wav",50
Sample,26913,0,"F6S_s.wav",100
Sample,27095,0,"hihat02.wav",50
Sample,27458,0,"hihat02.wav",50
Sample,27458,0,"G6S_s.wav",100
Sample,27640,0,"G#6S_Ab6S_s.wav",100
Sample,27822,0,"hihat02.wav",50
Sample,27822,0,"G6S_s.wav",100
Sample,28004,0,"G#6S_Ab6S_s.wav",100
Sample,28185,0,"hihat02.wav",50
Sample,28185,0,"G6S_s.wav",100
Sample,28367,0,"G#6S_Ab6S_s.wav",100
Sample,28549,0,"G6S_s.wav",100
Sample,28549,0,"hihat02.wav",50
Sample,28731,0,"G#6S_Ab6S_s.wav",100
Sample,28913,0,"A#6S_Bb6S_s.wav",100
Sample,28913,0,"hihat02.wav",50
Sample,29276,0,"F6S_s.wav",100
Sample,29276,0,"hihat02.wav",50
Sample,29640,0,"D#6S_Eb6S_s.wav",100
Sample,29640,0,"hihat02.wav",50
Sample,29822,0,"F6S_s.wav",100
Sample,30004,0,"D#6S_Eb6S_s.wav",100
Sample,30185,0,"D#4S_Eb4S_s.wav",100
Sample,30367,0,"hihat02.wav",50
Sample,30549,0,"A#5S_Bb5S_s.wav",100
Sample,30731,0,"hihat02.wav",50
Sample,30913,0,"D#6S_Eb6S_s.wav",100
Sample,31095,0,"hihat02.wav",50
Sample,31276,0,"F6S_s.wav",100
Sample,31458,0,"hihat02.wav",50
Sample,31640,0,"G6S_s.wav",100
Sample,31822,0,"hihat02.wav",50
Sample,32004,0,"F6S_s.wav",100
Sample,32185,0,"hihat02.wav",50
Sample,32367,0,"D#6S_Eb6S_s.wav",100
Sample,32549,0,"hihat02.wav",50
Sample,32731,0,"F6S_s.wav",100
Sample,32913,0,"hihat02.wav",50
Sample,33276,0,"G6S_s.wav",100
Sample,33276,0,"hihat02.wav",50
Sample,33458,0,"G#6S_Ab6S_s.wav",100
Sample,33640,0,"G6S_s.wav",100
Sample,33640,0,"hihat02.wav",50
Sample,33822,0,"G#6S_Ab6S_s.wav",100
Sample,34004,0,"G6S_s.wav",100
Sample,34004,0,"hihat02.wav",50
Sample,34185,0,"G#6S_Ab6S_s.wav",100
Sample,34367,0,"hihat02.wav",50
Sample,34367,0,"G6S_s.wav",100
Sample,34549,0,"G#6S_Ab6S_s.wav",100
Sample,34731,0,"A#6S_Bb6S_s.wav",100
Sample,34731,0,"hihat02.wav",50
Sample,35095,0,"F6S_s.wav",100
Sample,35095,0,"hihat02.wav",50
Sample,35458,0,"D#6S_Eb6S_s.wav",100
Sample,35458,0,"hihat02.wav",50
Sample,35640,0,"F6S_s.wav",100
Sample,35822,0,"D#6S_Eb6S_s.wav",100
Sample,36004,0,"C4S_s.wav",100
Sample,36004,0,"Crash.wav",70
Sample,36004,0,"SCG_C3s.wav",30
Sample,36367,0,"A#6S_Bb6S_s.wav",100
Sample,36731,0,"SCG_G3s.wav",30
Sample,36731,0,"G6S_s.wav",100
Sample,37095,0,"SCG_C4s.wav",30
Sample,37095,0,"A#6S_Bb6S_s.wav",100
Sample,37458,0,"hihat03.wav",50
Sample,37458,0,"G6S_s.wav",100
Sample,37458,0,"SCG_B3s.wav",30
Sample,37822,0,"hihat03.wav",50
Sample,38004,0,"SCG_G3s.wav",30
Sample,38004,0,"A#6S_Bb6S_s.wav",100
Sample,38185,0,"hihat03.wav",50
Sample,38549,0,"A#6S_Bb6S_s.wav",100
Sample,38549,0,"SCG_B3s.wav",30
Sample,38731,0,"A#6S_Bb6S_s.wav",100
Sample,38913,0,"Crash.wav",70
Sample,38913,0,"SCG_A#3s.wav",30
Sample,38913,0,"Whistle 2.wav",70
Sample,38913,0,"C7S_s.wav",100
Sample,39276,0,"A#6S_Bb6S_s.wav",100
Sample,39640,0,"G6S_s.wav",100
Sample,39640,0,"SCG_C4s.wav",30
Sample,40004,0,"SCG_A#3s.wav",30
Sample,40004,0,"F6S_s.wav",100
Sample,40367,0,"D#6S_Eb6S_s.wav",100
Sample,40367,0,"SCG_A3s.wav",30
Sample,40367,0,"hihat03.wav",50
Sample,40731,0,"hihat03.wav",50
Sample,40913,0,"SCG_F3s.wav",30
Sample,40913,0,"C6S.wav",100
Sample,42004,0,"hihat.wav",70
Sample,42185,0,"D#6S_Eb6S_s.wav",100
Sample,42367,0,"hihat.wav",70
Sample,42367,0,"C6S_s.wav",100
Sample,42549,0,"D#6S_Eb6S_s.wav",100
Sample,42731,0,"hihat.wav",70
Sample,42913,0,"D#6S_Eb6S_s.wav",100
Sample,43095,0,"C6S_s.wav",100
Sample,43095,0,"hihat.wav",70
Sample,43276,0,"D#6S_Eb6S_s.wav",100
Sample,43458,0,"hihat.wav",70
Sample,43640,0,"D#6S_Eb6S_s.wav",100
Sample,43822,0,"C6S_s.wav",100
Sample,43822,0,"hihat.wav",70
Sample,44004,0,"D#6S_Eb6S_s.wav",100
Sample,44185,0,"F6S_s.wav",100
Sample,44367,0,"Snare.wav",70
Sample,44549,0,"G6S_s.wav",100
Sample,44913,0,"hihat.wav",70
Sample,45095,0,"D#6S_Eb6S_s.wav",100
Sample,45276,0,"C6S_s.wav",100
Sample,45276,0,"hihat.wav",70
Sample,45458,0,"D#6S_Eb6S_s.wav",100
Sample,45640,0,"hihat.wav",70
Sample,45822,0,"D#6S_Eb6S_s.wav",100
Sample,46004,0,"C6S_s.wav",100
Sample,46004,0,"hihat.wav",70
Sample,46185,0,"D#6S_Eb6S_s.wav",100
Sample,46367,0,"hihat.wav",70
Sample,46549,0,"D#6S_Eb6S_s.wav",100
Sample,46731,0,"C6S_s.wav",100
Sample,46731,0,"hihat.wav",70
Sample,46913,0,"D#6S_Eb6S_s.wav",100
Sample,47095,0,"F6S_s.wav",100
Sample,47276,0,"Snare.wav",70
Sample,47458,0,"G6S_s.wav",100
Sample,47822,0,"hihat.wav",70
Sample,48004,0,"D#6S_Eb6S_s.wav",100
Sample,48185,0,"hihat.wav",70
Sample,48185,0,"C6S_s.wav",100
Sample,48367,0,"D#6S_Eb6S_s.wav",100
Sample,48549,0,"hihat.wav",70
Sample,48731,0,"D#6S_Eb6S_s.wav",100
Sample,48913,0,"hihat.wav",70
Sample,48913,0,"C6S_s.wav",100
Sample,49095,0,"D#6S_Eb6S_s.wav",100
Sample,49276,0,"hihat.wav",70
Sample,49458,0,"D#6S_Eb6S_s.wav",100
Sample,49640,0,"C6S_s.wav",100
Sample,49822,0,"D#6S_Eb6S_s.wav",100
Sample,50004,0,"F6S_s.wav",100
Sample,50367,0,"G6S.wav",100
Sample,50731,0,"hihat.wav",70
Sample,51095,0,"F6S_s.wav",100
Sample,51276,0,"F6S_s.wav",100
Sample,51458,0,"hihat.wav",70
Sample,51822,0,"C6S_s.wav",100
Sample,52004,0,"G#6S_Ab6S_s.wav",100
Sample,52185,0,"hihat.wav",70
Sample,52367,0,"G6S_s.wav",100
Sample,52549,0,"hihat.wav",70
Sample,52731,0,"D#6S_Eb6S_s.wav",100
Sample,52913,0,"hihat.wav",70
Sample,53095,0,"F6S.wav",100
Sample,54185,0,"FX_WindChimes.wav",50
Sample,54913,0,"LR_NBell_D6.wav",70
Sample,54913,0,"F5S_s.wav",70
Sample,55095,0,"F6S_s.wav",100
Sample,55276,0,"F6S_s.wav",100
Sample,55640,0,"F6S_s.wav",100
Sample,55822,0,"D#6S_Eb6S_s.wav",100
Sample,56004,0,"D6S_s.wav",100
Sample,56185,0,"D#6S_Eb6S_s.wav",100
Sample,56367,0,"F6S_s.wav",100
Sample,56549,0,"F6S_s.wav",100
Sample,56913,0,"F6S_s.wav",100
Sample,57276,0,"A#6S_Bb6S_s.wav",100
Sample,57458,0,"A6S_s.wav",100
Sample,57640,0,"A#6S_Bb6S_s.wav",100
Sample,57822,0,"LR_NBell_A#5.wav",70
Sample,58004,0,"F6S_s.wav",100
Sample,58185,0,"F6S_s.wav",100
Sample,58367,0,"F6S_s.wav",100
Sample,58549,0,"F6S_s.wav",100
Sample,58731,0,"D#6S_Eb6S_s.wav",100
Sample,58913,0,"D6S_s.wav",100
Sample,59095,0,"D#6S_Eb6S_s.wav",100
Sample,59276,0,"F6S_s.wav",100
Sample,59458,0,"F6S_s.wav",100
Sample,59822,0,"F6S_s.wav",100
Sample,60185,0,"D7S_s.wav",100
Sample,60367,0,"C7S_s.wav",100
Sample,60549,0,"A#6S_Bb6S_s.wav",100
Sample,60731,0,"LR_NBell_A#5.wav",70
Sample,60913,0,"G6S_s.wav",100
Sample,61095,0,"G6S_s.wav",100
Sample,61458,0,"G6S_s.wav",100
Sample,61640,0,"G6S_s.wav",100
Sample,61822,0,"A6S_s.wav",100
Sample,62004,0,"A#6S_Bb6S_s.wav",100
Sample,62185,0,"LR_NBell_F5.wav",70
Sample,62367,0,"F6S_s.wav",100
Sample,62549,0,"F6S_s.wav",100
Sample,62731,0,"F6S_s.wav",100
Sample,62913,0,"D6S_s.wav",100
Sample,63276,0,"F6S_s.wav",100
Sample,63640,0,"D#6S_Eb6S_s.wav",100
Sample,63640,0,"LR_NBell_D#5.wav",70
Sample,64004,0,"LR_NBell_D5.wav",70
Sample,64004,0,"D6S_s.wav",100
Sample,64367,0,"LR_NBell_D#5.wav",70
Sample,64367,0,"D#6S_Eb6S_s.wav",100
Sample,64731,0,"LR_NBell_F5.wav",70
Sample,64731,0,"F6S_s.wav",100
Sample,65095,0,"D6S_s.wav",100
Sample,65095,0,"LR_NBell_D5.wav",70
Sample,65276,0,"LR_NBell_F4.wav",40
Sample,65276,0,"C6S_s.wav",100
Sample,65276,0,"LR_NBell_C5.wav",70
Sample,65458,0,"LR_NBell_G4.wav",50
Sample,65458,0,"D6S_s.wav",100
Sample,65458,0,"LR_NBell_D5.wav",70
Sample,65640,0,"C6S_s.wav",100
Sample,65640,0,"LR_NBell_C5.wav",70
Sample,65640,0,"LR_NBell_A4.wav",60
Sample,65822,0,"FX_WindChimes.wav",50
Sample,65822,0,"LR_NBell_A#4.wav",70
Sample,66004,0,"LR_NBell_C5.wav",70
Sample,66185,0,"LR_NBell_D5.wav",70
Sample,66367,0,"LR_NBell_D#5.wav",70
Sample,66549,0,"LR_NBell_D6.wav",70
Sample,66549,0,"Whistle 2.wav",100
Sample,66731,0,"F6S_s.wav",100
Sample,66913,0,"F6S_s.wav",100
Sample,67095,0,"F6S_s.wav",100
Sample,67276,0,"F6S_s.wav",100
Sample,67458,0,"D#6S_Eb6S_s.wav",100
Sample,67640,0,"D6S_s.wav",100
Sample,67822,0,"D#6S_Eb6S_s.wav",100
Sample,68004,0,"F6S_s.wav",100
Sample,68367,0,"F6S_s.wav",100
Sample,68549,0,"F6S_s.wav",100
Sample,68913,0,"A#6S_Bb6S_s.wav",100
Sample,69095,0,"A6S_s.wav",100
Sample,69276,0,"A#6S_Bb6S_s.wav",100
Sample,69458,0,"LR_NBell_A#5.wav",70
Sample,69640,0,"F6S_s.wav",100
Sample,69822,0,"F6S_s.wav",100
Sample,70004,0,"F6S_s.wav",100
Sample,70185,0,"F6S_s.wav",100
Sample,70367,0,"D#6S_Eb6S_s.wav",100
Sample,70549,0,"D6S_s.wav",100
Sample,70731,0,"D#6S_Eb6S_s.wav",100
Sample,70913,0,"F6S_s.wav",100
Sample,71276,0,"F6S_s.wav",100
Sample,71458,0,"F6S_s.wav",100
Sample,71822,0,"D7S_s.wav",100
Sample,72004,0,"C7S_s.wav",100
Sample,72185,0,"A#6S_Bb6S_s.wav",100
Sample,72367,0,"LR_NBell_A#5.wav",70
Sample,72549,0,"G6S_s.wav",100
Sample,72913,0,"G6S_s.wav",100
Sample,73095,0,"G6S_s.wav",100
Sample,73276,0,"G6S_s.wav",100
Sample,73458,0,"A6S_s.wav",100
Sample,73640,0,"A#6S_Bb6S_s.wav",100
Sample,73822,0,"LR_NBell_F5.wav",70
Sample,74004,0,"F6S_s.wav",100
Sample,74367,0,"F6S_s.wav",100
Sample,74549,0,"D6S_s.wav",100
Sample,74913,0,"F6S_s.wav",100
Sample,75276,0,"D#6S_Eb6S_s.wav",100
Sample,75276,0,"LR_NBell_D#5.wav",70
Sample,76004,0,"F6S_s.wav",100
Sample,76549,0,"F6S_s.wav",100
Sample,76731,0,"A#6S_Bb6S_s.wav",100
Sample,76731,0,"LR_NBell_A#5.wav",70
Sample,77095,0,"LR_NBell_A5.wav",70
Sample,77095,0,"A6S_s.wav",100
Sample,77458,0,"LR_NBell_G5.wav",70
Sample,77458,0,"G6S_s.wav",100
Sample,77822,0,"A6S_s.wav",100
Sample,77822,0,"LR_NBell_A5.wav",70
Sample,78185,0,"A6S_s.wav",100
Sample,78185,0,"A6S_s.wav",100
Sample,78731,0,"A#6S_Bb6S_s.wav",100
Sample,78913,0,"A#6S_Bb6S_s.wav",100
Sample,78913,0,"LR_NBell_A#5.wav",70
Sample,79458,0,"F6S_s.wav",100
Sample,79640,0,"A#6S_Bb6S_s.wav",100
Sample,80004,0,"A6S_s.wav",100
Sample,80367,0,"G6S_s.wav",100
Sample,80367,0,"LR_NBell_G5.wav",70
Sample,80731,0,"A6S_s.wav",100
Sample,81095,0,"LR_NBell_A5.wav",70
Sample,81095,0,"A6S_s.wav",100
Sample,81640,0,"A#6S_Bb6S_s.wav",100
Sample,81822,0,"LR_NBell_A#5.wav",70
Sample,81822,0,"A#6S_Bb6S_s.wav",100
Sample,82185,0,"C7S_s.wav",100
Sample,82549,0,"LR_NBell_D6.wav",70
Sample,83276,0,"LR_NBell_A#5.wav",70
Sample,84004,0,"A6S_s.wav",100
Sample,84004,0,"LR_NBell_D#5.wav",70
Sample,84549,0,"A#6S_Bb6S_s.wav",100
Sample,84731,0,"A#6S_Bb6S_s.wav",100
Sample,84731,0,"LR_NBell_F5.wav",70
Sample,85458,0,"LR_NBell_A#5.wav",70
Sample,85458,0,"A#6S_Bb6S_s.wav",100
Sample,85822,0,"A6S_s.wav",100
Sample,85822,0,"LR_NBell_A5.wav",70
Sample,86185,0,"LR_NBell_G5.wav",70
Sample,86185,0,"G6S_s.wav",100
Sample,86549,0,"A6S_s.wav",100
Sample,86549,0,"Crash.wav",70
Sample,86549,0,"LR_NBell_A5.wav",70
Sample,86913,0,"A6S_s.wav",100
Sample,87640,0,"A#6S_Bb6S.wav",100

[TimingPoints]
1095,363.636363636364,4,3,0,30,1,0
54913,-100,4,3,0,30,0,1
86913,-100,4,3,0,30,0,0

[HitObjects]
448,192,1095,5,0,0:0:0:70:Bassdrum.wav
192,192,1276,1,0,0:0:0:70:Bassdrum.wav
192,192,2004,128,0,2549:0:0:0:0:
64,192,2549,1,0,0:0:0:70:Bassdrum.wav
320,192,2731,1,0,0:0:0:70:Bassdrum.wav
320,192,3458,128,0,4004:0:0:0:0:
448,192,4004,1,0,0:0:0:70:Bassdrum.wav
64,192,4185,1,0,0:0:0:70:Bassdrum.wav
192,192,4913,128,0,5458:0:0:0:0:
64,192,5458,128,0,6185:0:0:0:70:Bassdrum.wav
448,192,5458,1,0,0:0:0:70:cymbol.wav
320,192,6185,1,0,0:0:0:70:Bassdrum.wav
192,192,6428,1,0,0:0:0:70:Bassdrum.wav
64,192,6670,1,0,0:0:0:70:Bassdrum.wav
448,192,6913,1,0,0:0:0:70:Bassdrum.wav
192,192,7095,1,0,0:0:0:70:Bassdrum.wav
192,192,7822,128,0,8367:0:0:0:0:
64,192,8367,1,0,0:0:0:70:Bassdrum.wav
320,192,8549,1,0,0:0:0:70:Bassdrum.wav
320,192,9276,128,0,9822:0:0:0:0:
448,192,9822,1,0,0:0:0:70:Bassdrum.wav
64,192,10004,1,0,0:0:0:70:Bassdrum.wav
192,192,10731,128,0,11276:0:0:0:0:
64,192,11276,1,0,0:0:0:70:Bassdrum.wav
448,192,11276,128,0,12004:0:0:0:70:cymbol.wav
64,192,12004,128,0,12731:0:0:0:70:Bassdrum.wav
192,192,12004,1,0,0:0:0:70:Crash.wav
320,192,12246,1,0,0:0:0:70:Bassdrum.wav
192,192,12488,1,0,0:0:0:70:Bassdrum.wav
320,192,12731,1,0,0:0:0:70:Bassdrum.wav
448,192,12731,1,0,0:0:0:70:cymbol.wav
192,192,13095,1,8,0:0:0:70:Snare.wav
448,192,13458,1,2,0:0:0:70:Bassdrum.wav
320,192,13640,1,0,0:0:0:100:G#5S_Ab5S_s.wav
192,192,13822,1,8,0:0:0:70:Snare.wav
64,192,14004,1,0,0:0:0:100:D6S_s.wav
320,192,14367,1,0,0:0:0:100:D6S_s.wav
192,192,14731,1,0,0:0:0:100:C6S_s.wav
320,192,15095,128,0,15458:0:0:0:100:D6S_s.wav
64,192,15640,1,2,0:0:0:70:Bassdrum.wav
192,192,15640,1,0,0:0:0:70:Crash.wav
320,192,16004,1,8,0:0:0:70:Snare.wav
64,192,16367,1,2,0:0:0:70:Bassdrum.wav
192,192,16549,1,0,0:0:0:100:D6S_s.wav
320,192,16731,1,8,0:0:0:70:Snare.wav
448,192,16913,1,0,0:0:0:100:F#6S_Gb6S_s.wav
192,192,17276,1,0,0:0:0:100:F#6S_Gb6S_s.wav
320,192,17640,1,0,0:0:0:100:F6S_s.wav
192,192,18004,128,0,18367:0:0:0:100:D#6S_Eb6S_s.wav
64,192,18367,1,0,0:0:0:70:Bassdrum.wav
320,192,18549,1,0,0:0:0:70:Bassdrum.wav
448,192,18549,1,0,0:0:0:70:Crash.wav
192,192,18913,1,8,0:0:0:70:Snare.wav
448,192,19276,1,2,0:0:0:70:Bassdrum.wav
320,192,19458,1,0,0:0:0:100:G#5S_Ab5S_s.wav
64,192,19640,1,8,0:0:0:70:Snare.wav
192,192,19822,1,0,0:0:0:100:D6S_s.wav
448,192,20185,1,0,0:0:0:100:D6S_s.wav
192,192,20549,1,0,0:0:0:100:C6S_s.wav
320,192,20913,128,0,21276:0:0:0:100:D6S_s.wav
64,192,21458,1,2,0:0:0:70:Bassdrum.wav
192,192,21458,1,0,0:0:0:70:Crash.wav
320,192,21822,1,8,0:0:0:70:Snare.wav
64,192,22185,1,2,0:0:0:70:Bassdrum.wav
192,192,22367,1,0,0:0:0:100:D6S_s.wav
448,192,22549,1,8,0:0:0:70:Snare.wav
320,192,22731,1,0,0:0:0:100:F#6S_Gb6S_s.wav
64,192,23095,1,0,0:0:0:100:F#6S_Gb6S_s.wav
320,192,23458,1,0,0:0:0:100:F6S_s.wav
192,192,23822,128,0,24185:0:0:0:100:D#6S_Eb6S_s.wav
64,192,24185,1,8,0:0:0:70:Snare.wav
320,192,24367,1,0,0:0:0:70:Bassdrum.wav
448,192,24367,1,0,0:0:0:70:cymbol.wav
192,192,24731,1,0,0:0:0:70:Snare.wav
448,192,25095,1,0,0:0:0:70:Bassdrum.wav
320,192,25458,1,0,0:0:0:70:Snare.wav
192,192,25822,1,0,0:0:0:70:Bassdrum.wav
448,192,26185,1,0,0:0:0:70:Snare.wav
64,192,26549,1,0,0:0:0:70:Bassdrum.wav
192,192,26913,1,0,0:0:0:70:Snare.wav
320,192,27276,1,0,0:0:0:70:Bassdrum.wav
448,192,27276,128,0,28731:0:0:0:0:
192,192,27640,1,0,0:0:0:70:Snare.wav
64,192,28004,1,0,0:0:0:70:Bassdrum.wav
192,192,28367,1,0,0:0:0:70:Snare.wav
64,192,28731,1,0,0:0:0:70:Bassdrum.wav
448,192,29095,1,0,0:0:0:70:Snare.wav
192,192,29458,1,0,0:0:0:70:Bassdrum.wav
320,192,29822,1,0,0:0:0:70:Snare.wav
192,192,30004,1,0,0:0:0:70:Snare.wav
64,192,30185,1,0,0:0:0:70:Bassdrum.wav
448,192,30185,1,0,0:0:0:70:Crash.wav
320,192,30549,1,0,0:0:0:70:Snare.wav
64,192,30913,1,0,0:0:0:70:Bassdrum.wav
192,192,31276,1,0,0:0:0:70:Snare.wav
320,192,31640,1,0,0:0:0:70:Bassdrum.wav
192,192,32004,1,0,0:0:0:70:Snare.wav
448,192,32367,1,0,0:0:0:70:Bassdrum.wav
320,192,32731,1,0,0:0:0:70:Snare.wav
64,192,33095,128,0,34549:0:0:0:70:Bassdrum.wav
192,192,33095,1,0,0:0:0:0:
320,192,33458,1,0,0:0:0:70:Snare.wav
448,192,33822,1,0,0:0:0:70:Bassdrum.wav
320,192,34185,1,0,0:0:0:70:Snare.wav
448,192,34549,1,0,0:0:0:70:Bassdrum.wav
64,192,34913,1,0,0:0:0:70:Snare.wav
320,192,35276,1,0,0:0:0:70:Bassdrum.wav
192,192,35640,1,0,0:0:0:70:Snare.wav
320,192,35822,1,0,0:0:0:70:Snare.wav
64,192,36004,1,0,0:0:0:70:Bassdrum.wav
448,192,36004,1,0,0:0:0:70:Whistle 2.wav
320,192,36367,1,0,0:0:0:50:hihat03.wav
64,192,36731,1,0,0:0:0:50:Snare.wav
192,192,36731,1,0,0:0:0:50:hihat03.wav
448,192,37095,1,0,0:0:0:50:hihat03.wav
320,192,37276,1,0,0:0:0:50:Snare.wav
64,192,37458,1,0,0:0:0:50:Bassdrum.wav
192,192,37822,1,0,0:0:0:50:Bassdrum.wav
320,192,38185,1,0,0:0:0:50:Snare.wav
64,192,38549,1,0,0:0:0:50:hihat03.wav
192,192,38731,1,0,0:0:0:50:Snare.wav
448,192,38913,1,0,0:0:0:50:Bassdrum.wav
320,192,39276,1,0,0:0:0:50:hihat03.wav
64,192,39640,1,0,0:0:0:50:Snare.wav
448,192,39640,1,0,0:0:0:50:hihat03.wav
192,192,40004,1,0,0:0:0:50:hihat03.wav
320,192,40185,1,0,0:0:0:50:Snare.wav
64,192,40367,1,0,0:0:0:50:Bassdrum.wav
448,192,40549,1,0,0:0:0:50:Snare.wav
192,192,40731,1,0,0:0:0:50:Bassdrum.wav
64,192,41095,128,0,41822:0:0:0:50:Bassdrum.wav
320,192,41822,1,0,0:0:0:70:Bassdrum.wav
448,192,41822,1,0,0:0:0:70:cymbol.wav
192,192,42185,1,0,0:0:0:70:Snare.wav
448,192,42549,1,0,0:0:0:70:Bassdrum.wav
64,192,42913,1,0,0:0:0:70:Snare.wav
320,192,43276,1,0,0:0:0:70:Bassdrum.wav
448,192,43640,1,0,0:0:0:70:Snare.wav
192,192,44004,1,0,0:0:0:70:Bassdrum.wav
320,192,44185,1,0,0:0:0:70:hihat.wav
448,192,44549,1,0,0:0:0:70:hihat.wav
64,192,44731,1,0,0:0:0:70:Bassdrum.wav
192,192,44731,1,0,0:0:0:0:
320,192,45095,1,0,0:0:0:70:Snare.wav
64,192,45458,1,0,0:0:0:70:Bassdrum.wav
448,192,45822,1,0,0:0:0:70:Snare.wav
192,192,46185,1,0,0:0:0:70:Bassdrum.wav
320,192,46549,1,0,0:0:0:70:Snare.wav
448,192,46913,1,0,0:0:0:70:Bassdrum.wav
192,192,47095,1,0,0:0:0:70:hihat.wav
64,192,47458,1,0,0:0:0:70:hihat.wav
320,192,47640,1,0,0:0:0:70:Bassdrum.wav
448,192,47640,1,0,0:0:0:70:Crash.wav
192,192,48004,1,0,0:0:0:70:Snare.wav
448,192,48367,1,0,0:0:0:70:Bassdrum.wav
64,192,48731,1,0,0:0:0:70:Snare.wav
192,192,49095,1,0,0:0:0:70:Bassdrum.wav
448,192,49458,1,0,0:0:0:70:Snare.wav
320,192,49822,1,0,0:0:0:70:Bassdrum.wav
192,192,50185,1,0,0:0:0:70:Snare.wav
320,192,50549,128,0,51276:0:0:0:70:Bassdrum.wav
64,192,50913,1,0,0:0:0:70:Snare.wav
192,192,51276,128,0,52004:0:0:0:70:Bassdrum.wav
448,192,51640,1,0,0:0:0:70:Snare.wav
64,192,52004,128,0,52731:0:0:0:70:Bassdrum.wav
320,192,52367,1,0,0:0:0:70:Snare.wav
448,192,52731,128,0,53458:0:0:0:70:Bassdrum.wav
192,192,53095,1,0,0:0:0:70:Snare.wav
64,192,53458,1,0,0:0:0:70:Bassdrum.wav
320,192,53458,1,0,0:0:0:0:
192,192,53640,1,0,0:0:0:70:Bassdrum.wav
448,192,53640,1,0,0:0:0:0:
192,192,54004,128,0,54549:0:0:0:70:Crash.wav
320,192,54004,128,0,54549:0:0:0:70:Bassdrum.wav
64,192,54913,1,2,0:0:0:70:Bassdrum.wav
448,192,54913,1,0,0:0:0:100:Whistle 2.wav
320,192,55276,1,8,0:0:0:70:Snare.wav
192,192,55640,1,2,0:0:0:70:Bassdrum.wav
64,192,56004,1,8,0:0:0:70:Snare.wav
192,192,56367,1,2,0:0:0:70:Bassdrum.wav
448,192,56367,1,0,0:0:0:70:LR_NBell_C6.wav
320,192,56731,1,8,0:0:0:70:Snare.wav
64,192,57095,1,2,0:0:0:70:Bassdrum.wav
192,192,57095,1,0,0:0:0:70:LR_NBell_D6.wav
320,192,57458,1,8,0:0:0:70:Snare.wav
64,192,57822,1,2,0:0:0:70:Bassdrum.wav
448,192,57822,1,0,0:0:0:70:Crash.wav
192,192,58185,1,8,0:0:0:70:Snare.wav
320,192,58549,1,2,0:0:0:70:Bassdrum.wav
448,192,58913,1,8,0:0:0:70:Snare.wav
64,192,59276,1,2,0:0:0:70:Bassdrum.wav
320,192,59276,1,0,0:0:0:70:LR_NBell_C6.wav
192,192,59640,1,8,0:0:0:70:Snare.wav
320,192,60004,1,2,0:0:0:70:Bassdrum.wav
448,192,60004,1,0,0:0:0:70:LR_NBell_D6.wav
192,192,60367,1,8,0:0:0:70:Snare.wav
64,192,60731,1,2,0:0:0:70:Bassdrum.wav
448,192,60731,1,0,0:0:0:70:Crash.wav
320,192,61095,1,8,0:0:0:70:Snare.wav
192,192,61458,1,2,0:0:0:70:Bassdrum.wav
448,192,61822,1,8,0:0:0:70:Snare.wav
64,192,62185,1,2,0:0:0:70:Bassdrum.wav
320,192,62185,1,0,0:0:0:70:Crash.wav
192,192,62549,1,8,0:0:0:70:Snare.wav
320,192,62913,1,2,0:0:0:70:Bassdrum.wav
448,192,62913,1,0,0:0:0:70:LR_NBell_D5.wav
64,192,63276,1,8,0:0:0:70:Snare.wav
192,192,63640,1,2,0:0:0:70:Bassdrum.wav
448,192,63640,128,0,64004:0:0:0:70:Crash.wav
64,192,64004,128,8,64367:0:0:0:70:Snare.wav
320,192,64367,128,2,64731:0:0:0:70:Bassdrum.wav
448,192,64367,1,0,0:0:0:70:cymbol.wav
192,192,64731,128,8,65095:0:0:0:70:Snare.wav
64,192,65095,1,8,0:0:0:70:Snare.wav
448,192,65095,1,0,0:0:0:70:cymbol.wav
320,192,65276,1,2,0:0:0:70:Bassdrum.wav
192,192,65458,1,8,0:0:0:70:Snare.wav
320,192,65640,1,2,0:0:0:70:Bassdrum.wav
64,192,65822,1,2,0:0:0:70:Bassdrum.wav
192,192,66004,1,2,0:0:0:70:Bassdrum.wav
320,192,66185,1,8,0:0:0:70:Snare.wav
448,192,66367,1,8,0:0:0:70:Snare.wav
64,192,66549,1,2,0:0:0:70:Bassdrum.wav
192,192,66549,1,0,0:0:0:70:cymbol.wav
320,192,66913,1,8,0:0:0:70:Snare.wav
192,192,67276,1,2,0:0:0:70:Bassdrum.wav
448,192,67640,1,8,0:0:0:70:Snare.wav
64,192,68004,1,2,0:0:0:70:Bassdrum.wav
320,192,68004,1,0,0:0:0:70:LR_NBell_C6.wav
192,192,68367,1,8,0:0:0:70:Snare.wav
64,192,68731,1,2,0:0:0:70:Bassdrum.wav
448,192,68731,1,0,0:0:0:70:LR_NBell_D6.wav
192,192,69095,1,8,0:0:0:70:Snare.wav
320,192,69458,1,2,0:0:0:70:Bassdrum.wav
448,192,69458,1,0,0:0:0:70:Crash.wav
192,192,69822,1,8,0:0:0:70:Snare.wav
320,192,70185,1,2,0:0:0:70:Bassdrum.wav
64,192,70549,1,8,0:0:0:70:Snare.wav
192,192,70913,1,2,0:0:0:70:Bassdrum.wav
448,192,70913,1,0,0:0:0:70:LR_NBell_C6.wav
320,192,71276,1,8,0:0:0:70:Snare.wav
64,192,71640,1,2,0:0:0:70:Bassdrum.wav
448,192,71640,1,0,0:0:0:70:LR_NBell_D6.wav
320,192,72004,1,8,0:0:0:70:Snare.wav
64,192,72367,1,2,0:0:0:70:Bassdrum.wav
192,192,72367,1,0,0:0:0:70:Crash.wav
320,192,72731,1,8,0:0:0:70:Snare.wav
64,192,73095,1,2,0:0:0:70:Bassdrum.wav
192,192,73458,1,8,0:0:0:70:Snare.wav
320,192,73822,1,2,0:0:0:70:Bassdrum.wav
448,192,73822,1,0,0:0:0:70:cymbol.wav
64,192,74185,1,8,0:0:0:70:Snare.wav
192,192,74549,1,2,0:0:0:70:Bassdrum.wav
448,192,74549,1,0,0:0:0:70:LR_NBell_D5.wav
320,192,74913,1,8,0:0:0:70:Snare.wav
64,192,75276,1,2,0:0:0:70:Bassdrum.wav
448,192,75276,128,0,76004:0:0:0:70:Crash.wav
320,192,75640,1,8,0:0:0:70:Snare.wav
64,192,76004,128,2,76367:0:0:0:70:Bassdrum.wav
192,192,76004,1,0,0:0:0:70:LR_NBell_F5.wav
320,192,76367,1,8,0:0:0:70:Snare.wav
448,192,76731,128,2,77095:0:0:0:70:Bassdrum.wav
320,192,77095,128,8,77458:0:0:0:70:Snare.wav
192,192,77458,128,2,77822:0:0:0:70:Bassdrum.wav
320,192,77822,1,8,0:0:0:70:Snare.wav
192,192,78004,1,0,0:0:0:100:A6S_s.wav
64,192,78185,1,2,0:0:0:70:Bassdrum.wav
448,192,78185,1,0,0:0:0:70:cymbol.wav
320,192,78549,1,8,0:0:0:70:Snare.wav
64,192,78913,1,2,0:0:0:70:Bassdrum.wav
192,192,79276,1,8,0:0:0:70:Snare.wav
320,192,79640,1,2,0:0:0:70:Bassdrum.wav
448,192,79640,1,0,0:0:0:70:LR_NBell_A#5.wav
64,192,80004,1,8,0:0:0:70:Snare.wav
320,192,80367,1,2,0:0:0:70:Bassdrum.wav
192,192,80731,1,8,0:0:0:70:Snare.wav
320,192,80913,1,0,0:0:0:100:A6S_s.wav
64,192,81095,1,2,0:0:0:70:Bassdrum.wav
448,192,81095,1,0,0:0:0:70:cymbol.wav
320,192,81458,1,8,0:0:0:70:Snare.wav
64,192,81822,1,2,0:0:0:70:Bassdrum.wav
320,192,82185,1,8,0:0:0:70:Snare.wav
192,192,82367,1,0,0:0:0:70:A6S_s.wav
448,192,82549,128,0,83822:0:0:0:100:A#6S_Bb6S.wav
64,192,82549,1,2,0:0:0:70:Bassdrum.wav
320,192,82913,1,8,0:0:0:70:Snare.wav
64,192,83276,1,2,0:0:0:70:Bassdrum.wav
192,192,83640,1,8,0:0:0:70:Snare.wav
64,192,84004,1,2,0:0:0:70:Bassdrum.wav
448,192,84004,1,0,0:0:0:70:Crash.wav
320,192,84367,1,8,0:0:0:70:Snare.wav
192,192,84731,1,2,0:0:0:70:Bassdrum.wav
64,192,85095,1,8,0:0:0:70:Snare.wav
448,192,85276,1,0,0:0:0:100:F6S_s.wav
192,192,85458,128,2,85822:0:0:0:70:Bassdrum.wav
448,192,85822,128,8,86185:0:0:0:70:Snare.wav
64,192,86185,128,2,86549:0:0:0:70:Bassdrum.wav
320,192,86549,128,8,86913:0:0:0:70:Snare.wav
64,192,86913,128,0,87458:0:0:0:50:Bassdrum.wav
448,192,86913,1,0,0:0:0:70:LR_NBell_A5.wav
320,192,87458,128,0,87640:0:0:0:100:A#6S_Bb6S_s.wav
448,192,87640,128,0,88276:0:0:0:70:LR_NBell_A#5.wav
192,192,88004,1,0,0:0:0:50:Bassdrum.wav
64,192,88276,1,0,0:0:0:50:Bassdrum.wav
320,192,88276,1,0,0:0:0:40:FX_WindChimes.wav
