osu file format v14

[General]
AudioFilename: audio.mp3
AudioLeadIn: 0
PreviewTime: 54731
Countdown: 0
SampleSet: Soft
StackLeniency: 0.5
Mode: 0
LetterboxInBreaks: 0
WidescreenStoryboard: 0

[Editor]
DistanceSpacing: 0.5
BeatDivisor: 4
GridSize: 32
TimelineZoom: 1.5

[Metadata]
Title:Hitorigoto -TV MIX-
TitleUnicode:ヒトリゴト -TV MIX-
Artist:ClariS
ArtistUnicode:ClariS
Creator:Tofu1222
Version:1112's Light Insane
Source:エロマンガ先生
Tags:eromanga sensei ero manga eromanga-sensei opening tv size eromangasensei Suzuki_1112 1112deng kanor Level9 Ryuusei Aika RsAk Moeri Moecho [Kamiya] victorica_db [Emiria]
BeatmapID:1296966
BeatmapSetID:602861

[Difficulty]
HPDrainRate:6
CircleSize:4
OverallDifficulty:7
ApproachRate:8.5
SliderMultiplier:1.6
SliderTickRate:1

[Events]
//Background and Video events
0,0,"BG_1112.jpg",0,0
Video,0,"eromanga.avi"
//Break Periods
//Storyboard Layer 0 (Background)
//Storyboard Layer 1 (Fail)
//Storyboard Layer 2 (Pass)
//Storyboard Layer 3 (Foreground)
//Storyboard Sound Samples

[TimingPoints]
1095,363.636363636364,4,2,33,75,1,0
5458,-100,4,2,33,80,0,0
6004,-100,4,2,33,80,0,0
6185,-100,4,2,33,75,0,0
6913,-100,4,2,33,75,0,0
11276,-100,4,2,33,80,0,0
11822,-100,4,2,33,80,0,0
12004,-100,4,2,33,75,0,0
12731,-83.3333333333333,4,2,33,70,0,0
21822,-83.3333333333333,4,2,33,70,0,0
22731,-83.3333333333333,4,2,33,70,0,0
23822,-83.3333333333333,4,2,33,70,0,0
24345,-83.3333333333333,4,2,33,70,0,0
24367,-83.3333333333333,4,2,33,65,0,0
36004,-133.333333333333,4,2,33,55,0,0
41095,-133.333333333333,4,2,33,60,0,0
41458,-133.333333333333,4,2,33,65,0,0
41822,-100,4,2,33,70,0,0
53458,-100,4,2,33,80,0,0
54004,-133.333333333333,4,2,33,80,0,0
54913,-83.3333333333333,4,2,50,100,0,1
55095,-83.3333333333333,4,2,33,80,0,1
56367,-83.3333333333333,4,2,51,85,0,1
56549,-83.3333333333333,4,2,33,80,0,1
57095,-83.3333333333333,4,2,50,85,0,1
57276,-83.3333333333333,4,2,33,80,0,1
57822,-83.3333333333333,4,2,52,85,0,1
58004,-83.3333333333333,4,2,33,80,0,1
59276,-83.3333333333333,4,2,51,85,0,1
59458,-83.3333333333333,4,2,33,80,0,1
60004,-83.3333333333333,4,2,50,85,0,1
60185,-83.3333333333333,4,2,33,80,0,1
60731,-83.3333333333333,4,2,52,85,0,1
60913,-83.3333333333333,4,2,33,80,0,1
62185,-83.3333333333333,4,2,53,85,0,1
62367,-83.3333333333333,4,2,33,80,0,1
62913,-83.3333333333333,4,2,54,85,0,1
63095,-83.3333333333333,4,2,33,80,0,1
63640,-83.3333333333333,4,2,55,85,0,1
63822,-83.3333333333333,4,2,33,80,0,1
64004,-83.3333333333333,4,2,54,85,0,1
64185,-83.3333333333333,4,2,33,80,0,1
64367,-83.3333333333333,4,2,55,85,0,1
64549,-83.3333333333333,4,2,33,80,0,1
64731,-83.3333333333333,4,2,53,85,0,1
64913,-83.3333333333333,4,2,33,80,0,1
65276,-83.3333333333333,4,2,56,85,0,1
65458,-83.3333333333333,4,2,33,80,0,1
65640,-83.3333333333333,4,2,57,85,0,1
65822,-83.3333333333333,4,2,33,80,0,1
66004,-83.3333333333333,4,2,58,85,0,1
66185,-83.3333333333333,4,2,33,80,0,1
66367,-83.3333333333333,4,2,55,85,0,1
66549,-83.3333333333333,4,2,50,100,0,1
66731,-83.3333333333333,4,2,33,80,0,1
68004,-83.3333333333333,4,2,51,85,0,1
68185,-83.3333333333333,4,2,33,80,0,1
68731,-83.3333333333333,4,2,50,85,0,1
68913,-83.3333333333333,4,2,33,80,0,1
69458,-83.3333333333333,4,2,52,85,0,1
69640,-83.3333333333333,4,2,33,80,0,1
70913,-83.3333333333333,4,2,51,85,0,1
71095,-83.3333333333333,4,2,33,80,0,1
71640,-83.3333333333333,4,2,50,85,0,1
71822,-83.3333333333333,4,2,33,80,0,1
72367,-83.3333333333333,4,2,52,85,0,1
72549,-83.3333333333333,4,2,33,80,0,1
73822,-83.3333333333333,4,2,53,85,0,1
74004,-83.3333333333333,4,2,33,80,0,1
74549,-83.3333333333333,4,2,54,85,0,1
74731,-83.3333333333333,4,2,33,80,0,1
75276,-83.3333333333333,4,2,55,85,0,1
75458,-83.3333333333333,4,2,33,80,0,1
76004,-83.3333333333333,4,2,53,85,0,1
76185,-83.3333333333333,4,2,33,80,0,1
76731,-83.3333333333333,4,2,52,100,0,1
76913,-83.3333333333333,4,2,33,80,0,1
77458,-83.3333333333333,4,2,60,85,0,1
77640,-83.3333333333333,4,2,33,80,0,1
78185,-83.3333333333333,4,2,59,100,0,1
78367,-83.3333333333333,4,2,33,80,0,1
78913,-83.3333333333333,4,2,52,85,0,1
79095,-83.3333333333333,4,2,33,80,0,1
79640,-83.3333333333333,4,2,52,85,0,1
79822,-83.3333333333333,4,2,33,80,0,1
80367,-83.3333333333333,4,2,60,85,0,1
80549,-83.3333333333333,4,2,33,80,0,1
81095,-83.3333333333333,4,2,59,85,0,1
81276,-83.3333333333333,4,2,33,80,0,1
81822,-83.3333333333333,4,2,52,85,0,1
82004,-83.3333333333333,4,2,33,80,0,1
82549,-83.3333333333333,4,2,50,85,0,1
82731,-83.3333333333333,4,2,33,80,0,1
83276,-83.3333333333333,4,2,52,85,0,1
83458,-83.3333333333333,4,2,33,80,0,1
84004,-83.3333333333333,4,2,59,85,0,1
84185,-83.3333333333333,4,2,33,80,0,1
84731,-83.3333333333333,4,2,52,85,0,1
84913,-83.3333333333333,4,2,33,80,0,1
85458,-83.3333333333333,4,2,52,85,0,1
85640,-83.3333333333333,4,2,33,80,0,1
86185,-83.3333333333333,4,2,60,85,0,1
86367,-83.3333333333333,4,2,33,80,0,1
86913,-133.333333333333,4,2,59,85,0,0
87276,-133.333333333333,4,2,33,80,0,0
87640,-133.333333333333,4,2,52,85,0,0
88004,-133.333333333333,4,2,33,80,0,0
88276,-133.333333333333,4,2,60,60,0,0
89095,-100,4,2,33,20,0,0

[Colours]
Combo1 : 215,215,183
Combo2 : 0,128,128
Combo3 : 192,192,192
Combo4 : 255,128,192

[HitObjects]
188,150,1095,5,8,3:2:0:0:
307,140,1276,1,8,3:2:0:0:
322,146,2004,2,0,P|329:106|322:68,2,80,2|0|0,0:0|0:0|0:0,0:0:0:0:
256,204,2549,5,8,3:2:0:0:
119,176,2731,1,8,3:2:0:0:
91,191,3458,2,0,P|83:151|91:113,2,80,2|0|0,0:0|0:0|0:0,0:0:0:0:
159,260,4004,5,8,3:2:0:0:
321,224,4185,1,8,3:2:0:0:
362,248,4913,2,0,P|369:208|362:170,2,80,2|0|0,0:0|0:0|0:0,0:0:0:0:
165,353,5458,6,0,P|234:314|312:321,1,160,4|8,3:2|0:0,0:0:0:0:
409,376,6004,1,0,0:0:0:0:
441,243,6185,2,0,L|362:248,1,80,12|0,3:2|3:0,0:0:0:0:
244,356,6549,2,0,L|165:353,1,80,0|8,3:0|3:2,0:0:0:0:
111,274,6913,5,8,3:2:0:0:
230,284,7094,1,8,3:2:0:0:
245,278,7822,2,0,P|252:317|245:356,2,80,2|0|0,0:0|0:0|0:0,0:0:0:0:
179,220,8367,5,8,3:2:0:0:
42,248,8549,1,8,3:2:0:0:
14,233,9276,2,0,P|6:272|14:311,2,80,2|0|0,0:0|0:0|0:0,0:0:0:0:
82,164,9822,5,8,3:2:0:0:
244,200,10003,1,8,3:2:0:0:
285,176,10731,2,0,P|292:215|285:254,2,80,2|0|0,0:0|0:0|0:0,0:0:0:0:
88,71,11276,6,0,P|157:109|235:102,1,160,4|8,3:2|0:0,0:0:0:0:
332,48,11822,1,0,0:0:0:0:
365,181,12003,2,0,L|285:176,1,80,12|0,3:2|3:0,0:0:0:0:
116,168,12367,2,0,L|132:132,1,40,2|2,3:2|3:2,0:0:0:0:
79,253,12549,2,0,L|95:217,1,40,10|10,3:2|3:2,0:0:0:0:
27,88,12731,6,0,P|12:132|18:179,1,95.9999970703126,6|0,0:0|3:0,0:0:0:0:
227,172,13095,2,0,P|209:216|174:249,1,95.9999970703126,10|0,0:0|3:0,0:0:0:0:
55,301,13458,5,2,0:0:0:0:
95,217,13640,1,0,3:0:0:0:
132,132,13822,1,10,0:0:0:0:
170,47,14004,6,0,L|295:33,1,95.9999970703126,0|2,3:0|0:0,0:0:0:0:
190,207,14367,2,0,L|95:217,1,95.9999970703126,0|10,3:0|0:0,0:0:0:0:
132,132,14731,2,0,L|228:122,1,95.9999970703126,0|2,3:0|0:0,0:0:0:0:
150,291,15095,2,0,L|55:301,1,95.9999970703126,0|10,3:0|0:0,0:0:0:0:
285,212,15458,1,2,3:2:0:0:
484,296,15640,6,0,P|500:251|493:204,1,95.9999970703126,6|0,0:0|3:0,0:0:0:0:
285,212,16004,2,0,P|303:168|338:135,1,95.9999970703126,10|0,0:0|3:0,0:0:0:0:
457,83,16367,5,2,0:0:0:0:
417,167,16549,1,0,3:0:0:0:
380,252,16731,1,10,0:0:0:0:
342,337,16913,6,0,L|217:351,1,95.9999970703126,0|2,3:0|0:0,0:0:0:0:
417,167,17276,2,0,L|321:176,1,95.9999970703126,0|10,3:0|0:0,0:0:0:0:
380,252,17640,2,0,L|284:262,1,95.9999970703126,0|2,3:0|0:0,0:0:0:0:
457,83,18004,2,0,L|362:93,1,95.9999970703126,0|10,3:0|0:0,0:0:0:0:
229,186,18367,1,2,3:2:0:0:
229,186,18458,1,10,0:0:0:0:
229,186,18549,5,6,0:0:0:0:
136,217,18731,1,0,3:0:0:0:
50,168,18913,2,0,P|38:123|47:76,1,95.9999970703126,10|0,0:0|3:0,0:0:0:0:
142,121,19276,2,0,L|135:216,1,95.9999970703126,2|0,0:0|3:0,0:0:0:0:
71,303,19640,1,10,0:0:0:0:
261,366,19822,6,0,L|266:270,1,95.9999970703126,0|2,3:0|0:0,0:0:0:0:
135,217,20185,2,0,L|142:121,1,95.9999970703126,0|10,3:0|0:0,0:0:0:0:
324,192,20549,2,0,L|229:186,1,95.9999970703126,0|2,3:0|0:0,0:0:0:0:
71,303,20913,2,0,L|166:308,1,95.9999970703126,0|10,3:0|0:0,0:0:0:0:
266,270,21276,1,2,3:2:0:0:
142,121,21458,5,6,0:0:0:0:
235,151,21640,1,0,3:0:0:0:
320,102,21822,2,0,P|332:56|323:9,1,95.9999970703126,10|0,0:0|3:0,0:0:0:0:
229,56,22185,2,0,L|235:151,1,95.9999970703126,2|0,0:0|3:0,0:0:0:0:
300,238,22549,1,10,0:0:0:0:
110,301,22731,6,0,L|104:205,1,95.9999970703126,0|2,3:0|0:0,0:0:0:0:
229,56,23095,2,0,L|235:152,1,95.9999970703126,0|10,3:0|0:0,0:0:0:0:
46,126,23458,2,0,L|141:121,1,95.9999970703126,0|2,3:0|0:0,0:0:0:0:
300,238,23822,2,0,L|204:243,1,95.9999970703126,0|10,3:0|0:0,0:0:0:0:
114,305,24185,1,10,0:0:0:0:
114,305,24276,1,10,0:0:0:0:
114,305,24367,6,0,P|180:290|304:327,1,191.999994140625,4|8,3:2|3:2,0:0:0:0:
380,239,24913,1,2,0:0:0:0:
470,327,25095,2,0,P|423:335|376:323,1,95.9999970703126,0|2,3:0|0:0,0:0:0:0:
300,238,25458,2,0,L|306:142,1,95.9999970703126,8|2,3:2|0:0,0:0:0:0:
417,100,25822,6,0,B|355:92|355:92|301:119|301:119|226:110,2,191.999994140625,0|8|0,3:0|3:2|3:0,0:0:0:0:
465,184,26731,1,2,0:0:0:0:
395,250,26913,2,0,L|299:237,1,95.9999970703126,8|2,3:2|0:0,0:0:0:0:
199,228,27276,5,0,3:0:0:0:
199,228,27458,1,2,0:0:0:0:
111,238,27640,6,0,P|65:255|26:309,1,95.9999970703126,8|2,3:2|0:0,0:0:0:0:
234,146,28004,2,0,P|242:99|227:54,1,95.9999970703126,0|2,3:0|0:0,0:0:0:0:
252,299,28367,2,0,P|288:329|334:339,1,95.9999970703126,8|2,3:2|0:0,0:0:0:0:
465,290,28731,6,0,L|470:194,1,95.9999970703126,0|2,3:0|3:2,0:0:0:0:
413,108,29095,1,8,0:0:0:0:
284,176,29276,2,0,B|352:171|352:171|409:197|409:197|470:194,1,191.999994140625,2|2,3:2|0:0,0:0:0:0:
334,272,29822,2,0,L|238:266,1,95.9999970703126,8|10,3:2|0:0,0:0:0:0:
95,384,30185,6,8,P|158:348|282:358,1,191.999994140625,6|8,3:2|3:2,0:0:0:0:
334,272,30731,1,2,0:0:0:0:
446,360,30913,2,0,P|399:368|353:355,1,95.9999970703126,0|2,3:0|0:0,0:0:0:0:
255,272,31276,2,0,L|241:176,1,95.9999970703126,8|2,3:2|0:0,0:0:0:0:
100,117,31640,6,0,P|189:87|281:113,2,191.999994140625,0|8|0,3:0|3:2|3:0,0:0:0:0:
91,213,32549,1,2,0:0:0:0:
159,281,32731,2,0,L|256:271,1,95.9999970703126,8|2,3:2|0:0,0:0:0:0:
348,264,33095,5,0,3:0:0:0:
348,264,33277,1,2,0:0:0:0:
436,274,33459,6,0,P|482:291|521:345,1,95.9999970703126,8|2,3:2|0:0,0:0:0:0:
313,182,33823,2,0,P|304:135|319:90,1,95.9999970703126,0|2,3:0|0:0,0:0:0:0:
295,335,34186,2,0,P|258:365|212:375,1,95.9999970703126,8|2,3:2|0:0,0:0:0:0:
82,326,34550,6,0,L|76:230,1,95.9999970703126,0|2,3:0|3:2,0:0:0:0:
134,144,34914,1,8,0:0:0:0:
263,212,35095,2,0,B|195:207|195:207|138:233|138:233|76:230,1,191.999994140625,2|2,3:2|0:0,0:0:0:0:
213,308,35641,2,0,L|308:302,1,95.9999970703126,8|10,3:2|0:0,0:0:0:0:
378,350,36004,6,0,B|324:360|291:325|291:325|255:290|210:308,1,180.000006866455,4|0,3:2|0:0,0:0:0:0:
134,350,36731,1,8,0:0:0:0:
134,350,37095,2,0,L|74:341,1,60.0000022888184,0|8,3:0|0:0,0:0:0:0:
2,255,37458,6,0,P|63:193|150:203,1,180.000006866455,0|0,3:0|0:0,0:0:0:0:
212,269,38185,1,8,0:0:0:0:
212,269,38549,2,0,L|271:260,1,60.0000022888184,0|8,3:0|0:0,0:0:0:0:
336,379,38913,6,0,B|367:319|367:319|342:209,1,180.000006866455,4|0,3:2|0:0,0:0:0:0:
261,171,39640,1,8,0:0:0:0:
261,171,40004,2,0,L|201:162,1,60.0000022888184,0|8,3:0|0:0,0:0:0:0:
121,140,40367,6,0,P|120:170|128:199,2,60.0000022888184,0|8|0,3:0|0:0|3:0,0:0:0:0:
243,85,41095,6,0,L|282:79,2,40.000001525879,8|8|8,0:0|0:0|0:0,0:0:0:0:
160,145,41458,2,0,L|120:139,2,40.000001525879,8|8|8,0:0|0:0|0:0,0:0:0:0:
257,198,41822,5,4,3:2:0:0:
257,198,42004,1,0,0:0:0:0:
342,242,42185,2,0,L|421:233,1,80,8|0,0:0|0:0,0:0:0:0:
262,286,42549,5,0,3:0:0:0:
262,286,42731,1,0,0:0:0:0:
179,329,42913,2,0,L|99:320,1,80,8|0,0:0|0:0,0:0:0:0:
274,369,43276,6,0,P|311:358|338:328,1,80,0|0,3:0|0:0,0:0:0:0:
329,237,43640,2,0,P|299:210|261:201,1,80,8|0,0:0|0:0,0:0:0:0:
157,255,44004,6,0,L|77:243,1,80,0|0,3:0|0:0,3:0:0:0:
12,187,44367,1,8,0:0:0:0:
94,329,44549,1,0,0:0:0:0:
233,298,44731,6,0,P|244:259|238:220,1,80,0|0,3:0|0:0,0:0:0:0:
139,171,45095,1,8,0:0:0:0:
77,243,45276,1,0,0:0:0:0:
233,298,45458,6,0,L|312:286,1,80,0|0,3:0|0:0,3:0:0:0:
139,171,45822,1,8,0:0:0:0:
77,243,46003,1,0,0:0:0:0:
194,370,46185,6,0,P|232:380|270:369,1,80,0|0,3:0|0:0,0:0:0:0:
388,286,46549,2,0,P|349:275|311:286,1,80,8|0,0:0|0:0,0:0:0:0:
193,213,46913,2,0,L|184:133,2,80,0|0|8,3:0|0:0|0:0,0:0:0:0:
308,104,47458,1,0,0:0:0:0:
270,222,47640,6,0,P|231:210|192:212,1,80,4|0,3:2|0:0,0:0:0:0:
103,246,48004,2,0,L|23:235,1,80,10|0,0:0|0:0,0:0:0:0:
176,378,48367,2,0,P|183:338|173:300,1,80,0|0,3:0|0:0,0:0:0:0:
103,246,48731,2,0,L|92:166,1,80,10|0,0:0|0:0,0:0:0:0:
0,113,49095,6,0,P|63:67|141:75,1,160,0|8,3:0|0:0,0:0:0:0:
215,130,49640,1,0,0:0:0:0:
304,116,49822,2,0,L|383:107,1,80,0|0,3:0|0:0,0:0:0:0:
463,68,50185,1,10,0:0:0:0:
414,179,50367,1,0,0:0:0:0:
512,260,50549,6,0,B|460:248|460:248|414:258|414:258|330:238,1,160,0|10,3:0|0:0,0:0:0:0:
271,197,51095,1,0,0:0:0:0:
201,254,51276,2,0,L|210:333,1,80,0|0,3:0|0:0,0:0:0:0:
44,243,51640,2,0,P|78:222|117:218,1,80,10|0,0:0|0:0,0:0:0:0:
271,197,52004,6,0,L|276:102,1,80,0|0,3:0|0:0,0:0:0:0:
172,44,52367,2,0,L|169:123,1,80,10|0,3:2|0:0,0:0:0:0:
271,197,52731,6,0,L|362:182,1,80,0|0,3:0|0:0,0:0:0:0:
451,56,53095,2,0,L|371:68,1,80,10|8,3:2|0:0,0:0:0:0:
271,197,53458,5,0,3:0:0:0:
296,0,53640,1,0,3:0:0:0:
145,236,54004,6,0,B|240:224|240:224|298:248|298:248|378:237,1,240.000009155274,4|2,3:2|0:0,0:0:0:0:
459,281,54913,6,0,P|406:241|367:237,1,95.9999970703126,6|2,1:2|0:0,0:0:0:0:
301,65,55276,2,0,P|291:112|304:158,1,95.9999970703126,8|2,3:2|0:0,0:0:0:0:
477,186,55640,1,0,3:0:0:0:
383,112,55822,1,2,0:0:0:0:
477,186,56004,2,0,L|458:280,1,95.9999970703126,8|2,3:2|0:0,0:0:0:0:
310,301,56367,5,2,1:2:0:0:
378,249,56549,1,2,0:0:0:0:
299,217,56731,1,8,3:2:0:0:
390,332,56913,1,2,0:0:0:0:
241,352,57095,6,0,P|194:347|149:361,1,95.9999970703126,2|2,1:2|0:0,0:0:0:0:
66,257,57458,1,8,3:2:0:0:
46,351,57640,1,10,3:2:0:0:
162,266,57822,6,0,L|149:361,1,95.9999970703126,6|2,1:2|0:0,1:2:0:0:
0,202,58185,2,0,P|41:176|98:178,1,95.9999970703126,8|2,3:2|0:0,0:0:0:0:
193,194,58549,1,0,3:0:0:0:
66,257,58731,1,2,0:0:0:0:
193,194,58913,2,0,L|180:98,1,95.9999970703126,8|2,3:2|0:0,0:0:0:0:
301,1,59276,5,2,1:2:0:0:
268,84,59458,1,2,0:0:0:0:
212,14,59640,1,8,3:2:0:0:
357,72,59822,1,2,0:0:0:0:
235,167,60004,6,0,L|140:148,1,95.9999970703126,2|2,1:2|0:0,0:0:0:0:
0,122,60367,1,8,3:2:0:0:
75,193,60549,1,10,3:2:0:0:
99,80,60731,5,6,1:2:0:0:
36,254,60913,2,0,L|137:238,2,95.9999970703126,2|8|2,0:0|3:2|0:0,0:0:0:0:
220,262,61458,2,0,P|177:239|130:239,1,95.9999970703126,0|2,3:0|0:0,0:0:0:0:
63,164,61822,1,8,3:2:0:0:
154,325,62004,1,2,0:0:0:0:
316,277,62185,5,6,1:2:0:0:
196,384,62367,2,0,L|87:372,2,95.9999970703126,2|8|2,0:0|3:2|0:0,0:0:0:0:
399,311,62913,2,0,P|403:263|382:221,1,95.9999970703126,2|2,1:2|0:0,0:0:0:0:
234,298,63276,1,8,3:2:0:0:
360,384,63458,1,10,3:2:0:0:
234,298,63640,6,0,L|248:203,1,95.9999970703126,6|2,1:2|0:0,0:0:0:0:
382,221,64004,2,0,L|393:125,1,95.9999970703126,10|2,1:2|0:0,0:0:0:0:
138,70,64367,6,0,L|124:165,1,95.9999970703126,6|2,1:2|0:0,0:0:0:0:
325,47,64731,2,0,L|311:142,1,95.9999970703126,6|2,1:2|0:0,0:0:0:0:
169,274,65095,5,8,3:2:0:0:
292,251,65276,1,2,1:2:0:0:
205,342,65458,1,8,3:2:0:0:
222,217,65640,1,2,1:2:0:0:
301,345,65822,5,8,3:2:0:0:
148,273,66004,1,2,1:2:0:0:
315,242,66185,1,8,3:2:0:0:
197,365,66367,1,2,1:2:0:0:
219,196,66549,6,0,L|207:100,1,95.9999970703126,6|2,1:2|0:0,0:0:0:0:
58,262,66913,2,0,P|101:281|148:273,1,95.9999970703126,8|2,3:2|0:0,0:0:0:0:
237,289,67276,1,0,3:0:0:0:
110,200,67458,1,2,0:0:0:0:
237,289,67640,2,0,L|332:279,1,95.9999970703126,8|2,3:2|0:0,0:0:0:0:
370,136,68003,5,2,1:2:0:0:
310,197,68185,1,2,0:0:0:0:
288,115,68367,1,8,3:2:0:0:
392,219,68549,1,2,0:0:0:0:
435,78,68731,6,0,P|393:54|346:54,1,95.9999970703126,2|2,1:2|0:0,0:0:0:0:
310,197,69095,1,8,3:2:0:0:
416,149,69276,1,10,3:2:0:0:
388,325,69458,6,0,P|341:318|305:287,1,95.9999970703126,6|2,1:2|0:0,1:2:0:0:
504,177,69822,2,0,L|496:272,1,95.9999970703126,8|2,3:2|0:0,0:0:0:0:
392,219,70185,1,0,3:0:0:0:
350,106,70367,1,2,0:0:0:0:
392,219,70549,2,0,L|280:201,1,95.9999970703126,8|2,3:2|0:0,0:0:0:0:
235,334,70913,5,2,1:2:0:0:
306,288,71095,1,2,0:0:0:0:
230,250,71276,1,8,3:2:0:0:
311,373,71458,1,2,0:0:0:0:
164,380,71640,6,0,P|119:361|72:361,1,95.9999970703126,2|2,1:2|0:0,0:0:0:0:
40,218,72004,1,8,3:2:0:0:
0,300,72185,1,10,3:2:0:0:
128,247,72367,5,6,1:2:0:0:
0,153,72549,2,0,P|44:169|91:164,2,95.9999970703126,2|8|2,0:0|3:2|0:0,0:0:0:0:
183,178,73095,2,0,P|138:160|91:164,1,95.9999970703126,0|2,3:0|0:0,0:0:0:0:
54,78,73458,1,8,3:2:0:0:
128,247,73640,1,2,0:0:0:0:
270,183,73822,5,6,1:2:0:0:
161,316,74004,2,0,L|67:295,2,95.9999970703126,2|8|2,0:0|3:2|0:0,0:0:0:0:
345,235,74549,2,0,P|358:189|347:143,1,95.9999970703126,2|2,1:2|0:0,0:0:0:0:
189,135,74913,1,8,3:2:0:0:
256,276,75095,1,10,3:2:0:0:
145,366,75276,6,0,P|234:332|329:339,1,191.999994140625,6|8,1:2|3:2,0:0:0:0:
224,205,75822,1,2,0:0:0:0:
145,366,76004,2,0,P|114:276|44:211,1,191.999994140625,6|8,1:2|3:2,0:0:0:0:
224,205,76549,1,2,3:2:0:0:
44,211,76731,6,0,L|139:207,1,95.9999970703126,2|2,1:2|0:0,0:0:0:0:
308,47,77095,2,0,L|263:132,1,95.9999970703126,8|2,3:2|0:0,0:0:0:0:
318,356,77458,2,0,L|266:274,1,95.9999970703126,2|2,1:2|0:0,0:0:0:0:
169,116,77822,5,8,3:2:0:0:
175,296,78004,1,10,3:2:0:0:
308,184,78185,6,0,B|247:177|247:177|182:205|182:205|122:200,1,191.999994140625,6|8,1:2|3:2,0:0:0:0:
169,116,78731,1,2,0:0:0:0:
48,241,78913,2,0,P|39:192|61:145,1,95.9999970703126,2|2,1:2|0:0,0:0:0:0:
280,279,79276,2,0,L|296:373,1,95.9999970703126,8|2,3:2|0:0,0:0:0:0:
468,211,79640,6,0,L|373:207,1,95.9999970703126,2|2,1:2|0:0,0:0:0:0:
204,47,80004,2,0,L|249:132,1,95.9999970703126,8|2,3:2|0:0,0:0:0:0:
194,356,80367,2,0,L|246:274,1,95.9999970703126,2|2,1:2|0:0,0:0:0:0:
343,116,80731,5,8,3:2:0:0:
337,296,80913,1,10,3:2:0:0:
204,184,81095,6,0,B|265:177|265:177|330:205|330:205|390:200,1,191.999994140625,6|8,1:2|3:2,0:0:0:0:
343,116,81640,1,2,0:0:0:0:
464,241,81823,2,0,P|473:192|451:145,1,95.9999970703126,2|2,1:2|0:0,0:0:0:0:
232,279,82185,2,0,L|215:373,1,95.9999970703126,8|2,3:2|0:0,0:0:0:0:
164,211,82549,5,2,1:2:0:0:
297,340,82731,1,2,0:0:0:0:
150,313,82913,1,8,3:2:0:0:
317,234,83095,1,2,0:0:0:0:
106,141,83276,6,0,P|149:120|196:124,1,95.9999970703126,2|2,1:2|0:0,0:0:0:0:
317,234,83640,2,0,L|301:328,1,95.9999970703126,8|2,3:2|0:0,0:0:0:0:
469,138,84004,6,0,B|409:127|409:127|353:150|353:150|282:138,1,191.999994140625,6|8,1:2|3:2,0:0:0:0:
163,209,84549,1,2,0:0:0:0:
278,325,84731,2,0,L|373:311,1,95.9999970703126,2|2,1:2|0:0,0:0:0:0:
178,379,85095,1,8,3:2:0:0:
225,261,85276,1,10,3:2:0:0:
102,345,85458,6,0,P|81:302|88:256,1,95.9999970703126,2|2,1:2|0:0,0:0:0:0:
245,180,85822,2,0,L|237:74,1,95.9999970703126,8|2,3:2|0:0,0:0:0:0:
31,195,86185,2,0,P|74:173|128:184,1,95.9999970703126,2|2,1:2|0:0,0:0:0:0:
225,261,86549,2,0,L|331:253,1,95.9999970703126,8|2,3:2|0:0,0:0:0:0:
102,345,86913,6,0,P|158:362|213:342,1,120.000004577637,6|0,1:2|0:0,0:0:0:0:
303,335,87458,1,2,0:0:0:0:
381,379,87640,2,0,L|397:258,1,120.000004577637,2|0,1:2|0:0,0:0:0:0:
273,112,88276,6,0,P|347:233|453:197,1,270.000010299683,4|0,3:2|0:0,0:0:0:0:
