osu file format v14

[General]
AudioFilename: audio.mp3
AudioLeadIn: 0
PreviewTime: -1
Countdown: 1
SampleSet: Normal
StackLeniency: 0.7
Mode: 1
LetterboxInBreaks: 0
WidescreenStoryboard: 1

[Editor]
DistanceSpacing: 1
BeatDivisor: 4
GridSize: 32
TimelineZoom: 1

[Metadata]
Title:Hitorigoto -TV MIX-
TitleUnicode:Hitorigoto -TV MIX-
Artist:ClariS
ArtistUnicode:ClariS
Creator:Pheon
Version:Oni
Source:Eromanga sensei
Tags:エロマンガ先生 opening op sagiri is too cute
BeatmapID:1276039
BeatmapSetID:604004

[Difficulty]
HPDrainRate:5
CircleSize:5
OverallDifficulty:6
ApproachRate:5
SliderMultiplier:1.4
SliderTickRate:1

[Events]
//Background and Video events
0,0,"background.png",0,0
//Break Periods
//Storyboard Layer 0 (Background)
//Storyboard Layer 1 (Fail)
//Storyboard Layer 2 (Pass)
//Storyboard Layer 3 (Foreground)
//Storyboard Sound Samples

[TimingPoints]
536,363.636363636364,4,1,0,100,1,0
54354,-100,4,1,0,100,0,1
65899,-100,4,1,0,100,0,0
65990,-100,4,1,0,100,0,1
86354,-100,4,1,0,100,0,0

[Colours]
Combo1 : 0,0,255
Combo2 : 255,0,0

[HitObjects]
256,192,536,5,4,0:0:0:0:
256,192,717,1,4,0:0:0:0:
256,192,1990,1,4,0:0:0:0:
256,192,2172,1,4,0:0:0:0:
256,192,3445,1,4,0:0:0:0:
256,192,3626,1,4,0:0:0:0:
256,192,4536,1,0,0:0:0:0:
256,192,4899,5,12,0:0:0:0:
256,192,5445,1,0,0:0:0:0:
256,192,5536,1,0,0:0:0:0:
256,192,5626,5,8,0:0:0:0:
256,192,5808,5,0,0:0:0:0:
256,192,5899,5,8,0:0:0:0:
256,192,6081,5,0,0:0:0:0:
256,192,6172,5,8,0:0:0:0:
256,192,6354,5,4,0:0:0:0:
256,192,6536,1,4,0:0:0:0:
256,192,7808,5,4,0:0:0:0:
256,192,7990,1,4,0:0:0:0:
256,192,9263,1,4,0:0:0:0:
256,192,9445,1,4,0:0:0:0:
256,192,10354,1,0,0:0:0:0:
256,192,10717,5,12,0:0:0:0:
256,192,11263,5,0,0:0:0:0:
256,192,11354,1,0,0:0:0:0:
256,192,11445,5,8,0:0:0:0:
256,192,11626,5,0,0:0:0:0:
256,192,11717,1,0,0:0:0:0:
256,192,11808,5,8,0:0:0:0:
256,192,11899,1,8,0:0:0:0:
256,192,11990,1,8,0:0:0:0:
256,192,12081,1,8,0:0:0:0:
256,192,12172,5,0,0:0:0:0:
256,192,12354,1,0,0:0:0:0:
256,192,12536,5,8,0:0:0:0:
256,192,12717,5,0,0:0:0:0:
256,192,12808,1,0,0:0:0:0:
256,192,12899,1,0,0:0:0:0:
256,192,13081,1,0,0:0:0:0:
256,192,13263,5,8,0:0:0:0:
256,192,13445,5,0,0:0:0:0:
256,192,13536,5,8,0:0:0:0:
256,192,13626,5,0,0:0:0:0:
256,192,13808,1,0,0:0:0:0:
256,192,13990,5,8,0:0:0:0:
256,192,14172,5,0,0:0:0:0:
256,192,14263,1,0,0:0:0:0:
256,192,14354,1,0,0:0:0:0:
256,192,14536,5,8,0:0:0:0:
256,192,14717,1,8,0:0:0:0:
256,192,15081,5,0,0:0:0:0:
256,192,15263,1,0,0:0:0:0:
256,192,15445,5,8,0:0:0:0:
256,192,15626,5,0,0:0:0:0:
256,192,15717,5,8,0:0:0:0:
256,192,15808,5,0,0:0:0:0:
256,192,15990,1,0,0:0:0:0:
256,192,16172,5,8,0:0:0:0:
256,192,16354,1,8,0:0:0:0:
256,192,16445,5,8,0:0:0:0:
256,192,16536,5,0,0:0:0:0:
256,192,16717,1,0,0:0:0:0:
256,192,16899,5,8,0:0:0:0:
256,192,17081,5,0,0:0:0:0:
256,192,17172,1,0,0:0:0:0:
256,192,17263,5,8,0:0:0:0:
256,192,17445,5,0,0:0:0:0:
256,192,17536,1,0,0:0:0:0:
256,192,17626,5,8,0:0:0:0:
256,192,17808,1,8,0:0:0:0:
256,192,17990,5,4,0:0:0:0:
256,192,18354,5,8,0:0:0:0:
256,192,18536,5,0,0:0:0:0:
256,192,18626,1,0,0:0:0:0:
256,192,18717,1,0,0:0:0:0:
256,192,18899,1,0,0:0:0:0:
256,192,19081,5,8,0:0:0:0:
256,192,19263,5,0,0:0:0:0:
256,192,19354,5,8,0:0:0:0:
256,192,19445,5,0,0:0:0:0:
256,192,19626,1,0,0:0:0:0:
256,192,19808,5,8,0:0:0:0:
256,192,19990,5,0,0:0:0:0:
256,192,20081,1,0,0:0:0:0:
256,192,20172,1,0,0:0:0:0:
256,192,20354,5,8,0:0:0:0:
256,192,20536,1,8,0:0:0:0:
256,192,20717,5,0,0:0:0:0:
256,192,20899,1,0,0:0:0:0:
256,192,21081,1,0,0:0:0:0:
256,192,21263,5,8,0:0:0:0:
256,192,21445,5,0,0:0:0:0:
256,192,21536,5,8,0:0:0:0:
256,192,21626,5,0,0:0:0:0:
256,192,21808,1,0,0:0:0:0:
256,192,21990,5,8,0:0:0:0:
256,192,22172,5,0,0:0:0:0:
256,192,22263,1,0,0:0:0:0:
256,192,22354,5,8,0:0:0:0:
256,192,22717,1,8,0:0:0:0:
256,192,23081,1,8,0:0:0:0:
256,192,23172,1,8,0:0:0:0:
256,192,23263,5,0,0:0:0:0:
256,192,23354,1,0,0:0:0:0:
256,192,23445,5,8,0:0:0:0:
256,192,23536,5,0,0:0:0:0:
256,192,23626,5,8,0:0:0:0:
256,192,23717,1,8,0:0:0:0:
256,192,23808,5,0,0:0:0:0:
256,192,24172,5,8,0:0:0:0:
256,192,24354,5,0,0:0:0:0:
256,192,24445,1,0,0:0:0:0:
256,192,24536,1,0,0:0:0:0:
256,192,24717,1,0,0:0:0:0:
256,192,24899,5,8,0:0:0:0:
256,192,25081,5,0,0:0:0:0:
256,192,25263,1,0,0:0:0:0:
256,192,25354,1,0,0:0:0:0:
256,192,25445,1,0,0:0:0:0:
256,192,25626,5,8,0:0:0:0:
256,192,25808,5,0,0:0:0:0:
256,192,25899,5,8,0:0:0:0:
256,192,25990,5,0,0:0:0:0:
256,192,26172,1,0,0:0:0:0:
256,192,26354,5,8,0:0:0:0:
256,192,26717,5,0,0:0:0:0:
256,192,27081,5,8,0:0:0:0:
256,192,27263,5,0,0:0:0:0:
256,192,27354,5,8,0:0:0:0:
256,192,27445,5,0,0:0:0:0:
256,192,27626,1,0,0:0:0:0:
256,192,27808,5,8,0:0:0:0:
256,192,27990,5,0,0:0:0:0:
256,192,28081,1,0,0:0:0:0:
256,192,28172,5,8,0:0:0:0:
256,192,28354,5,0,0:0:0:0:
256,192,28536,5,8,0:0:0:0:
256,192,28717,5,0,0:0:0:0:
256,192,29081,1,0,0:0:0:0:
256,192,29172,1,0,0:0:0:0:
256,192,29263,5,8,0:0:0:0:
256,192,29445,1,8,0:0:0:0:
256,192,29626,5,0,0:0:0:0:
256,192,29990,5,8,0:0:0:0:
256,192,30172,5,0,0:0:0:0:
256,192,30263,5,8,0:0:0:0:
256,192,30354,5,0,0:0:0:0:
256,192,30536,1,0,0:0:0:0:
256,192,30717,5,8,0:0:0:0:
256,192,30899,1,8,0:0:0:0:
256,192,30990,1,8,0:0:0:0:
256,192,31081,5,0,0:0:0:0:
256,192,31263,1,0,0:0:0:0:
256,192,31445,5,8,0:0:0:0:
256,192,31626,5,0,0:0:0:0:
256,192,31717,5,8,0:0:0:0:
256,192,31808,5,0,0:0:0:0:
256,192,31990,5,8,0:0:0:0:
256,192,32172,1,8,0:0:0:0:
256,192,32354,5,0,0:0:0:0:
256,192,32536,1,0,0:0:0:0:
256,192,32717,5,8,0:0:0:0:
256,192,32808,1,8,0:0:0:0:
256,192,32899,1,8,0:0:0:0:
256,192,33081,1,8,0:0:0:0:
256,192,33263,5,0,0:0:0:0:
256,192,33445,5,8,0:0:0:0:
256,192,33536,1,8,0:0:0:0:
256,192,33626,1,8,0:0:0:0:
256,192,33808,1,8,0:0:0:0:
256,192,33990,1,0,0:0:0:0:
256,192,34081,1,0,0:0:0:0:
256,192,34172,1,0,0:0:0:0:
256,192,34263,1,0,0:0:0:0:
256,192,34354,5,8,0:0:0:0:
256,192,34445,5,0,0:0:0:0:
256,192,34536,5,8,0:0:0:0:
256,192,34626,1,8,0:0:0:0:
256,192,34717,5,0,0:0:0:0:
256,192,34899,5,8,0:0:0:0:
256,192,35081,5,0,0:0:0:0:
256,192,35172,1,0,0:0:0:0:
256,192,35263,5,8,0:0:0:0:
256,192,35354,1,8,0:0:0:0:
256,192,35445,5,0,0:0:0:0:
256,192,35808,1,0,0:0:0:0:
256,192,36172,5,8,0:0:0:0:
256,192,36536,5,0,0:0:0:0:
256,192,36717,5,8,0:0:0:0:
256,192,36899,5,0,0:0:0:0:
256,192,37081,5,8,0:0:0:0:
256,192,37263,5,0,0:0:0:0:
256,192,37626,5,8,0:0:0:0:
256,192,37990,5,0,0:0:0:0:
256,192,38172,5,8,0:0:0:0:
256,192,38263,1,8,0:0:0:0:
256,192,38354,5,0,0:0:0:0:
256,192,38717,1,0,0:0:0:0:
256,192,39081,5,8,0:0:0:0:
256,192,39445,5,0,0:0:0:0:
256,192,39626,5,8,0:0:0:0:
256,192,39808,5,0,0:0:0:0:
256,192,39990,5,8,0:0:0:0:
256,192,40172,5,0,0:0:0:0:
256,192,40354,1,0,0:0:0:0:
256,192,40445,1,0,0:0:0:0:
256,192,40536,5,8,0:0:0:0:
256,192,40657,1,8,0:0:0:0:
256,192,40778,1,8,0:0:0:0:
256,192,40899,5,0,0:0:0:0:
256,192,41020,1,0,0:0:0:0:
256,192,41142,1,0,0:0:0:0:
256,192,41263,1,0,0:0:0:0:
256,192,41626,5,8,0:0:0:0:
256,192,41808,5,0,0:0:0:0:
256,192,41899,1,0,0:0:0:0:
256,192,41990,1,0,0:0:0:0:
256,192,42172,1,0,0:0:0:0:
256,192,42354,5,8,0:0:0:0:
256,192,42536,5,0,0:0:0:0:
256,192,42626,1,0,0:0:0:0:
256,192,42717,1,0,0:0:0:0:
256,192,42899,1,0,0:0:0:0:
256,192,43081,5,8,0:0:0:0:
256,192,43263,5,0,0:0:0:0:
256,192,43354,5,8,0:0:0:0:
256,192,43445,5,0,0:0:0:0:
256,192,43626,1,0,0:0:0:0:
256,192,43808,5,8,0:0:0:0:
256,192,43899,1,8,0:0:0:0:
256,192,43990,5,0,0:0:0:0:
256,192,44081,5,8,0:0:0:0:
256,192,44172,5,0,0:0:0:0:
256,192,44536,5,8,0:0:0:0:
256,192,44717,5,0,0:0:0:0:
256,192,44808,1,0,0:0:0:0:
256,192,44899,1,0,0:0:0:0:
256,192,45081,1,0,0:0:0:0:
256,192,45263,5,8,0:0:0:0:
256,192,45445,5,0,0:0:0:0:
256,192,45536,5,8,0:0:0:0:
256,192,45626,5,0,0:0:0:0:
256,192,45808,1,0,0:0:0:0:
256,192,45990,5,8,0:0:0:0:
256,192,46172,5,0,0:0:0:0:
256,192,46263,5,8,0:0:0:0:
256,192,46354,5,0,0:0:0:0:
256,192,46536,1,0,0:0:0:0:
256,192,46717,5,8,0:0:0:0:
256,192,46808,1,8,0:0:0:0:
256,192,46899,5,0,0:0:0:0:
256,192,46990,5,8,0:0:0:0:
256,192,47081,5,0,0:0:0:0:
256,192,47445,5,8,0:0:0:0:
256,192,47626,5,0,0:0:0:0:
256,192,47717,5,8,0:0:0:0:
256,192,47808,5,0,0:0:0:0:
256,192,47990,1,0,0:0:0:0:
256,192,48172,5,8,0:0:0:0:
256,192,48354,5,0,0:0:0:0:
256,192,48445,5,8,0:0:0:0:
256,192,48536,5,0,0:0:0:0:
256,192,48717,1,0,0:0:0:0:
256,192,48899,5,8,0:0:0:0:
256,192,49081,1,8,0:0:0:0:
256,192,49172,1,8,0:0:0:0:
256,192,49263,5,0,0:0:0:0:
256,192,49445,1,0,0:0:0:0:
256,192,49626,5,8,0:0:0:0:
256,192,49717,1,8,0:0:0:0:
256,192,49808,1,8,0:0:0:0:
256,192,49899,1,8,0:0:0:0:
256,192,49990,5,0,0:0:0:0:
256,192,50172,1,0,0:0:0:0:
256,192,50354,5,8,0:0:0:0:
256,192,50536,1,8,0:0:0:0:
256,192,50626,1,8,0:0:0:0:
256,192,50717,5,0,0:0:0:0:
256,192,50899,1,0,0:0:0:0:
256,192,51081,5,8,0:0:0:0:
256,192,51263,1,8,0:0:0:0:
256,192,51354,1,8,0:0:0:0:
256,192,51445,5,0,0:0:0:0:
256,192,51626,1,0,0:0:0:0:
256,192,51717,1,0,0:0:0:0:
256,192,51808,5,8,0:0:0:0:
256,192,51990,5,0,0:0:0:0:
256,192,52081,5,8,0:0:0:0:
256,192,52172,5,0,0:0:0:0:
256,192,52354,1,0,0:0:0:0:
256,192,52536,5,8,0:0:0:0:
256,192,52717,5,0,0:0:0:0:
256,192,52899,5,8,0:0:0:0:
256,192,53081,5,0,0:0:0:0:
256,192,53263,1,0,0:0:0:0:
256,192,53445,5,8,0:0:0:0:
256,192,53626,5,0,0:0:0:0:
256,192,53808,1,0,0:0:0:0:
256,192,53899,1,0,0:0:0:0:
256,192,53990,5,8,0:0:0:0:
256,192,54081,1,8,0:0:0:0:
256,192,54172,1,8,0:0:0:0:
256,192,54354,5,4,0:0:0:0:
256,192,54536,1,0,0:0:0:0:
256,192,54626,1,0,0:0:0:0:
256,192,54717,5,8,0:0:0:0:
256,192,54899,5,0,0:0:0:0:
256,192,54990,1,0,0:0:0:0:
256,192,55081,1,0,0:0:0:0:
256,192,55263,1,0,0:0:0:0:
256,192,55445,5,8,0:0:0:0:
256,192,55626,5,0,0:0:0:0:
256,192,55808,1,0,0:0:0:0:
256,192,55899,1,0,0:0:0:0:
256,192,55990,1,0,0:0:0:0:
256,192,56081,1,0,0:0:0:0:
256,192,56172,5,8,0:0:0:0:
256,192,56354,5,0,0:0:0:0:
256,192,56445,1,0,0:0:0:0:
256,192,56536,5,8,0:0:0:0:
256,192,56717,5,0,0:0:0:0:
256,192,56899,5,8,0:0:0:0:
256,192,57081,1,8,0:0:0:0:
256,192,57172,1,8,0:0:0:0:
256,192,57263,5,0,0:0:0:0:
256,192,57445,1,0,0:0:0:0:
256,192,57536,1,0,0:0:0:0:
256,192,57626,5,8,0:0:0:0:
256,192,57808,5,0,0:0:0:0:
256,192,57899,1,0,0:0:0:0:
256,192,57990,1,0,0:0:0:0:
256,192,58172,1,0,0:0:0:0:
256,192,58354,5,8,0:0:0:0:
256,192,58536,5,0,0:0:0:0:
256,192,58717,1,0,0:0:0:0:
256,192,58808,1,0,0:0:0:0:
256,192,58899,1,0,0:0:0:0:
256,192,58990,1,0,0:0:0:0:
256,192,59081,5,8,0:0:0:0:
256,192,59263,5,0,0:0:0:0:
256,192,59354,1,0,0:0:0:0:
256,192,59445,5,8,0:0:0:0:
256,192,59626,5,0,0:0:0:0:
256,192,59717,1,0,0:0:0:0:
256,192,59808,5,8,0:0:0:0:
256,192,59899,1,8,0:0:0:0:
256,192,59990,5,0,0:0:0:0:
256,192,60081,5,8,0:0:0:0:
256,192,60172,5,0,0:0:0:0:
256,192,60354,1,0,0:0:0:0:
256,192,60445,1,0,0:0:0:0:
256,192,60536,5,8,0:0:0:0:
256,192,60717,5,0,0:0:0:0:
256,192,60808,5,8,0:0:0:0:
256,192,60899,5,0,0:0:0:0:
256,192,61081,1,0,0:0:0:0:
256,192,61263,5,8,0:0:0:0:
256,192,61445,1,8,0:0:0:0:
256,192,61626,5,0,0:0:0:0:
256,192,61808,1,0,0:0:0:0:
256,192,61899,1,0,0:0:0:0:
256,192,61990,5,8,0:0:0:0:
256,192,62172,5,0,0:0:0:0:
256,192,62263,5,8,0:0:0:0:
256,192,62354,5,0,0:0:0:0:
256,192,62536,1,0,0:0:0:0:
256,192,62717,5,8,0:0:0:0:
256,192,62899,5,0,0:0:0:0:
256,192,63081,1,0,0:0:0:0:
256,192,63172,1,0,0:0:0:0:
256,192,63263,1,0,0:0:0:0:
256,192,63354,1,0,0:0:0:0:
256,192,63445,5,8,0:0:0:0:
256,192,63536,1,8,0:0:0:0:
256,192,63626,1,8,0:0:0:0:
256,192,63717,1,8,0:0:0:0:
256,192,63808,5,0,0:0:0:0:
256,192,63990,1,0,0:0:0:0:
256,192,64172,5,8,0:0:0:0:
256,192,64263,1,8,0:0:0:0:
256,192,64354,5,0,0:0:0:0:
256,192,64445,5,8,0:0:0:0:
256,192,64536,5,0,0:0:0:0:
256,192,64717,5,8,0:0:0:0:
256,192,64899,1,0,0:0:0:0:
256,192,65081,1,8,0:0:0:0:
256,192,65263,5,0,0:0:0:0:
256,192,65445,1,0,0:0:0:0:
256,192,65626,5,8,0:0:0:0:
256,192,65717,1,8,0:0:0:0:
256,192,65808,1,8,0:0:0:0:
256,192,65899,1,8,0:0:0:0:
256,192,65990,5,0,0:0:0:0:
256,192,66172,1,0,0:0:0:0:
256,192,66263,1,0,0:0:0:0:
256,192,66354,5,8,0:0:0:0:
256,192,66536,5,0,0:0:0:0:
256,192,66626,5,8,0:0:0:0:
256,192,66717,5,0,0:0:0:0:
256,192,66899,1,0,0:0:0:0:
256,192,67081,5,8,0:0:0:0:
256,192,67263,5,0,0:0:0:0:
256,192,67445,1,0,0:0:0:0:
256,192,67536,1,0,0:0:0:0:
256,192,67626,1,0,0:0:0:0:
256,192,67717,1,0,0:0:0:0:
256,192,67808,5,8,0:0:0:0:
256,192,67990,5,0,0:0:0:0:
256,192,68081,5,8,0:0:0:0:
256,192,68172,5,0,0:0:0:0:
256,192,68354,1,0,0:0:0:0:
256,192,68536,5,8,0:0:0:0:
256,192,68717,1,8,0:0:0:0:
256,192,68808,1,8,0:0:0:0:
256,192,68899,5,0,0:0:0:0:
256,192,69081,1,0,0:0:0:0:
256,192,69172,1,0,0:0:0:0:
256,192,69263,5,8,0:0:0:0:
256,192,69445,5,0,0:0:0:0:
256,192,69536,5,8,0:0:0:0:
256,192,69626,5,0,0:0:0:0:
256,192,69808,1,0,0:0:0:0:
256,192,69990,5,8,0:0:0:0:
256,192,70172,5,0,0:0:0:0:
256,192,70354,1,0,0:0:0:0:
256,192,70445,5,8,0:0:0:0:
256,192,70536,5,0,0:0:0:0:
256,192,70626,1,0,0:0:0:0:
256,192,70717,5,8,0:0:0:0:
256,192,70899,5,0,0:0:0:0:
256,192,70990,1,0,0:0:0:0:
256,192,71081,5,8,0:0:0:0:
256,192,71263,5,0,0:0:0:0:
256,192,71354,1,0,0:0:0:0:
256,192,71445,5,8,0:0:0:0:
256,192,71536,5,0,0:0:0:0:
256,192,71626,5,8,0:0:0:0:
256,192,71717,1,8,0:0:0:0:
256,192,71808,5,0,0:0:0:0:
256,192,71990,1,0,0:0:0:0:
256,192,72081,1,0,0:0:0:0:
256,192,72172,5,8,0:0:0:0:
256,192,72354,5,0,0:0:0:0:
256,192,72445,5,8,0:0:0:0:
256,192,72536,5,0,0:0:0:0:
256,192,72717,1,0,0:0:0:0:
256,192,72899,5,8,0:0:0:0:
256,192,73081,1,8,0:0:0:0:
256,192,73263,5,0,0:0:0:0:
256,192,73445,1,0,0:0:0:0:
256,192,73536,1,0,0:0:0:0:
256,192,73626,5,8,0:0:0:0:
256,192,73808,1,8,0:0:0:0:
256,192,73899,1,8,0:0:0:0:
256,192,73990,5,0,0:0:0:0:
256,192,74172,1,0,0:0:0:0:
256,192,74354,5,8,0:0:0:0:
256,192,74536,1,8,0:0:0:0:
256,192,74717,5,0,0:0:0:0:
256,192,74808,1,0,0:0:0:0:
256,192,74899,1,0,0:0:0:0:
256,192,74990,1,0,0:0:0:0:
256,192,75081,5,8,0:0:0:0:
256,192,75172,1,8,0:0:0:0:
256,192,75263,1,8,0:0:0:0:
256,192,75354,1,8,0:0:0:0:
256,192,75445,5,0,0:0:0:0:
256,192,75626,5,8,0:0:0:0:
256,192,75808,1,0,0:0:0:0:
256,192,75899,5,0,0:0:0:0:
256,192,75990,1,0,0:0:0:0:
256,192,76081,1,0,0:0:0:0:
256,192,76172,5,8,0:0:0:0:
256,192,76354,5,0,0:0:0:0:
256,192,76536,5,8,0:0:0:0:
256,192,76717,1,8,0:0:0:0:
256,192,76899,5,0,0:0:0:0:
256,192,76990,1,0,0:0:0:0:
256,192,77081,5,8,0:0:0:0:
256,192,77172,5,0,0:0:0:0:
256,192,77263,5,8,0:0:0:0:
256,192,77354,1,8,0:0:0:0:
256,192,77445,5,0,0:0:0:0:
256,192,77536,5,8,0:0:0:0:
256,192,77626,5,0,0:0:0:0:
256,192,77990,5,8,0:0:0:0:
256,192,78172,5,0,0:0:0:0:
256,192,78263,5,8,0:0:0:0:
256,192,78354,5,0,0:0:0:0:
256,192,78536,1,0,0:0:0:0:
256,192,78717,5,8,0:0:0:0:
256,192,78899,5,0,0:0:0:0:
256,192,79081,1,0,0:0:0:0:
256,192,79172,1,0,0:0:0:0:
256,192,79263,1,0,0:0:0:0:
256,192,79445,5,8,0:0:0:0:
256,192,79626,5,0,0:0:0:0:
256,192,79717,5,8,0:0:0:0:
256,192,79808,5,0,0:0:0:0:
256,192,79990,1,0,0:0:0:0:
256,192,80172,5,8,0:0:0:0:
256,192,80354,5,0,0:0:0:0:
256,192,80536,1,0,0:0:0:0:
256,192,80899,5,8,0:0:0:0:
256,192,81081,5,0,0:0:0:0:
256,192,81172,5,8,0:0:0:0:
256,192,81263,5,0,0:0:0:0:
256,192,81445,1,0,0:0:0:0:
256,192,81626,5,8,0:0:0:0:
256,192,81808,1,8,0:0:0:0:
256,192,81990,5,0,0:0:0:0:
256,192,82081,1,0,0:0:0:0:
256,192,82172,1,0,0:0:0:0:
256,192,82263,1,0,0:0:0:0:
256,192,82354,5,8,0:0:0:0:
256,192,82445,5,0,0:0:0:0:
256,192,82536,5,8,0:0:0:0:
256,192,82626,1,8,0:0:0:0:
256,192,82717,5,0,0:0:0:0:
256,192,82899,1,0,0:0:0:0:
256,192,83081,5,8,0:0:0:0:
256,192,83263,1,8,0:0:0:0:
256,192,83445,5,0,0:0:0:0:
256,192,83808,5,8,0:0:0:0:
256,192,83990,5,0,0:0:0:0:
256,192,84081,5,8,0:0:0:0:
256,192,84172,5,0,0:0:0:0:
256,192,84354,1,0,0:0:0:0:
256,192,84536,5,8,0:0:0:0:
256,192,84717,1,8,0:0:0:0:
256,192,84899,5,0,0:0:0:0:
256,192,84990,1,0,0:0:0:0:
256,192,85081,1,0,0:0:0:0:
256,192,85263,5,8,0:0:0:0:
256,192,85445,5,0,0:0:0:0:
256,192,85536,1,0,0:0:0:0:
256,192,85626,5,8,0:0:0:0:
256,192,85808,5,0,0:0:0:0:
256,192,85990,5,8,0:0:0:0:
256,192,86172,1,8,0:0:0:0:
256,192,86354,12,8,87717,0:0:0:0:
