osu file format v14

[General]
AudioFilename: audio.mp3
AudioLeadIn: 0
PreviewTime: -1
Countdown: 1
SampleSet: Normal
StackLeniency: 0.7
Mode: 1
LetterboxInBreaks: 0
WidescreenStoryboard: 1

[Editor]
DistanceSpacing: 1
BeatDivisor: 4
GridSize: 32
TimelineZoom: 1

[Metadata]
Title:Hitorigoto -TV MIX-
TitleUnicode:Hitorigoto -TV MIX-
Artist:ClariS
ArtistUnicode:ClariS
Creator:Pheon
Version:Kantan
Source:Eromanga sensei
Tags:エロマンガ先生 opening op sagiri is too cute
BeatmapID:1306830
BeatmapSetID:604004

[Difficulty]
HPDrainRate:5
CircleSize:5
OverallDifficulty:6
ApproachRate:5
SliderMultiplier:1.4
SliderTickRate:1

[Events]
//Background and Video events
0,0,"background.png",0,0
//Break Periods
//Storyboard Layer 0 (Background)
//Storyboard Layer 1 (Fail)
//Storyboard Layer 2 (Pass)
//Storyboard Layer 3 (Foreground)
//Storyboard Sound Samples

[TimingPoints]
540,363.636363636364,4,1,0,100,1,0
54354,-100,4,1,0,100,0,1
65899,-100,4,1,0,100,0,0
65990,-100,4,1,0,100,0,1
86354,-100,4,1,0,100,0,0

[Colours]
Combo1 : 0,0,255
Combo2 : 255,0,0

[HitObjects]
256,192,540,5,4,0:0:0:0:
256,192,1994,1,4,0:0:0:0:
256,192,3449,1,4,0:0:0:0:
256,192,4903,1,4,0:0:0:0:
256,192,5630,5,8,0:0:0:0:
256,192,6358,5,4,0:0:0:0:
256,192,7812,1,4,0:0:0:0:
256,192,9267,1,4,0:0:0:0:
256,192,10721,1,4,0:0:0:0:
256,192,11449,1,8,0:0:0:0:
256,192,12176,1,0,0:0:0:0:
256,192,12903,5,8,0:0:0:0:
256,192,13630,5,0,0:0:0:0:
256,192,13994,1,0,0:0:0:0:
256,192,14358,1,0,0:0:0:0:
256,192,15085,1,0,0:0:0:0:
256,192,15812,1,0,0:0:0:0:
256,192,16540,5,8,0:0:0:0:
256,192,16903,1,8,0:0:0:0:
256,192,17267,1,8,0:0:0:0:
256,192,17994,5,0,0:0:0:0:
256,192,18721,5,8,0:0:0:0:
256,192,19449,5,0,0:0:0:0:
256,192,19812,1,0,0:0:0:0:
256,192,20176,5,8,0:0:0:0:
256,192,20903,1,0,0:0:0:0:
256,192,21630,5,8,0:0:0:0:
256,192,22358,1,8,0:0:0:0:
256,192,22721,1,8,0:0:0:0:
256,192,23085,1,8,0:0:0:0:
256,192,23812,5,0,0:0:0:0:
256,192,24540,5,8,0:0:0:0:
256,192,25267,5,0,0:0:0:0:
256,192,25994,5,8,0:0:0:0:
256,192,26358,5,0,0:0:0:0:
256,192,26721,1,0,0:0:0:0:
256,192,27449,5,8,0:0:0:0:
256,192,28176,5,0,0:0:0:0:
256,192,28903,5,8,0:0:0:0:
256,192,29267,1,8,0:0:0:0:
256,192,29630,5,0,0:0:0:0:
256,192,30358,5,8,0:0:0:0:
256,192,31085,5,0,0:0:0:0:
256,192,31812,5,8,0:0:0:0:
256,192,32176,1,8,0:0:0:0:
256,192,32540,5,0,0:0:0:0:
256,192,33267,5,8,0:0:0:0:
256,192,33994,5,0,0:0:0:0:
256,192,34721,1,0,0:0:0:0:
256,192,35085,1,0,0:0:0:0:
256,192,35449,5,8,0:0:0:0:
256,192,36176,1,8,0:0:0:0:
256,192,36903,5,0,0:0:0:0:
256,192,37630,5,8,0:0:0:0:
256,192,38358,5,0,0:0:0:0:
256,192,39085,5,8,0:0:0:0:
0,192,39812,2,8,L|320:192,1,280
256,192,41267,5,0,0:0:0:0:
256,192,41630,1,0,0:0:0:0:
256,192,41994,1,0,0:0:0:0:
256,192,42358,1,0,0:0:0:0:
256,192,42721,1,0,0:0:0:0:
256,192,43449,5,8,0:0:0:0:
256,192,44176,5,0,0:0:0:0:
256,192,44540,1,0,0:0:0:0:
256,192,44903,5,8,0:0:0:0:
256,192,45267,5,0,0:0:0:0:
256,192,45630,1,0,0:0:0:0:
256,192,46358,5,8,0:0:0:0:
256,192,47085,5,0,0:0:0:0:
256,192,47449,1,0,0:0:0:0:
256,192,47812,5,8,0:0:0:0:
256,192,48176,1,8,0:0:0:0:
256,192,48540,5,0,0:0:0:0:
256,192,49267,5,8,0:0:0:0:
256,192,49994,5,0,0:0:0:0:
256,192,50358,1,0,0:0:0:0:
256,192,50721,5,8,0:0:0:0:
256,192,51449,5,0,0:0:0:0:
256,192,51812,1,0,0:0:0:0:
256,192,52176,5,8,0:0:0:0:
256,192,52903,12,8,53630,0:0:0:0:
256,192,54358,5,4,0:0:0:0:
256,192,55085,5,8,0:0:0:0:
256,192,55812,5,0,0:0:0:0:
256,192,56176,1,0,0:0:0:0:
256,192,56540,5,8,0:0:0:0:
256,192,57267,5,0,0:0:0:0:
256,192,57994,1,8,0:0:0:0:
256,192,58721,5,0,0:0:0:0:
256,192,59085,5,8,0:0:0:0:
256,192,59449,1,8,0:0:0:0:
256,192,60176,5,0,0:0:0:0:
256,192,60903,5,8,0:0:0:0:
256,192,61630,5,0,0:0:0:0:
256,192,61994,5,0,0:0:0:0:
256,192,62358,5,8,0:0:0:0:
256,192,63085,5,0,0:0:0:0:
256,192,63449,1,0,0:0:0:0:
256,192,63812,5,8,0:0:0:0:
64,192,64540,2,0,L|352:192,1,280
256,192,65994,5,4,0:0:0:0:
256,192,66721,5,8,0:0:0:0:
256,192,67449,5,0,0:0:0:0:
256,192,67812,1,0,0:0:0:0:
256,192,68176,5,8,0:0:0:0:
256,192,68903,5,0,0:0:0:0:
256,192,69630,1,0,0:0:0:0:
256,192,70358,5,8,0:0:0:0:
256,192,70721,1,8,0:0:0:0:
256,192,71085,1,8,0:0:0:0:
256,192,71812,5,0,0:0:0:0:
256,192,72176,1,0,0:0:0:0:
256,192,72540,5,8,0:0:0:0:
256,192,73267,5,0,0:0:0:0:
256,192,73630,1,0,0:0:0:0:
256,192,73994,5,8,0:0:0:0:
256,192,74721,5,0,0:0:0:0:
256,192,75085,1,0,0:0:0:0:
256,192,75449,5,8,0:0:0:0:
256,192,75812,1,8,0:0:0:0:
128,192,76176,2,0,L|448:192,1,280
256,192,77630,5,4,0:0:0:0:
256,192,78358,5,8,0:0:0:0:
256,192,79085,5,0,0:0:0:0:
256,192,79449,1,0,0:0:0:0:
256,192,79812,5,8,0:0:0:0:
256,192,80176,5,0,0:0:0:0:
256,192,80540,1,0,0:0:0:0:
256,192,81267,5,8,0:0:0:0:
128,192,81994,6,0,L|448:192,1,280
256,192,83449,5,4,0:0:0:0:
256,192,84176,5,8,0:0:0:0:
256,192,84903,5,0,0:0:0:0:
256,192,85267,1,0,0:0:0:0:
256,192,85630,5,8,0:0:0:0:
256,192,85994,1,8,0:0:0:0:
256,192,86358,12,8,87721,0:0:0:0:
