osu file format v14

[General]
AudioFilename: eromanga.mp3
AudioLeadIn: 0
PreviewTime: 54263
Countdown: 0
SampleSet: None
StackLeniency: 0.7
Mode: 0
LetterboxInBreaks: 0
WidescreenStoryboard: 1

[Editor]
Bookmarks: 1445,53808,55808,56536,58717,59445,60172,63081,63445,63808,64172,64536,64717,64899,65081,68172,70354,75445,83445
DistanceSpacing: 3.2
BeatDivisor: 4
GridSize: 8
TimelineZoom: 2.699999

[Metadata]
Title:Hitorigoto -TV MIX-
TitleUnicode:ヒトリゴト -TV MIX-
Artist:ClariS
ArtistUnicode:ClariS
Creator:Lecana
Version:vellya
Source:エロマンガ先生
Tags:
BeatmapID:1397035
BeatmapSetID:659690

[Difficulty]
HPDrainRate:6
CircleSize:4
OverallDifficulty:7
ApproachRate:9
SliderMultiplier:1.8
SliderTickRate:1

[Events]
//Background and Video events
Video,-430,"eromanga opening.avi"
0,0,"eromanga.png",0,0
//Break Periods
//Storyboard Layer 0 (Background)
//Storyboard Layer 1 (Fail)
//Storyboard Layer 2 (Pass)
//Storyboard Layer 3 (Foreground)
//Storyboard Sound Samples
Sample,64536,0,"soft-hitwhistle11.wav",10
Sample,64717,0,"soft-hitwhistle12.wav",20
Sample,64899,0,"soft-hitwhistle13.wav",30
Sample,65081,0,"soft-hitwhistle14.wav",40
Sample,87717,0,"soft-hitwhistle14.wav",30
Sample,87717,0,"soft-hitclap8.wav",30
Sample,87717,0,"soft-hitwhistle19.wav",70
Sample,87717,0,"soft-hitwhistle20.wav",70

[TimingPoints]
536,363.636363636364,4,2,1,80,1,0
536,-125,4,2,1,80,0,0
12172,-111.111111111111,4,2,1,80,0,0
23808,-111.111111111111,4,2,1,60,0,0
35445,-166.666666666667,4,2,1,50,0,0
41263,-111.111111111111,4,2,1,60,0,0
52899,-111.111111111111,4,2,14,80,0,0
53445,-111.111111111111,4,2,13,80,0,0
53717,-111.111111111111,4,2,2,80,0,0
54354,-100,4,2,1,80,0,1
54536,-100,4,2,11,80,0,1
55263,-100,4,2,10,80,0,1
55445,-100,4,2,9,80,0,1
55626,-100,4,2,10,80,0,1
55808,-100,4,2,11,80,0,1
56717,-100,4,2,14,80,0,1
56899,-100,4,2,13,80,0,1
57081,-100,4,2,14,80,0,1
57172,-100,4,2,1,80,0,1
57445,-100,4,2,11,80,0,1
58172,-100,4,2,10,80,0,1
58354,-100,4,2,9,80,0,1
58536,-100,4,2,10,80,0,1
58717,-100,4,2,11,80,0,1
59626,-100,4,2,16,80,0,1
59808,-100,4,2,15,80,0,1
59990,-100,4,2,14,80,0,1
60081,-100,4,2,1,80,0,1
60354,-100,4,2,12,80,0,1
61263,-100,4,2,13,80,0,1
61445,-100,4,2,14,80,0,1
61536,-100,4,2,1,80,0,1
61808,-100,4,2,11,80,0,1
62354,-100,4,2,9,80,0,1
62717,-100,4,2,11,80,0,1
62899,-100,4,2,1,80,0,1
63081,-100,4,2,10,80,0,1
63263,-100,4,2,1,80,0,1
63445,-100,4,2,9,80,0,1
63626,-100,4,2,1,80,0,1
63808,-100,4,2,10,75,0,1
63990,-100,4,2,1,80,0,1
64172,-100,4,2,11,70,0,1
64263,-100,4,2,1,80,0,1
64536,-100,4,2,9,80,0,1
64717,-100,4,2,8,80,0,1
64899,-100,4,2,9,80,0,1
65081,-100,4,2,8,80,0,1
65263,-100,4,2,15,80,0,1
65445,-100,4,2,16,80,0,1
65626,-100,4,2,17,85,0,1
65808,-100,4,2,18,90,0,1
65899,-100,4,2,1,80,0,0
65990,-100,4,2,1,80,0,1
66172,-100,4,2,11,80,0,1
66899,-100,4,2,10,80,0,1
67081,-100,4,2,9,80,0,1
67263,-100,4,2,10,80,0,1
67445,-100,4,2,11,80,0,1
68172,-100,4,2,1,80,0,1
68354,-100,4,2,14,80,0,1
68536,-100,4,2,13,80,0,1
68717,-100,4,2,14,80,0,1
68808,-100,4,2,1,80,0,1
69081,-100,4,2,11,80,0,1
69808,-100,4,2,10,80,0,1
69990,-100,4,2,9,80,0,1
70172,-100,4,2,10,80,0,1
70354,-100,4,2,11,80,0,1
71081,-100,4,2,1,80,0,1
71263,-100,4,2,16,80,0,1
71445,-100,4,2,15,80,0,1
71626,-100,4,2,14,80,0,1
71717,-100,4,2,1,80,0,1
71990,-100,4,2,12,80,0,1
72899,-100,4,2,13,80,0,1
73081,-100,4,2,14,80,0,1
73172,-100,4,2,11,80,0,1
73990,-100,4,2,9,80,0,1
74354,-100,4,2,11,80,0,1
74536,-100,4,2,1,80,0,1
74717,-100,4,2,10,80,0,1
75081,-100,4,2,1,80,0,1
75445,-100,4,2,11,80,0,1
75808,-100,4,2,1,80,0,1
75990,-100,4,2,11,80,0,1
76172,-100,4,2,14,80,0,1
76536,-100,4,2,13,80,0,1
76899,-100,4,2,12,80,0,1
77263,-100,4,2,13,80,0,1
77990,-100,4,2,1,80,0,1
78172,-100,4,2,14,80,0,1
78717,-100,4,2,1,80,0,1
78899,-100,4,2,11,80,0,1
79081,-100,4,2,14,80,0,1
79445,-100,4,2,13,80,0,1
79808,-100,4,2,12,80,0,1
80172,-100,4,2,13,80,0,1
80899,-100,4,2,1,80,0,1
81081,-100,4,2,14,80,0,1
81626,-100,4,2,15,80,0,1
81808,-100,4,2,14,80,0,1
81990,-100,4,2,1,80,0,1
82354,-100,4,2,1,80,0,1
83445,-100,4,2,13,80,0,1
83808,-100,4,2,1,80,0,1
83990,-100,4,2,14,80,0,1
84536,-100,4,2,1,80,0,1
84717,-100,4,2,11,80,0,1
84899,-100,4,2,14,80,0,1
85263,-100,4,2,13,80,0,1
85626,-100,4,2,12,80,0,1
85990,-100,4,2,13,80,0,1
86354,-100,4,2,13,70,0,0
86717,-100,4,2,1,70,0,0
86899,-100,4,2,14,70,0,0
87081,-100,4,2,14,70,0,0
87717,-100,4,2,19,100,0,0

[Colours]
Combo1 : 52,164,178
Combo2 : 254,194,206
Combo3 : 179,220,233
Combo4 : 235,142,173

[HitObjects]
384,128,536,5,4,1:3:0:0:
384,128,717,1,4,1:3:0:0:
128,256,1990,1,4,1:3:0:0:
128,256,2171,1,4,1:3:0:0:
256,64,3445,1,4,1:3:0:0:
256,64,3626,1,4,1:3:0:0:
257,193,4899,1,12,0:0:0:0:
257,193,5626,2,0,B|240:131|240:131|249:85,2,108,8|8|4,0:3|0:3|0:3,0:0:0:0:
384,256,6354,5,4,1:3:0:0:
384,256,6536,1,4,1:3:0:0:
128,128,7808,1,4,1:3:0:0:
128,128,7990,1,4,1:3:0:0:
256,320,9263,1,8,1:0:0:0:
256,320,9445,1,8,1:0:0:0:
256,192,10717,1,12,0:2:0:0:
256,192,11445,2,0,B|273:254|273:254|264:296,2,108,8|8|4,0:3|0:3|0:3,0:0:0:0:
336,32,12172,6,0,P|336:120|360:168,1,121.499996292114,14|0,2:0|0:0,0:0:0:0:
360,168,12536,2,0,L|440:184,1,80.9999975280763,10|0,1:0|0:0,0:0:0:0:
408,312,12899,1,10,0:1:0:0:
439,183,13081,1,2,0:0:0:0:
400,344,13263,1,10,1:0:0:0:
288,272,13445,6,0,P|275:230|272:176,1,80.9999975280763,2|8,0:1|0:0,0:0:0:0:
224,32,13808,2,0,P|219:72|208:110,1,80.9999975280763,2|8,0:1|1:0,0:0:0:0:
344,120,14172,2,0,P|383:129|420:145,1,80.9999975280763,2|8,0:1|0:0,0:0:0:0:
176,240,14536,2,0,P|136:231|99:215,1,80.9999975280763,2|8,0:1|1:0,0:0:0:0:
271,193,14899,1,2,1:0:0:0:
271,193,14990,1,0,0:0:0:0:
271,193,15081,1,14,0:2:0:0:
271,193,15445,6,0,B|280:232|280:232|272:256|272:256|280:288|272:336,1,121.499996292114,10|0,1:1|0:0,0:0:0:0:
272,336,15808,1,10,0:1:0:0:
176,240,15990,1,0,0:0:0:0:
368,272,16172,1,10,1:0:0:0:
176,240,16354,6,0,P|167:186|168:144,1,80.9999975280763,2|10,0:1|0:0,0:0:0:0:
336,40,16717,2,0,P|335:92|327:132,1,80.9999975280763,2|8,0:1|1:0,0:0:0:0:
88,96,17081,2,0,P|128:73|176:56,1,80.9999975280763,2|10,0:1|0:0,0:0:0:0:
408,184,17445,2,0,P|375:201|312:224,1,80.9999975280763,2|8,0:1|1:0,0:0:0:0:
248,144,17809,1,2,1:0:0:0:
248,144,17900,1,0,0:0:0:0:
248,144,17990,1,14,0:0:0:0:
248,144,18354,6,0,P|224:208|248:288,1,121.499996292114,10|0,1:0|0:0,0:0:0:0:
240,280,18717,1,10,0:1:0:0:
334,217,18899,1,0,0:0:0:0:
144,192,19081,1,10,1:0:0:0:
334,217,19263,6,0,P|349:158|352:136,1,80.9999975280763,2|10,0:1|0:0,0:0:0:0:
176,304,19626,2,0,L|253:326,1,80.9999975280763,2|8,0:1|1:0,0:0:0:0:
232,96,19990,6,0,P|217:37|214:15,1,80.9999975280763,2|10,0:1|0:0,0:0:0:0:
411,194,20353,2,0,L|334:216,1,80.9999975280763,2|8,0:1|1:0,0:0:0:0:
144,192,20718,1,2,1:0:0:0:
144,192,20809,1,0,0:0:0:0:
144,192,20899,1,14,0:0:0:0:
144,192,21263,6,0,B|136:160|136:160|144:136|144:136|136:104|144:64,1,121.499996292114,10|0,1:0|0:0,0:0:0:0:
144,48,21626,1,10,0:1:0:0:
240,168,21808,1,2,0:0:0:0:
40,128,21990,1,10,1:0:0:0:
240,168,22172,6,0,P|250:213|256:264,1,80.9999975280763,2|10,0:1|0:0,0:0:0:0:
160,352,22536,2,0,L|80:338,1,80.9999975280763,2|8,0:1|1:0,0:0:0:0:
360,232,22899,6,0,P|354:272|345:311,1,80.9999975280763,2|10,0:1|0:0,0:0:0:0:
216,48,23263,2,0,L|296:35,1,80.9999975280763,2|8,0:1|1:0,0:0:0:0:
496,112,23626,1,2,1:0:0:0:
496,112,23717,1,0,0:0:0:0:
496,112,23808,1,14,0:0:0:0:
496,112,24172,6,0,P|437:103|368:80,1,121.499996292114,8|0,1:0|0:0,0:0:0:0:
360,72,24536,2,0,L|376:160,1,80.9999975280763,10|0,0:0|0:0,0:0:0:0:
248,352,24899,2,0,P|225:296|224:232,1,121.499996292114,8|0,1:0|0:0,0:0:0:0:
240,216,25263,2,0,L|319:231,1,80.9999975280763,10|0,0:0|0:0,0:0:0:0:
176,32,25627,2,0,P|172:88|128:176,1,121.499996292114,8|0,1:0|0:0,0:0:0:0:
136,168,25991,2,0,L|57:183,1,80.9999975280763,8|0,0:0|0:0,0:0:0:0:
168,336,26354,2,0,L|248:352,1,80.9999975280763,0|0,1:0|1:0,0:0:0:0:
272,344,26626,1,0,1:0:0:0:
272,344,26717,1,14,0:0:0:0:
368,208,26899,5,2,0:0:0:0:
384,320,27081,1,8,1:0:0:0:
256,232,27263,1,2,0:0:0:0:
408,336,27445,1,8,0:0:0:0:
384,184,27626,1,2,0:0:0:0:
272,344,27808,1,8,1:0:0:0:
232,216,27990,1,2,0:0:0:0:
400,160,28172,5,10,0:1:0:0:
208,200,28354,2,0,P|196:155|192:112,1,80.9999975280763,2|0,0:0|1:0,0:0:0:0:
432,48,28717,2,0,P|427:88|416:127,1,80.9999975280763,2|8,0:1|0:0,0:0:0:0:
336,272,29081,1,8,0:3:0:0:
304,96,29263,1,4,1:3:0:0:
432,232,29445,1,2,1:0:0:0:
432,232,29536,1,0,1:0:0:0:
432,232,29626,1,14,0:2:0:0:
432,232,29990,6,0,P|384:184|304:176,1,121.499996292114,8|0,1:0|0:0,0:0:0:0:
312,176,30354,2,0,L|232:192,1,80.9999975280763,8|0,0:0|0:0,0:0:0:0:
32,152,30718,2,0,P|24:216|56:288,1,121.499996292114,8|0,1:0|0:0,0:0:0:0:
56,288,31081,2,0,L|135:301,1,80.9999975280763,8|0,0:0|0:0,0:0:0:0:
336,264,31445,2,0,L|216:241,1,121.499996292114,8|0,1:0|0:0,0:0:0:0:
192,248,31809,2,0,P|180:208|177:168,1,80.9999975280763,8|0,0:0|0:0,0:0:0:0:
360,257,32172,2,0,P|354:297|344:336,1,80.9999975280763,8|0,1:0|1:0,0:0:0:0:
336,360,32445,1,0,1:0:0:0:
336,360,32536,1,14,0:0:0:0:
304,176,32718,5,2,0:0:0:0:
200,328,32899,1,8,1:0:0:0:
176,169,33082,1,2,0:0:0:0:
280,272,33263,1,8,0:0:0:0:
144,168,33445,1,2,0:0:0:0:
312,272,33626,1,8,1:0:0:0:
248,80,33808,1,2,0:0:0:0:
192,248,33990,5,10,0:1:0:0:
407,173,34172,2,0,L|328:160,1,80.9999975280763,2|8,0:1|1:0,0:1:0:0:
71,91,34536,2,0,L|152:80,1,80.9999975280763,2|8,0:1|0:0,0:0:0:0:
312,272,34899,1,2,0:1:0:0:
248,80,35081,1,8,1:0:0:0:
200,328,35263,1,2,1:1:0:0:
200,328,35354,1,0,1:0:0:0:
200,328,35444,1,14,0:0:0:0:
272,208,35808,5,2,3:0:0:0:
248,80,36172,1,0,1:0:0:0:
368,144,36536,1,0,0:0:0:0:
272,208,36899,5,8,0:0:0:0:
248,80,37263,1,8,0:0:0:0:
368,144,37626,1,0,1:0:0:0:
296,136,37990,5,2,3:0:0:0:
296,136,38172,1,8,0:3:0:0:
296,136,38354,1,12,0:0:0:0:
168,32,38717,5,2,3:0:0:0:
192,160,39081,1,0,1:0:0:0:
72,96,39445,1,8,1:3:0:0:
144,104,39808,5,0,1:0:0:0:
144,104,39990,1,0,1:0:0:0:
144,104,40172,1,0,0:0:0:0:
144,104,40354,1,4,0:3:0:0:
160,232,40536,6,0,L|216:248,2,35.9999989013672,8|8|8,0:3|0:3|0:3,0:0:0:0:
264,152,40899,6,0,L|298:161,2,35.9999989013672,4|4|0,0:3|0:3|0:2,0:0:0:0:
240,40,41263,1,14,0:0:0:0:
240,40,41626,5,0,1:0:0:0:
240,40,41808,1,0,0:0:0:0:
144,104,41990,2,0,P|144:208|160:240,1,121.499996292114,10|0,0:1|0:0,0:0:0:0:
150,222,42354,1,0,1:0:0:0:
264,152,42536,1,0,0:0:0:0:
40,216,42717,6,0,P|51:265|72:312,1,80.9999975280763,10|0,0:1|0:0,0:0:0:0:
208,344,43081,1,0,1:0:0:0:
150,222,43263,1,0,0:0:0:0:
298,161,43445,1,10,0:1:0:0:
248,256,43626,1,2,0:0:0:0:
192,120,43808,1,0,1:0:0:0:
112,320,43990,1,2,1:0:0:0:
112,320,44081,1,0,0:0:0:0:
112,320,44172,1,10,0:0:0:0:
112,320,44536,5,0,1:0:0:0:
112,320,44718,1,0,0:0:0:0:
248,256,44899,2,0,P|320:240|400:240,1,121.499996292114,10|0,0:1|0:0,0:0:0:0:
367,237,45263,1,0,1:0:0:0:
288,144,45446,1,0,0:0:0:0:
320,336,45626,6,0,P|367:345|399:350,1,80.9999975280763,10|0,0:1|0:0,0:0:0:0:
176,176,45990,1,0,1:0:0:0:
248,256,46173,1,0,0:0:0:0:
144,280,46354,1,10,0:1:0:0:
288,144,46536,1,2,0:1:0:0:
320,336,46718,1,0,1:0:0:0:
176,176,46899,1,2,1:0:0:0:
176,176,46991,1,0,0:0:0:0:
176,176,47082,1,14,1:2:0:0:
176,176,47445,5,0,1:0:0:0:
176,176,47627,1,0,0:0:0:0:
367,237,47808,2,0,P|384:176|392:112,1,121.499996292114,10|0,0:1|0:0,0:0:0:0:
391,118,48173,1,0,1:0:0:0:
480,200,48355,1,0,0:0:0:0:
280,128,48536,6,0,P|269:68|270:7,1,121.499996292114,10|0,0:1|0:0,0:0:0:0:
270,7,48899,1,2,1:0:0:0:
391,118,49081,1,2,0:0:0:0:
176,176,49263,1,10,0:1:0:0:
280,128,49445,1,2,0:0:0:0:
208,288,49626,1,2,1:1:0:0:
39,118,49808,1,0,1:0:0:0:
39,118,49900,1,0,0:0:0:0:
39,118,49990,6,0,P|114:118|178:182,1,161.999995056153,10|0,0:1|1:0,0:0:0:0:
160,48,50536,1,0,0:0:0:0:
80,208,50717,2,0,B|48:272|72:336|72:336|112:312,1,161.999995056153,10|0,0:1|1:0,0:0:0:0:
327,307,51263,1,0,1:0:0:0:
327,307,51354,1,0,0:0:0:0:
327,307,51445,6,0,L|191:285,1,121.499996292114,10|0,0:1|0:0,0:0:0:0:
207,287,51808,1,2,1:0:0:0:
280,200,51990,1,0,0:0:0:0:
144,64,52172,2,0,P|145:124|171:178,1,121.499996292114,10|0,0:1|0:0,0:0:0:0:
384,216,52536,2,0,L|392:168,1,40.4999987640381,2|0,1:0|0:0,0:0:0:0:
312,16,52717,2,0,L|304:64,1,40.4999987640381,2|0,1:1|0:0,0:0:0:0:
264,264,52899,5,14,1:2:0:0:
264,264,53081,1,14,1:2:0:0:
264,264,53445,5,14,1:2:0:0:
264,264,53808,6,0,L|288:260,9,22.5,2|0|0|0|0|0|0|0|0|0,0:0|0:0|0:0|0:0|0:0|0:0|0:0|0:0|0:0|0:0,0:0:0:0:
312,256,54354,1,14,1:2:0:0:
216,112,54536,5,2,0:0:0:0:
264,264,54717,2,0,L|248:360,1,90,10|0,1:2|0:0,0:0:0:0:
208,80,55081,1,10,1:2:0:0:
136,240,55263,5,2,0:0:0:0:
368,112,55445,1,10,1:2:0:0:
384,296,55626,1,2,0:0:0:0:
288,96,55808,5,10,1:2:0:0:
232,272,55990,2,0,L|200:376,1,90,2|8,0:0|1:2,0:0:0:0:
120,56,56354,2,0,L|134:144,1,90,2|8,0:0|1:2,0:0:0:0:
360,216,56717,6,0,L|416:232,1,45,2|0,0:0|0:0,0:0:0:0:
300,52,56899,2,0,L|287:95,1,45,10|0,1:2|0:0,0:0:0:0:
232,272,57081,1,2,1:2:0:0:
232,272,57172,1,0,0:0:0:0:
232,272,57263,1,14,1:2:0:0:
160,152,57445,5,2,0:0:0:0:
360,216,57626,2,0,L|368:312,1,90,10|2,1:2|0:0,0:0:0:0:
300,52,57990,1,10,1:2:0:0:
248,184,58171,5,2,0:0:0:0:
384,112,58354,1,10,1:2:0:0:
232,272,58536,1,2,0:0:0:0:
472,160,58717,5,10,1:2:0:0:
300,52,58899,2,0,L|312:152,1,90,2|8,0:0|1:2,0:0:0:0:
443,345,59263,2,0,L|456:256,1,90,2|8,0:0|1:2,0:0:0:0:
168,128,59626,6,0,L|210:142,1,45,2|0,0:0|0:0,0:0:0:0:
392,200,59808,2,0,L|344:216,1,45,10|0,1:2|0:0,0:0:0:0:
136,272,59990,1,2,1:2:0:0:
136,272,60081,1,0,0:0:0:0:
136,272,60172,1,14,1:2:0:0:
328,80,60354,5,2,0:0:0:0:
296,272,60536,2,0,L|280:368,1,90,10|0,1:2|0:0,0:0:0:0:
128,168,60899,1,10,1:2:0:0:
310,225,61081,1,2,0:0:0:0:
136,272,61263,1,10,1:2:0:0:
120,64,61445,1,2,1:2:0:0:
120,64,61536,1,0,0:0:0:0:
120,64,61626,1,14,1:2:0:0:
232,272,61808,5,2,0:0:0:0:
360,136,61990,1,10,1:2:0:0:
128,168,62172,1,2,0:0:0:0:
360,136,62354,2,0,P|370:78|376:40,1,90,10|0,1:2|0:0,0:0:0:0:
248,184,62717,6,0,L|192:192,1,45,10|0,1:2|0:0,0:0:0:0:
328,280,62899,2,0,L|372:286,1,45,10|0,1:2|0:0,0:0:0:0:
233,51,63081,5,14,1:2:0:0:
233,51,63263,2,0,L|240:96,1,45,2|0,0:0|0:0,0:0:0:0:
224,320,63445,5,14,0:0:0:0:
224,320,63626,2,0,L|218:276,1,45,2|0,0:0|0:0,0:0:0:0:
384,168,63808,5,14,1:2:0:0:
384,168,63990,2,0,L|328:160,1,45,2|0,0:0|0:0,0:0:0:0:
112,192,64172,5,14,0:0:0:0:
112,192,64354,2,0,L|157:198,1,45,2|0,1:2|0:0,0:0:0:0:
248,184,64536,5,14,1:2:0:0:
224,320,64717,1,2,0:2:0:0:
144,96,64899,1,10,1:2:0:0:
352,272,65081,1,2,0:2:0:0:
24,176,65263,6,8,L|17:132,1,45,6|0,1:2|1:0,0:0:0:0:
224,16,65445,2,0,L|231:60,1,45,10|0,1:2|0:0,0:0:0:0:
288,304,65626,2,0,L|332:311,1,45,10|0,1:2|1:0,0:0:0:0:
472,120,65808,2,0,L|427:112,1,45,14|0,1:2|0:0,0:0:0:0:
248,184,65990,1,14,0:2:0:0:
248,184,66172,5,2,0:0:0:0:
332,311,66354,1,10,1:2:0:0:
328,160,66536,1,2,0:0:0:0:
168,208,66717,1,10,1:2:0:0:
384,232,66899,5,2,0:0:0:0:
264,96,67081,1,10,1:2:0:0:
232,272,67262,1,2,0:0:0:0:
408,128,67445,5,10,1:2:0:0:
248,184,67626,1,2,0:0:0:0:
352,40,67808,1,10,1:2:0:0:
384,232,67990,2,0,L|368:328,1,90,2|10,0:0|1:2,0:0:0:0:
264,96,68354,6,0,L|219:103,1,45,2|0,1:2|0:0,0:0:0:0:
179,270,68535,2,0,L|224:264,1,45,10|0,1:2|0:0,0:0:0:0:
56,128,68717,1,2,1:2:0:0:
56,128,68808,1,0,0:0:0:0:
56,128,68899,1,14,1:2:0:0:
224,264,69081,5,2,0:0:0:0:
219,103,69263,1,10,1:2:0:0:
296,296,69445,1,2,0:0:0:0:
136,112,69626,1,10,1:2:0:0:
336,224,69808,5,2,0:0:0:0:
112,192,69990,1,10,1:2:0:0:
243,23,70172,1,2,0:0:0:0:
296,296,70354,5,10,1:2:0:0:
136,112,70536,1,2,0:0:0:0:
384,152,70717,1,10,1:2:0:0:
136,112,70899,2,0,L|147:202,1,90,2|10,0:0|1:2,0:0:0:0:
368,320,71263,2,0,L|376:272,1,45,2|0,1:2|0:0,0:0:0:0:
280,72,71445,2,0,L|272:116,1,45,10|0,1:2|0:0,0:0:0:0:
224,328,71626,1,2,1:2:0:0:
224,328,71717,1,0,0:0:0:0:
224,328,71808,1,14,1:2:0:0:
61,172,71990,6,0,L|146:201,1,90,2|8,0:0|1:2,0:0:0:0:
375,275,72354,1,2,0:0:0:0:
271,116,72535,1,10,1:2:0:0:
224,328,72717,1,2,0:0:0:0:
328,169,72899,1,10,1:2:0:0:
136,112,73082,1,2,1:2:0:0:
136,112,73172,1,0,0:0:0:0:
136,112,73263,1,12,1:2:0:0:
224,328,73445,6,0,L|248:224,1,90,2|8,0:0|1:2,0:0:0:0:
200,56,73808,1,2,0:0:0:0:
376,112,73990,2,0,L|288:132,1,90,10|0,1:2|0:0,0:0:0:0:
128,224,74353,2,0,L|84:213,1,45,10|0,1:2|0:0,0:0:0:0:
328,312,74536,2,0,L|371:301,1,45,0|0,1:0|0:0,0:0:0:0:
200,160,74717,6,0,B|176:96|176:32|176:32|225:45,1,180,14|10,1:2|1:2,0:0:0:0:
88,120,75263,1,0,0:0:0:0:
312,192,75445,2,0,B|330:237|330:237|322:276|322:276|334:317|320:368,1,180,14|10,1:2|1:2,0:0:0:0:
440,272,75990,1,2,0:0:0:0:
206,156,76172,6,0,L|116:172,1,90,14|0,1:2|0:0,0:0:0:0:
231,350,76536,2,0,L|320:366,1,90,10|0,1:2|0:0,0:0:0:0:
126,292,76899,2,0,L|36:308,1,90,14|0,1:2|0:0,0:0:0:0:
244,244,77263,5,10,1:2:0:0:
126,292,77445,1,2,1:2:0:0:
336,233,77626,6,0,P|307:169|185:173,1,180,14|10,1:2|1:2,0:0:0:0:
37,40,78172,1,2,1:2:0:0:
37,40,78263,1,0,0:0:0:0:
37,40,78354,2,0,P|41:147|58:235,1,180,10|10,1:2|1:2,0:0:0:0:
116,330,78899,1,2,0:0:0:0:
190,245,79081,6,0,P|199:203|207:141,1,90,10|0,1:2|0:0,0:0:0:0:
37,40,79445,2,0,P|70:82|107:115,1,90,10|0,1:2|0:0,0:0:0:0:
349,37,79808,2,0,L|223:61,1,90,10|0,1:2|0:0,0:0:0:0:
190,245,80172,5,10,1:2:0:0:
96,106,80353,1,2,1:2:0:0:
275,167,80535,6,0,B|312:180|312:180|336:252|307:350,1,180,14|10,1:2|1:2,0:0:0:0:
147,360,81081,1,2,1:2:0:0:
147,360,81172,1,0,0:0:0:0:
147,360,81263,2,0,L|58:344,1,90,10|0,1:2|0:0,0:0:0:0:
314,319,81626,1,10,1:2:0:0:
183,208,81808,1,2,1:2:0:0:
183,208,81899,1,0,0:0:0:0:
183,208,81990,6,0,B|120:120|186:20,1,180,10|10,1:2|1:2,0:0:0:0:
320,229,82536,2,0,L|314:319,1,90,0|10,0:0|1:2,0:0:0:0:
408,120,82899,2,0,L|497:111,1,90,0|10,0:3|1:2,0:0:0:0:
183,208,83263,1,0,1:0:0:0:
183,208,83354,1,0,0:0:0:0:
183,208,83445,6,0,L|0:192,1,180,14|10,1:2|1:2,0:0:0:0:
80,296,83990,1,2,0:0:0:0:
144,112,84172,2,0,P|232:96|280:176,1,180,10|10,1:2|1:2,0:0:0:0:
392,360,84717,1,2,1:2:0:0:
392,360,84808,1,0,0:0:0:0:
392,360,84899,6,0,L|379:252,1,90,10|0,1:2|0:0,0:0:0:0:
144,112,85263,2,0,L|154:201,1,90,10|0,1:2|0:0,0:0:0:0:
359,121,85626,2,0,L|448:136,1,90,14|0,1:2|0:0,0:0:0:0:
160,350,85990,2,0,L|72:336,1,90,10|2,1:2|0:0,0:0:0:0:
118,30,86354,6,0,P|116:120|153:201,1,180,14|2,1:2|0:2,0:0:0:0:
312,328,86899,2,0,L|302:374,2,45,2|0|6,0:0|0:0|0:2,0:0:0:0:
350,131,87717,5,2,0:0:0:0:
