osu file format v14

[General]
AudioFilename: eromanga.mp3
AudioLeadIn: 0
PreviewTime: 54263
Countdown: 0
SampleSet: None
StackLeniency: 0.7
Mode: 0
LetterboxInBreaks: 0
WidescreenStoryboard: 1

[Editor]
Bookmarks: 1445,53808,55808,56536,58717,59445,60172,63081,63445,63808,64172,64536,64717,64899,65081,68172,70354,75445,83445
DistanceSpacing: 3
BeatDivisor: 4
GridSize: 8
TimelineZoom: 2.699999

[Metadata]
Title:Hitorigoto -TV MIX-
TitleUnicode:ヒトリゴト -TV MIX-
Artist:ClariS
ArtistUnicode:ClariS
Creator:Lecana
Version:Lecana
Source:エロマンガ先生
Tags:
BeatmapID:1397034
BeatmapSetID:659690

[Difficulty]
HPDrainRate:6
CircleSize:4
OverallDifficulty:7
ApproachRate:9
SliderMultiplier:1.8
SliderTickRate:1

[Events]
//Background and Video events
Video,-430,"eromanga opening.avi"
0,0,"eromanga.png",0,0
//Break Periods
//Storyboard Layer 0 (Background)
//Storyboard Layer 1 (Fail)
//Storyboard Layer 2 (Pass)
//Storyboard Layer 3 (Foreground)
//Storyboard Sound Samples
Sample,64536,0,"soft-hitwhistle11.wav",10
Sample,64717,0,"soft-hitwhistle12.wav",20
Sample,64899,0,"soft-hitwhistle13.wav",30
Sample,65081,0,"soft-hitwhistle14.wav",40
Sample,87717,0,"soft-hitwhistle20.wav",70
Sample,87717,0,"soft-hitwhistle14.wav",30
Sample,87717,0,"soft-hitwhistle19.wav",70
Sample,87717,0,"soft-hitclap8.wav",30

[TimingPoints]
536,363.636363636364,4,2,1,80,1,0
536,-125,4,2,1,80,0,0
12172,-111.111111111111,4,2,1,80,0,0
23808,-90.9090909090909,4,2,1,60,0,0
24172,-111.111111111111,4,2,1,60,0,0
35445,-166.666666666667,4,2,1,50,0,0
41263,-111.111111111111,4,2,1,60,0,0
52899,-111.111111111111,4,2,14,80,0,0
53445,-111.111111111111,4,2,13,80,0,0
53717,-111.111111111111,4,2,2,80,0,0
54354,-100,4,2,1,80,0,1
54536,-100,4,2,11,80,0,1
55263,-100,4,2,10,80,0,1
55445,-100,4,2,9,80,0,1
55626,-100,4,2,10,80,0,1
55808,-100,4,2,11,80,0,1
56717,-100,4,2,14,80,0,1
56899,-100,4,2,13,80,0,1
57081,-100,4,2,14,80,0,1
57172,-100,4,2,1,80,0,1
57445,-100,4,2,11,80,0,1
58172,-100,4,2,10,80,0,1
58354,-100,4,2,9,80,0,1
58536,-100,4,2,10,80,0,1
58717,-100,4,2,11,80,0,1
59626,-100,4,2,16,80,0,1
59808,-100,4,2,15,80,0,1
59990,-100,4,2,14,80,0,1
60081,-100,4,2,1,80,0,1
60354,-100,4,2,12,80,0,1
61263,-100,4,2,13,80,0,1
61445,-100,4,2,14,80,0,1
61536,-100,4,2,1,80,0,1
61808,-100,4,2,11,80,0,1
62354,-100,4,2,9,80,0,1
62717,-100,4,2,11,80,0,1
62899,-100,4,2,1,80,0,1
63081,-100,4,2,10,80,0,1
63263,-100,4,2,1,80,0,1
63445,-100,4,2,9,80,0,1
63626,-100,4,2,1,80,0,1
63808,-100,4,2,10,75,0,1
63990,-100,4,2,1,80,0,1
64172,-100,4,2,11,70,0,1
64263,-100,4,2,1,80,0,1
64536,-100,4,2,9,80,0,1
64717,-100,4,2,8,80,0,1
64899,-100,4,2,9,80,0,1
65081,-100,4,2,8,80,0,1
65263,-100,4,2,15,80,0,1
65445,-100,4,2,16,80,0,1
65626,-100,4,2,17,85,0,1
65808,-100,4,2,18,90,0,1
65899,-100,4,2,1,80,0,0
65990,-100,4,2,1,80,0,1
66172,-100,4,2,11,80,0,1
66899,-100,4,2,10,80,0,1
67081,-100,4,2,9,80,0,1
67263,-100,4,2,10,80,0,1
67445,-100,4,2,11,80,0,1
68172,-100,4,2,1,80,0,1
68354,-100,4,2,14,80,0,1
68536,-100,4,2,13,80,0,1
68717,-100,4,2,14,80,0,1
68808,-100,4,2,1,80,0,1
69081,-100,4,2,11,80,0,1
69808,-100,4,2,10,80,0,1
69990,-100,4,2,9,80,0,1
70172,-100,4,2,10,80,0,1
70354,-100,4,2,11,80,0,1
71081,-100,4,2,1,80,0,1
71263,-100,4,2,16,80,0,1
71445,-100,4,2,15,80,0,1
71626,-100,4,2,14,80,0,1
71717,-100,4,2,1,80,0,1
71990,-100,4,2,12,80,0,1
72899,-100,4,2,13,80,0,1
73081,-100,4,2,14,80,0,1
73172,-100,4,2,11,80,0,1
73990,-100,4,2,9,80,0,1
74354,-100,4,2,11,80,0,1
74536,-100,4,2,1,80,0,1
74717,-100,4,2,10,80,0,1
75081,-100,4,2,1,80,0,1
75445,-100,4,2,11,80,0,1
75808,-100,4,2,1,80,0,1
75990,-100,4,2,11,80,0,1
76172,-100,4,2,14,80,0,1
76536,-100,4,2,13,80,0,1
76899,-100,4,2,12,80,0,1
77263,-100,4,2,13,80,0,1
77990,-100,4,2,1,80,0,1
78172,-100,4,2,14,80,0,1
78717,-100,4,2,1,80,0,1
78899,-100,4,2,11,80,0,1
79081,-100,4,2,14,80,0,1
79445,-100,4,2,13,80,0,1
79808,-100,4,2,12,80,0,1
80172,-100,4,2,13,80,0,1
80899,-100,4,2,1,80,0,1
81081,-100,4,2,14,80,0,1
81626,-100,4,2,15,80,0,1
81808,-100,4,2,14,80,0,1
81990,-100,4,2,1,80,0,1
82354,-100,4,2,1,80,0,1
83445,-100,4,2,13,80,0,1
83808,-100,4,2,1,80,0,1
83990,-100,4,2,14,80,0,1
84536,-100,4,2,1,80,0,1
84717,-100,4,2,11,80,0,1
84899,-100,4,2,14,80,0,1
85263,-100,4,2,13,80,0,1
85626,-100,4,2,12,80,0,1
85990,-100,4,2,13,80,0,1
86354,-100,4,2,13,70,0,0
86717,-100,4,2,1,70,0,0
86899,-100,4,2,14,70,0,0
87081,-100,4,2,14,70,0,0
87717,-100,4,2,19,100,0,0

[Colours]
Combo1 : 52,164,178
Combo2 : 254,194,206
Combo3 : 179,220,233
Combo4 : 235,142,173

[HitObjects]
160,112,536,5,4,1:3:0:0:
160,112,717,1,4,1:3:0:0:
386,242,1990,5,4,1:3:0:0:
386,242,2172,1,4,1:3:0:0:
60,327,3445,5,4,1:3:0:0:
60,327,3626,1,4,1:3:0:0:
232,248,4899,1,12,0:0:0:0:
232,248,5081,2,0,P|276:222|282:160,1,108,0|0,0:3|0:0,0:0:0:0:
161,64,5445,2,0,P|149:108|211:175,1,144,8|8,0:3|0:3,0:0:0:0:
303,81,5990,2,0,L|231:102,1,72,0|4,0:0|0:3,0:0:0:0:
79,136,6354,5,4,1:3:0:0:
312,218,6536,1,4,1:3:0:0:
177,283,6717,1,0,0:0:0:0:
177,283,7808,5,4,1:3:0:0:
380,219,7990,1,4,1:3:0:0:
263,127,8172,1,0,0:0:0:0:
263,127,9263,5,8,1:0:0:0:
339,198,9444,2,0,L|350:275,1,72,8|0,1:0|0:0,0:0:0:0:
417,131,9808,1,0,0:0:0:0:
417,131,9990,2,0,L|406:54,2,72,0|0|0,0:0|0:0|0:0,0:0:0:0:
483,206,10536,1,0,0:0:0:0:
277,257,10717,5,12,0:2:0:0:
367,219,10899,2,0,L|359:305,1,72,0|0,0:0|0:0,0:0:0:0:
221,345,11263,1,0,0:0:0:0:
221,345,11354,1,0,0:0:0:0:
221,345,11445,2,0,B|180:335|180:335|105:358,2,108,8|8|4,0:3|0:3|0:3,0:0:0:0:
368,254,12172,5,14,2:0:0:0:
216,172,12354,1,0,0:0:0:0:
221,345,12536,2,0,L|266:255,1,80.9999975280763,10|0,1:0|0:0,0:0:0:0:
407,334,12899,2,0,B|359:350|359:350|326:333,1,80.9999975280763,10|2,0:1|0:0,0:0:0:0:
159,235,13263,1,10,1:0:0:0:
386,176,13445,2,0,L|367:260,1,80.9999975280763,2|8,0:1|0:0,0:0:0:0:
159,235,13808,2,0,P|196:211|230:200,1,80.9999975280763,2|8,0:1|1:0,0:0:0:0:
140,337,14172,1,2,0:1:0:0:
308,196,14354,1,8,0:0:0:0:
116,134,14536,2,0,P|77:113|50:89,1,80.9999975280763,2|8,0:1|1:0,0:0:0:0:
308,196,14899,1,2,1:0:0:0:
308,196,14990,1,0,0:0:0:0:
308,196,15081,5,14,0:2:0:0:
181,269,15263,1,0,0:0:0:0:
308,196,15445,2,0,P|325:277|325:278,1,80.9999975280763,10|0,1:1|0:0,0:0:0:0:
247,361,15808,1,10,0:1:0:0:
418,277,15990,1,0,0:0:0:0:
164,246,16172,1,10,1:0:0:0:
341,114,16354,6,0,L|432:86,2,80.9999975280763,2|10|2,0:1|0:0|0:1,0:0:0:0:
215,81,16899,1,8,1:0:0:0:
322,190,17081,2,0,P|345:231|357:280,1,80.9999975280763,2|10,0:1|0:0,0:0:0:0:
54,282,17445,2,0,P|95:269|141:259,1,80.9999975280763,2|8,0:1|1:0,0:0:0:0:
302,330,17808,1,2,1:0:0:0:
161,94,17990,5,14,0:0:0:0:
238,269,18172,1,0,0:0:0:0:
238,269,18263,1,0,0:0:0:0:
238,269,18354,1,10,1:0:0:0:
335,195,18536,1,0,0:0:0:0:
143,134,18717,1,10,0:1:0:0:
322,42,18899,2,0,P|309:91|292:136,1,80.9999975280763,0|10,0:0|1:0,0:0:0:0:
213,317,19263,6,0,P|250:297|296:280,1,80.9999975280763,2|10,0:1|0:0,0:0:0:0:
483,253,19626,2,0,P|445:238|409:218,1,80.9999975280763,2|8,0:1|1:0,0:0:0:0:
163,55,19990,2,0,P|199:35|301:86,1,161.999995056153,2|2,0:1|0:1,0:0:0:0:
268,239,20536,1,8,1:0:0:0:
299,82,20717,1,2,1:0:0:0:
414,282,20899,6,0,P|436:322|451:363,1,80.9999975280763,14|0,0:0|0:0,0:0:0:0:
255,287,21263,1,10,1:0:0:0:
348,135,21445,1,0,0:0:0:0:
178,237,21626,1,10,0:1:0:0:
383,207,21808,1,2,0:0:0:0:
129,154,21990,1,10,1:0:0:0:
236,367,22172,6,0,P|249:312|271:207,2,161.999995056153,2|2|2,0:1|0:1|0:1,0:0:0:0:
236,367,23081,1,10,0:0:0:0:
235,134,23263,2,0,B|283:120|316:145|316:145|328:133|347:127|347:127|382:163|442:147,1,202.499993820191,2|0,0:1|0:0,0:0:0:0:
417,12,23808,6,0,B|384:-20|384:-20|410:93,1,148.50000453186,14|0,0:0|0:0,0:0:0:0:
422,152,24172,2,0,L|403:232,1,80.9999975280763,8|0,1:0|0:0,0:0:0:0:
296,87,24536,1,10,0:0:0:0:
486,224,24717,1,0,0:0:0:0:
237,213,24899,2,0,L|324:190,1,80.9999975280763,8|0,1:0|0:0,0:0:0:0:
264,354,25263,6,0,L|139:325,1,121.499996292114,10|0,0:0|0:0,0:0:0:0:
120,318,25626,2,0,L|210:287,1,80.9999975280763,8|0,1:0|0:0,0:0:0:0:
175,58,25990,2,0,P|152:106|139:155,1,80.9999975280763,8|0,0:0|0:0,0:0:0:0:
349,287,26354,2,0,P|336:248|317:212,1,80.9999975280763,0|0,1:0|1:0,0:0:0:0:
86,271,26717,5,14,0:0:0:0:
303,187,26899,1,2,0:0:0:0:
143,132,27081,1,8,1:0:0:0:
223,261,27263,1,2,0:0:0:0:
285,160,27445,1,8,0:0:0:0:
119,242,27626,1,2,0:0:0:0:
341,293,27808,1,8,1:0:0:0:
95,356,27990,1,2,0:0:0:0:
193,186,28172,6,0,P|215:227|223:274,1,80.9999975280763,10|2,0:1|0:0,0:0:0:0:
46,332,28536,1,0,1:0:0:0:
218,95,28717,2,0,P|274:72|362:122,1,161.999995056153,2|8,0:1|0:3,0:0:0:0:
205,339,29263,2,0,P|215:292|225:247,1,80.9999975280763,4|2,1:3|1:0,0:0:0:0:
154,134,29626,5,14,0:2:0:0:
321,246,29808,1,0,0:0:0:0:
118,278,29990,2,0,L|37:251,1,80.9999975280763,8|0,1:0|0:0,0:0:0:0:
244,183,30354,2,0,P|322:160|380:141,1,121.499996292114,8|0,0:0|0:0,0:0:0:0:
381,140,30717,2,0,P|376:188|368:231,1,80.9999975280763,8|0,1:0|0:0,0:0:0:0:
260,344,31081,6,0,B|201:327|201:327|176:298|176:298|108:274,1,161.999995056153,8|8,0:0|1:0,0:0:0:0:
81,188,31626,1,0,0:0:0:0:
81,188,31717,1,0,0:0:0:0:
81,188,31808,1,8,0:0:0:0:
135,360,31990,1,0,0:0:0:0:
179,165,32172,1,8,1:0:0:0:
67,299,32354,1,0,1:0:0:0:
255,243,32536,6,0,L|334:217,1,80.9999975280763,14|2,0:0|0:0,0:0:0:0:
375,111,32899,1,8,1:0:0:0:
428,293,33081,2,0,L|476:309,2,40.4999987640381,2|0|8,0:0|0:0|0:0,0:0:0:0:
233,243,33445,1,2,0:0:0:0:
357,182,33626,1,8,1:0:0:0:
255,149,33808,1,2,0:0:0:0:
359,264,33990,5,10,0:1:0:0:
195,357,34172,2,0,L|97:338,1,80.9999975280763,2|8,0:1|1:0,0:0:0:0:
21,169,34536,2,0,P|74:148|150:218,1,161.999995056153,2|2,0:1|0:1,0:0:0:0:
34,346,35081,2,0,P|58:297|72:262,1,80.9999975280763,8|2,1:0|1:1,0:0:0:0:
55,45,35445,5,14,0:0:0:0:
55,45,35808,2,0,P|97:57|178:77,2,107.999996704102,2|0|0,3:0|1:0|0:0,0:0:0:0:
334,296,36899,2,0,P|377:267|288:175,1,215.999993408203,8|0,0:0|1:0,0:0:0:0:
300,169,37990,1,2,3:0:0:0:
300,169,38172,1,8,0:3:0:0:
220,242,38354,6,0,L|98:225,1,107.999996704102,12|2,0:0|3:0,0:0:0:0:
386,218,39081,1,0,1:0:0:0:
48,334,39445,1,8,1:3:0:0:
205,109,39808,5,0,1:0:0:0:
205,109,39990,1,0,1:0:0:0:
205,109,40536,6,0,L|191:53,2,35.9999989013672,8|8|8,0:3|0:3|0:3,0:0:0:0:
264,261,40899,2,0,L|250:317,2,35.9999989013672,4|4|0,0:3|0:3|0:2,0:0:0:0:
327,60,41263,5,14,0:0:0:0:
327,60,41626,5,0,1:0:0:0:
428,131,41808,1,0,0:0:0:0:
261,194,41990,2,0,L|140:174,1,121.499996292114,10|0,0:1|0:0,0:0:0:0:
59,269,42354,2,0,L|143:249,1,80.9999975280763,0|0,1:0|0:0,0:0:0:0:
354,192,42717,5,10,0:1:0:0:
203,104,42899,1,0,0:0:0:0:
291,267,43081,1,0,1:0:0:0:
441,198,43263,1,0,0:0:0:0:
275,152,43445,1,10,0:1:0:0:
388,334,43626,2,0,B|406:295|406:295|386:246,1,80.9999975280763,2|0,0:0|1:0,0:0:0:0:
314,74,43990,1,2,1:0:0:0:
314,74,44081,1,0,0:0:0:0:
314,74,44172,5,10,0:0:0:0:
314,74,44536,1,0,1:0:0:0:
136,163,44717,1,0,0:0:0:0:
240,242,44899,1,10,0:1:0:0:
174,82,45081,1,0,0:0:0:0:
347,278,45263,1,0,1:0:0:0:
301,151,45445,1,0,0:0:0:0:
240,242,45626,5,10,0:1:0:0:
411,195,45808,1,0,0:0:0:0:
194,126,45990,2,0,L|109:149,1,80.9999975280763,0|0,1:0|0:0,0:0:0:0:
75,278,46354,1,10,0:1:0:0:
301,151,46536,2,0,L|326:61,1,80.9999975280763,2|0,0:1|1:0,0:0:0:0:
465,308,46899,1,2,1:0:0:0:
465,308,46990,1,0,0:0:0:0:
465,308,47081,5,14,1:2:0:0:
465,308,47445,2,0,L|377:293,1,80.9999975280763,0|0,1:0|0:0,0:0:0:0:
193,248,47808,2,0,L|326:216,1,121.499996292114,10|0,0:1|0:0,0:0:0:0:
335,213,48172,1,0,1:0:0:0:
161,257,48354,1,0,0:0:0:0:
385,294,48536,5,10,0:1:0:0:
301,128,48717,1,0,0:0:0:0:
233,305,48899,2,0,L|195:394,1,80.9999975280763,2|2,1:0|0:0,0:0:0:0:
191,90,49263,1,10,0:1:0:0:
334,202,49445,2,0,B|248:234|270:161|181:185,1,161.999995056153,2|0,0:0|1:0,0:0:0:0:
296,53,49990,6,0,B|345:29|345:29|301:127,1,161.999995056153,10|0,0:1|1:0,0:0:0:0:
233,305,50536,1,0,0:0:0:0:
68,218,50717,1,10,0:1:0:0:
68,218,51263,1,0,1:0:0:0:
171,171,51445,2,0,P|221:158|282:204,1,121.499996292114,10|0,0:1|0:0,0:0:0:0:
315,240,51808,2,0,B|300:274|300:274|274:187,1,121.499996292114,2|0,1:0|0:0,0:0:0:0:
368,92,52172,2,0,L|347:181,1,80.9999975280763,10|0,0:1|0:0,0:0:0:0:
296,344,52536,1,2,1:0:0:0:
213,251,52717,1,2,1:1:0:0:
417,203,52899,5,14,1:2:0:0:
162,262,53081,1,14,1:2:0:0:
162,262,53445,2,0,L|190:164,1,80.9999975280763,14|0,1:2|0:0,0:0:0:0:
172,105,53808,6,0,L|165:75,10,20.2499993820191,2|0|0|0|0|0|0|0|0|0|0,0:0|0:0|0:0|0:0|0:0|0:0|0:0|0:0|0:0|0:0|0:0,0:0:0:0:
161,51,54354,5,4,0:0:0:0:
415,134,54536,1,2,0:0:0:0:
268,235,54717,2,0,L|289:127,1,90,10|0,1:2|0:0,0:0:0:0:
289,120,54990,1,0,0:0:0:0:
289,120,55081,1,10,1:2:0:0:
394,214,55263,1,2,0:0:0:0:
303,33,55445,1,10,1:2:0:0:
263,266,55626,1,2,0:0:0:0:
377,101,55808,6,0,L|481:64,2,90,10|2|8,1:2|0:0|1:2,0:0:0:0:
217,330,56354,2,0,P|275:347|329:296,1,135,2|0,0:0|0:0,0:0:0:0:
370,237,56717,2,0,P|335:218|329:215,1,45,2|0,0:0|0:0,0:0:0:0:
185,140,56899,2,0,P|220:121|226:118,1,45,10|0,1:2|0:0,0:0:0:0:
398,13,57081,2,0,P|385:69|371:121,1,90,2|14,1:2|1:2,0:0:0:0:
203,231,57445,6,0,L|109:205,1,90,2|10,0:0|1:2,0:0:0:0:
52,127,57808,1,2,0:0:0:0:
52,127,57899,1,0,0:0:0:0:
52,127,57990,1,10,1:2:0:0:
120,302,58172,1,2,0:0:0:0:
226,182,58354,1,10,1:2:0:0:
36,247,58536,1,2,0:0:0:0:
225,315,58717,6,0,L|316:291,1,90,10|2,1:2|0:0,0:0:0:0:
498,226,59081,1,8,1:2:0:0:
498,226,59263,2,0,L|407:202,1,90,2|8,0:0|1:2,0:0:0:0:
239,157,59626,2,0,L|210:114,1,45,2|0,0:0|0:0,0:0:0:0:
142,21,59808,2,0,L|114:67,1,45,10|0,1:2|0:0,0:0:0:0:
37,186,59990,2,0,L|129:159,1,90,2|14,1:2|1:2,0:0:0:0:
331,248,60354,5,2,0:0:0:0:
195,329,60536,1,10,1:2:0:0:
249,119,60717,1,0,0:0:0:0:
249,119,60808,1,0,0:0:0:0:
249,119,60899,2,0,L|227:215,1,90,10|2,1:2|0:0,0:0:0:0:
365,73,61263,1,10,1:2:0:0:
138,143,61445,1,2,1:2:0:0:
316,193,61626,5,14,1:2:0:0:
138,143,61808,1,2,0:0:0:0:
225,268,61990,1,10,1:2:0:0:
137,62,62172,1,2,0:0:0:0:
18,237,62354,2,0,L|113:216,1,90,10|0,1:2|0:0,0:0:0:0:
356,296,62717,2,0,L|224:267,1,135,10|0,1:2|0:0,0:0:0:0:
182,267,63081,6,0,L|195:316,2,45,14|0|2,1:2|0:0|0:0,0:0:0:0:
323,110,63445,2,0,L|296:197,1,90,14|2,0:0|0:0,0:0:0:0:
255,39,63808,1,14,1:2:0:0:
398,174,63990,1,2,0:0:0:0:
182,267,64172,1,14,0:0:0:0:
311,153,64354,2,0,L|323:110,2,45,2|0|14,1:2|0:0|1:2,0:0:0:0:
254,356,64717,5,2,0:2:0:0:
254,356,64808,1,0,0:0:0:0:
254,356,64899,1,10,1:2:0:0:
112,198,65081,1,2,0:2:0:0:
268,255,65263,1,6,1:2:0:0:
43,313,65445,1,10,1:2:0:0:
133,105,65626,1,10,1:2:0:0:
194,293,65808,1,14,1:2:0:0:
44,65,65990,1,14,0:2:0:0:
263,165,66172,6,0,L|250:212,1,45,2|0,0:0|0:0,0:0:0:0:
209,335,66354,2,0,L|186:274,1,45,10|0,1:2|0:0,0:0:0:0:
133,105,66536,1,2,0:0:0:0:
358,201,66717,2,0,L|332:296,1,90,10|2,1:2|0:0,0:0:0:0:
464,170,67081,1,10,1:2:0:0:
254,247,67263,1,2,0:0:0:0:
413,352,67445,6,0,L|437:255,1,90,10|2,1:2|0:0,0:0:0:0:
159,188,67808,1,10,1:2:0:0:
244,337,67990,2,0,P|287:324|338:310,1,90,2|10,0:0|1:2,0:0:0:0:
210,49,68354,1,2,1:2:0:0:
210,49,68536,2,0,L|114:71,1,90,10|2,1:2|1:2,0:0:0:0:
332,101,68899,1,14,1:2:0:0:
150,200,69081,1,2,0:0:0:0:
150,200,69172,1,0,0:0:0:0:
150,200,69263,1,10,1:2:0:0:
416,246,69445,1,2,0:0:0:0:
262,180,69626,5,10,1:2:0:0:
333,267,69808,1,2,0:0:0:0:
273,72,69990,1,10,1:2:0:0:
245,342,70172,1,2,0:0:0:0:
94,231,70354,2,0,L|188:254,1,90,10|2,1:2|0:0,0:0:0:0:
387,120,70717,1,10,1:2:0:0:
397,269,70899,1,2,0:0:0:0:
247,182,71081,1,10,1:2:0:0:
387,120,71263,1,2,1:2:0:0:
263,209,71445,1,10,1:2:0:0:
257,29,71626,1,2,1:2:0:0:
280,232,71808,5,14,1:2:0:0:
408,142,71990,1,2,0:0:0:0:
359,316,72172,1,8,1:2:0:0:
163,209,72354,1,2,0:0:0:0:
233,344,72536,1,10,1:2:0:0:
296,140,72717,1,2,0:0:0:0:
195,279,72899,1,10,1:2:0:0:
408,177,73081,1,2,1:2:0:0:
297,346,73263,6,0,L|268:248,1,90,12|2,1:2|0:0,0:0:0:0:
205,59,73626,1,8,1:2:0:0:
331,190,73808,1,2,0:0:0:0:
146,125,73990,1,10,1:2:0:0:
352,45,74172,1,0,0:0:0:0:
227,198,74354,2,0,P|172:217|100:183,1,135,10|0,1:2|0:0,0:0:0:0:
146,125,74717,6,0,B|198:178|161:258|161:258|177:287|177:287|143:346|169:391,1,270,14|0,1:2|0:0,0:0:0:0:
415,351,75445,6,0,B|365:350|339:319|339:319|282:328|233:347|233:347|246:307|284:288,1,270,14|2,1:2|0:0,0:0:0:0:
404,72,76172,6,0,P|451:110|401:169,1,135,14|0,1:2|0:0,0:0:0:0:
298,183,76536,2,0,B|234:160|243:235|174:214,1,135,10|0,1:2|0:0,0:0:0:0:
86,146,76899,2,0,B|54:131|42:113|42:113|79:96|137:100,1,135,14|0,1:2|0:0,0:0:0:0:
202,101,77263,2,0,L|185:156,1,45,10|0,1:2|0:0,0:0:0:0:
286,258,77445,2,0,L|303:313,1,45,2|0,1:2|0:0,0:0:0:0:
220,367,77626,5,14,1:2:0:0:
384,285,77808,1,0,0:0:0:0:
384,285,77899,1,0,0:0:0:0:
384,285,77990,1,10,1:2:0:0:
236,198,78172,1,2,1:2:0:0:
491,133,78354,2,0,P|469:240|460:282,1,135,10|0,1:2|0:0,0:0:0:0:
401,329,78717,2,0,L|354:346,1,45,10|0,1:2|0:0,0:0:0:0:
232,280,78899,2,0,L|279:263,1,45,2|0,0:0|0:0,0:0:0:0:
393,223,79081,5,10,1:2:0:0:
147,312,79263,1,0,0:0:0:0:
220,167,79445,2,0,P|215:123|187:89,1,90,10|0,1:2|0:0,0:0:0:0:
130,44,79717,1,0,0:0:0:0:
130,44,79808,5,10,1:2:0:0:
177,264,79990,1,0,0:0:0:0:
307,144,80172,2,0,L|212:168,1,90,10|2,1:2|1:2,0:0:0:0:
63,356,80536,2,0,B|118:345|118:345|155:360|155:360|242:339,1,180,14|10,1:2|1:2,0:0:0:0:
417,355,81081,1,2,1:2:0:0:
269,197,81263,2,0,L|293:293,1,90,10|0,1:2|0:0,0:0:0:0:
179,138,81626,1,10,1:2:0:0:
404,263,81808,6,0,P|440:202|425:98,1,180,2|0,1:2|0:0,0:0:0:0:
424,97,82354,1,10,1:2:0:0:
324,308,82536,1,0,0:0:0:0:
230,188,82717,1,10,1:2:0:0:
438,246,82899,1,0,0:3:0:0:
197,313,83081,1,10,1:2:0:0:
301,148,83263,1,0,1:0:0:0:
197,313,83445,6,0,P|139:301|8:276,1,180,14|10,1:2|1:2,0:0:0:0:
143,199,83990,2,0,L|197:182,1,45,2|0,0:0|0:0,0:0:0:0:
301,148,84172,1,10,1:2:0:0:
186,93,84354,1,0,0:0:0:0:
359,32,84536,1,10,1:2:0:0:
252,246,84717,1,2,1:2:0:0:
449,183,84899,6,0,P|484:130|432:33,2,180,10|10|14,1:2|1:2|1:2,0:0:0:0:
274,115,85808,1,0,0:0:0:0:
144,258,85990,2,0,L|275:224,1,135,10|0,1:2|0:0,0:0:0:0:
299,245,86354,6,0,P|337:188|272:114,1,180,14|2,1:2|0:2,0:0:0:0:
274,114,86899,1,2,0:0:0:0:
297,333,87081,6,0,B|346:330|374:296|374:296|407:294|441:322|441:322|490:303|508:257|481:217|440:221,1,315,6|2,0:2|0:0,0:0:0:0:
