osu file format v14

[General]
AudioFilename: audio.mp3
AudioLeadIn: 0
PreviewTime: 54613
Countdown: 0
SampleSet: Soft
StackLeniency: 0.5
Mode: 0
LetterboxInBreaks: 0
WidescreenStoryboard: 0

[Editor]
Bookmarks: 35355,41173
DistanceSpacing: 1.5
BeatDivisor: 4
GridSize: 32
TimelineZoom: 1

[Metadata]
Title:Hitorigoto -TV MIX-
TitleUnicode:ヒトリゴト -TV MIX-
Artist:ClariS
ArtistUnicode:ClariS
Creator:DreaM117er
Version:wkyik's Insane
Source:エロマンガ先生
Tags:eromanga sensei ero manga 和泉 正宗 紗霧 いずみ まさむね さぎり izumi masamune sagiri 妹 imouto op tv size opening Left Rizia Kawaiwkyik KuranteMelodii Firis Mistlud Kisses m1223491117
BeatmapID:1263876
BeatmapSetID:596902

[Difficulty]
HPDrainRate:6
CircleSize:4
OverallDifficulty:8
ApproachRate:9
SliderMultiplier:1.92
SliderTickRate:1

[Events]
//Background and Video events
0,0,"BG-I2.jpg",0,0
Video,0,"VDO.flv"
//Break Periods
//Storyboard Layer 0 (Background)
//Storyboard Layer 1 (Fail)
//Storyboard Layer 2 (Pass)
//Storyboard Layer 3 (Foreground)
//Storyboard Sound Samples

[TimingPoints]
886,363.636363636364,4,2,1,60,1,0
5249,-133.333333333333,4,2,1,60,0,0
6704,-100,4,2,1,60,0,0
11067,-133.333333333333,4,2,1,60,0,0
12522,-100,4,2,1,60,0,0
35795,-200,4,2,1,60,0,0
41613,-100,4,2,1,60,0,0
54158,-71.4285714285714,4,2,1,60,0,0
54704,-100,4,2,1,60,0,1
66249,-100,4,2,1,60,0,0
66340,-100,4,2,1,60,0,1
88067,-100,4,2,1,60,0,0

[Colours]
Combo1 : 255,66,255
Combo2 : 60,204,186
Combo3 : 61,102,122
Combo4 : 221,230,226

[HitObjects]
56,164,886,5,8,0:0:0:0:
248,212,1067,1,8,0:0:0:0:
248,212,1795,1,0,0:0:0:0:
212,128,1976,2,0,P|164:168|196:292,1,192,2|8,0:0|0:0,0:0:0:0:
384,252,2522,1,8,0:0:0:0:
384,252,3067,5,0,0:0:0:0:
384,252,3249,2,0,P|332:264|272:280,1,96,2|0,0:0|0:0,0:0:0:0:
128,132,3613,2,0,P|180:120|240:104,1,96,2|8,0:0|0:0,0:0:0:0:
208,336,3976,1,8,0:0:0:0:
208,336,4704,2,0,P|188:284|288:188,1,192,2|0,0:0|0:0,0:0:0:0:
384,56,5249,6,0,P|368:112|224:92,1,216.000008239746,4|0,0:0|0:0,0:0:0:0:
168,48,5976,2,0,P|116:40|64:32,2,96.0000036621095,12|8|8,0:0|0:0|0:0,0:0:0:0:
228,116,6704,5,8,0:0:0:0:
188,312,6886,1,8,0:0:0:0:
188,312,7431,1,0,0:0:0:0:
276,272,7613,2,0,P|312:268|372:324,1,96,2|0,0:0|0:0,0:0:0:0:
420,372,7976,1,2,0:0:0:0:
504,328,8158,5,8,0:0:0:0:
472,128,8340,1,8,0:0:0:0:
472,128,8886,1,0,0:0:0:0:
412,204,9067,2,0,P|334:197|208:188,1,192,2|2,0:0|0:0,0:0:0:0:
124,180,9613,5,8,0:0:0:0:
272,44,9795,1,8,0:0:0:0:
272,44,10522,2,0,P|224:68|92:16,1,192,2|0,0:0|0:0,0:0:0:0:
36,264,11067,6,0,P|12:212|128:160,1,216.000008239746,4|0,0:0|0:0,0:0:0:0:
242,220,11795,6,0,P|261:205|276:186,1,48.0000018310548,8|0,0:0|0:0,0:0:0:0:
306,289,12037,2,0,P|309:312|319:335,1,48.0000018310548,8|0,0:0|0:0,0:0:0:0:
214,306,12279,2,0,P|191:297|168:295,1,48.0000018310548,8|0,0:0|0:0,0:0:0:0:
192,148,12522,6,0,P|140:152|80:124,1,96,2|0,0:0|0:0,0:0:0:0:
4,176,12886,1,2,0:0:0:0:
156,56,13067,1,0,0:0:0:0:
252,216,13249,2,0,P|303:210|358:172,1,96,2|0,0:0|0:0,0:0:0:0:
392,92,13613,1,2,0:0:0:0:
452,344,13795,6,0,P|460:284|468:228,1,96,2|0,0:0|0:0,0:0:0:0:
341,188,14158,2,0,P|334:235|328:283,1,96,2|0,0:0|0:0,0:0:0:0:
217,337,14522,2,0,P|210:289|204:241,1,96,2|0,0:0|0:0,0:0:0:0:
104,127,14886,2,0,P|96:187|88:243,1,96,2|0,0:0|0:0,0:0:0:0:
92,223,15249,1,0,0:0:0:0:
184,56,15431,5,4,0:0:0:0:
272,96,15613,1,0,0:0:0:0:
348,36,15795,2,0,P|376:20|452:32,1,96,2|0,0:0|0:0,0:0:0:0:
456,188,16158,2,0,P|428:204|352:192,2,96,2|0|2,0:0|0:0|0:0,0:0:0:0:
296,136,16704,6,0,P|273:177|276:224,1,96,2|0,0:0|0:0,0:0:0:0:
412,352,17067,2,0,P|387:311|344:291,1,96,2|0,0:0|0:0,0:0:0:0:
174,338,17431,2,0,P|221:337|260:311,2,96,2|0|2,0:0|0:0|0:0,0:0:0:0:
66,304,17976,1,0,0:0:0:0:
98,158,18158,1,2,0:0:0:0:
252,196,18340,5,4,0:0:0:0:
168,240,18522,1,0,0:0:0:0:
85,191,18704,2,0,P|87:143|92:96,1,96,2|0,0:0|0:0,0:0:0:0:
296,28,19067,1,2,0:0:0:0:
292,144,19249,1,0,0:0:0:0:
192,84,19431,1,2,0:0:0:0:
304,20,19613,6,0,P|301:67|297:115,1,96,2|0,0:0|0:0,0:0:0:0:
428,240,19976,2,0,P|380:237|332:233,1,96,2|0,0:0|0:0,0:0:0:0:
208,364,20340,2,0,P|210:316|214:268,1,96,2|0,0:0|0:0,0:0:0:0:
84,144,20704,2,0,P|131:146|179:150,1,96,2|0,0:0|0:0,0:0:0:0:
256,192,21067,1,0,0:0:0:0:
216,268,21249,5,4,0:0:0:0:
179,150,21431,1,0,0:0:0:0:
298,115,21613,2,0,P|332:104|360:240,1,192,2|2,0:0|0:0,0:0:0:0:
312,344,22158,1,0,0:0:0:0:
332,180,22340,1,2,0:0:0:0:
460,280,22522,5,2,0:0:0:0:
452,304,22704,1,0,0:0:0:0:
288,264,22886,1,2,0:0:0:0:
312,258,23067,1,0,0:0:0:0:
400,136,23249,1,2,0:0:0:0:
382,118,23431,1,0,0:0:0:0:
216,108,23613,1,2,0:0:0:0:
223,133,23795,1,0,0:0:0:0:
212,248,23976,1,0,0:0:0:0:
120,316,24158,6,0,P|72:336|24:220,2,192,4|8|0,0:0|0:0|0:0,0:0:0:0:
212,248,25067,2,0,P|208:188|200:140,2,96,0|8|0,0:0|0:0|0:0,0:0:0:0:
276,320,25613,6,0,P|336:316|384:308,1,96
492,216,25976,2,0,P|464:176|344:188,1,144,8|0,0:0|0:0,0:0:0:0:
336,192,26340,2,0,P|296:184|260:144,1,96
348,0,26704,2,0,P|361:38|344:89,1,96,8|0,0:0|0:0,0:0:0:0:
200,228,27067,5,4,0:0:0:0:
60,152,27249,2,0,P|108:148|168:140,1,96,0|8,0:0|0:0,0:0:0:0:
348,304,27613,2,0,P|300:308|240:316,1,96
200,228,27976,1,0,0:0:0:0:
372,208,28158,1,8,0:0:0:0:
312,384,28340,1,0,0:0:0:0:
280,168,28522,5,0,0:0:0:0:
400,316,28704,1,0,0:0:0:0:
208,336,28886,1,8,0:0:0:0:
288,176,29067,6,0,P|336:184|396:188,1,96
244,328,29431,2,0,P|226:282|200:228,1,96,0|8,0:0|0:0,0:0:0:0:
412,280,29795,2,0,P|381:317|347:367,1,96,0|4,0:0|0:0,0:0:0:0:
304,256,30158,5,0,0:0:0:0:
436,200,30340,2,0,P|484:232|456:352,1,192,8|0,0:0|0:0,0:0:0:0:
304,256,30886,1,0,0:0:0:0:
436,200,31067,1,8,0:0:0:0:
276,148,31249,1,0,0:0:0:0:
440,92,31431,6,0,P|488:88|544:116,1,96
496,280,31795,2,0,P|451:297|404:293,1,96,8|0,0:0|0:0,0:0:0:0:
296,272,32158,1,0,0:0:0:0:
436,200,32340,1,0,0:0:0:0:
312,88,32522,1,8,0:0:0:0:
352,208,32704,1,0,0:0:0:0:
224,176,32886,5,0,0:0:0:0:
224,176,33067,2,0,P|220:112|220:60,1,96,0|8,0:0|0:0,0:0:0:0:
428,112,33431,1,0,0:0:0:0:
352,208,33613,2,0,P|356:272|356:324,1,96
120,228,33976,2,0,P|116:164|116:112,1,96,8|0,0:0|0:0,0:0:0:0:
240,280,34340,5,0,0:0:0:0:
108,372,34522,1,0,0:0:0:0:
92,224,34704,1,8,0:0:0:0:
264,200,34886,2,0,P|324:228|412:124,1,192
236,16,35431,1,8,0:0:0:0:
176,136,35613,1,0,0:0:0:0:
176,136,35704,1,0,0:0:0:0:
176,136,35795,6,0,P|128:128|72:120,1,96,4|0,0:0|0:0,0:0:0:0:
88,308,36522,2,0,P|136:316|192:324,1,96,8|0,0:0|0:0,0:0:0:0:
182,322,37067,1,0,0:0:0:0:
304,220,37249,6,0,P|256:226|209:234,2,96,0|0|8,0:0|0:0|0:0,0:0:0:0:
396,360,38340,5,0,0:0:0:0:
396,360,38522,1,0,0:0:0:0:
460,312,38704,2,0,P|436:288|364:288,1,96,4|0,0:0|0:0,0:0:0:0:
220,380,39431,2,0,P|252:371|288:308,1,96,8|0,0:0|0:0,0:0:0:0:
304,240,39976,2,0,L|292:176,1,48,8|0,0:0|0:0,0:0:0:0:
264,112,40340,2,0,L|280:48,1,48,8|0,0:0|0:0,0:0:0:0:
276,64,40886,6,0,L|336:52,5,32,8|8|8|8|8|8,0:0|0:0|0:0|0:0|0:0|0:0,0:0:0:0:
332,43,41613,6,0,P|329:101|322:149,1,96,0|2,0:0|0:0,0:0:0:0:
341,295,41976,2,0,P|285:279|237:271,1,96,0|2,0:0|0:0,0:0:0:0:
67,214,42340,2,0,P|123:198|171:190,1,96,0|2,0:0|0:0,0:0:0:0:
331,123,42704,1,0,0:0:0:0:
241,240,42886,1,2,0:0:0:0:
172,108,43067,6,0,P|176:58|182:6,1,96,0|2,0:0|0:0,0:0:0:0:
341,128,43431,2,0,P|337:178|331:230,1,96,0|2,0:0|0:0,0:0:0:0:
201,349,43795,1,0,0:0:0:0:
139,191,43976,1,2,0:0:0:0:
241,240,44158,1,0,0:0:0:0:
87,308,44340,1,2,0:0:0:0:
89,92,44522,5,4,0:0:0:0:
89,92,44886,2,0,P|141:84|197:80,1,96,0|2,0:0|0:0,0:0:0:0:
317,134,45249,2,0,P|325:186|329:242,1,96,0|2,0:0|0:0,0:0:0:0:
415,10,45613,2,0,P|440:56|463:107,1,96,0|2,0:0|0:0,0:0:0:0:
427,192,45976,6,0,P|446:255|435:355,1,144
423,363,46340,2,0,L|319:355,1,96,0|2,0:0|0:0,0:0:0:0:
238,191,46704,1,0,0:0:0:0:
175,317,46886,2,0,L|112:335,1,48,2|0,0:0|0:0,0:0:0:0:
100,341,47067,2,0,L|88:229,1,96,0|2,0:0|0:0,0:0:0:0:
112,64,47431,5,4,0:0:0:0:
112,64,47795,1,0,0:0:0:0:
252,92,47976,1,2,0:0:0:0:
164,200,48158,2,0,P|116:208|48:216,1,96,0|2,0:0|0:0,0:0:0:0:
400,320,48522,1,0,0:0:0:0:
260,292,48704,1,2,0:0:0:0:
348,184,48886,6,0,P|396:176|464:168,1,96,0|2,0:0|0:0,0:0:0:0:
292,368,49249,2,0,P|285:320|278:273,1,96,0|2,0:0|0:0,0:0:0:0:
244,180,49613,1,0,0:0:0:0:
184,340,49795,1,2,0:0:0:0:
384,308,49976,1,0,0:0:0:0:
184,252,50158,1,2,0:0:0:0:
348,156,50340,5,0,0:0:0:0:
348,156,50522,1,2,0:0:0:0:
292,56,50704,1,0,0:0:0:0:
176,44,50886,1,2,0:0:0:0:
100,132,51067,6,0,P|72:192|180:240,1,192
256,128,51613,1,2,0:0:0:0:
408,216,51795,6,0,P|354:224|292:236,1,96,0|2,0:0|0:0,0:0:0:0:
264,320,52158,2,0,P|317:311|380:300,1,96,0|2,0:0|0:0,0:0:0:0:
344,144,52522,2,0,P|360:96|252:28,1,192
108,68,53067,1,0,0:0:0:0:
108,68,53158,1,0,0:0:0:0:
108,68,53249,5,8,0:0:0:0:
284,100,53431,1,8,0:0:0:0:
144,276,53613,1,0,0:0:0:0:
212,356,53795,2,0,P|260:344|328:352,1,96,8|0,0:0|0:0,0:0:0:0:
450,352,54158,6,2,P|478:330|358:287,1,268.799991796875,2|0,0:0|0:0,0:1:0:0:
256,260,54704,6,0,P|245:207|257:142,1,96,4|0,0:0|0:0,0:0:0:0:
288,76,55067,1,8,0:0:0:0:
348,152,55249,1,0,0:0:0:0:
184,88,55431,1,2,0:0:0:0:
348,152,55613,1,0,0:0:0:0:
160,216,55795,1,8,0:0:0:0:
348,152,55976,1,0,0:0:0:0:
168,76,56158,5,2,0:0:0:0:
260,256,56340,2,0,P|304:252|368:244,1,96,0|8,0:0|0:0,0:0:0:0:
124,328,56704,2,0,P|171:333|219:338,1,96,0|2,0:0|0:0,0:0:0:0:
56,132,57067,1,0,0:0:0:0:
180,236,57249,1,8,0:0:0:0:
28,288,57431,1,0,0:0:0:0:
152,144,57613,5,4,0:0:0:0:
56,132,57795,2,0,P|60:80|76:28,1,96,0|8,0:0|0:0,0:0:0:0:
248,152,58158,2,0,P|244:204|228:256,1,96,0|2,0:0|0:0,0:0:0:0:
75,320,58522,1,0,0:0:0:0:
231,246,58704,1,8,0:0:0:0:
113,192,58886,1,0,0:0:0:0:
196,358,59067,5,2,0:0:0:0:
312,329,59249,2,0,P|326:279|329:216,1,96,0|8,0:0|0:0,0:0:0:0:
150,85,59613,2,0,P|136:135|133:198,1,96,0|2,0:0|0:0,0:0:0:0:
225,26,59976,1,0,0:0:0:0:
217,210,60158,1,8,0:0:0:0:
55,115,60340,1,0,0:0:0:0:
309,114,60522,6,0,P|289:230|279:300,1,144,4|0,0:0|0:0,0:0:0:0:
275,306,60886,2,0,P|239:282|171:282,1,96,8|0,0:0|0:0,0:0:0:0:
40,341,61249,1,2,0:0:0:0:
113,183,61431,1,0,0:0:0:0:
180,294,61613,1,8,0:0:0:0:
18,225,61795,6,0,P|70:217|126:209,1,96,0|4,0:0|0:0,0:0:0:0:
299,238,62158,1,0,0:0:0:0:
154,109,62340,1,8,0:0:0:0:
277,19,62522,1,0,0:0:0:0:
398,133,62704,2,0,P|414:193|354:281,1,144,2|0,0:0|0:0,0:0:0:0:
342,281,63067,2,0,P|306:265|246:269,1,96,8|0,0:0|0:0,0:0:0:0:
132,288,63431,6,0,L|152:172,1,96,4|0,0:0|0:0,0:0:0:0:
380,96,63795,2,0,L|363:190,1,96,4|0,0:0|0:0,0:0:0:0:
352,316,64158,2,0,L|257:299,1,96,4|0,0:0|0:0,0:0:0:0:
160,68,64522,2,0,L|254:84,1,96,4|0,0:0|0:0,0:0:0:0:
363,190,64886,5,4,0:0:0:0:
144,228,65067,1,2,0:0:0:0:
336,304,65249,1,8,0:0:0:0:
200,356,65431,1,2,0:0:0:0:
348,312,65613,5,8,0:0:0:0:
156,240,65795,1,2,0:0:0:0:
368,176,65976,1,8,0:0:0:0:
152,104,66158,1,2,0:0:0:0:
376,40,66340,5,4,0:0:0:0:
448,124,66522,2,0,P|456:184|452:240,2,96,0|8|0,0:0|0:0|0:0,0:0:0:0:
180,160,67067,1,2,0:0:0:0:
348,180,67249,1,0,0:0:0:0:
180,160,67431,1,8,0:0:0:0:
348,180,67613,1,0,0:0:0:0:
232,92,67795,5,2,0:0:0:0:
272,256,67976,1,0,0:0:0:0:
100,200,68158,1,8,0:0:0:0:
12,244,68340,2,0,P|4:184|8:128,1,96,0|2,0:0|0:0,0:0:0:0:
184,160,68704,2,0,P|192:220|188:276,1,96,0|8,0:0|0:0,0:0:0:0:
152,356,69067,1,0,0:0:0:0:
100,200,69249,5,4,0:0:0:0:
308,256,69431,1,0,0:0:0:0:
284,144,69613,1,8,0:0:0:0:
308,256,69795,1,0,0:0:0:0:
420,224,69976,1,2,0:0:0:0:
308,256,70158,1,0,0:0:0:0:
332,368,70340,1,8,0:0:0:0:
308,256,70522,1,0,0:0:0:0:
196,284,70704,6,0,P|140:280|76:272,1,96,4|0,0:0|0:0,0:0:0:0:
92,112,71067,1,8,0:0:0:0:
160,184,71249,2,0,P|207:180|255:175,1,96,0|2,0:0|0:0,0:0:0:0:
400,40,71613,1,0,0:0:0:0:
348,120,71795,1,8,0:0:0:0:
400,200,71976,6,0,P|416:256|400:320,1,96,0|4,0:0|0:0,0:0:0:0:
224,360,72340,2,0,P|208:304|224:240,1,96,0|8,0:0|0:0,0:0:0:0:
312,304,72704,1,0,0:0:0:0:
120,332,72886,2,0,L|12:324,2,96,2|0|8,0:0|0:0|0:0,0:0:0:0:
212,267,73431,1,0,0:0:0:0:
152,184,73613,6,0,P|102:178|60:214,1,96,4|0,0:0|0:0,0:0:0:0:
304,312,73976,2,0,P|336:284|440:304,1,144,8|0,0:0|0:0,0:0:0:0:
460,316,74340,2,0,P|480:272|468:196,1,96,2|0,0:0|0:0,0:0:0:0:
392,144,74704,2,0,P|363:104|292:77,1,96,8|0,0:0|0:0,0:0:0:0:
212,144,75067,5,4,0:0:0:0:
116,160,75249,1,0,0:0:0:0:
16,276,75431,5,8,0:0:0:0:
112,260,75613,1,0,0:0:0:0:
272,364,75795,5,8,0:0:0:0:
176,348,75976,1,0,0:0:0:0:
296,192,76158,5,8,0:0:0:0:
392,176,76340,1,0,0:0:0:0:
464,272,76522,6,0,P|468:320|444:376,1,96,4|0,0:0|0:0,0:0:0:0:
296,152,76886,2,0,P|292:104|316:48,1,96,8|0,0:0|0:0,0:0:0:0:
368,280,77249,2,0,P|343:289|312:292,1,48,8|8,0:0|0:0,0:0:0:0:
216,372,77431,2,0,P|220:345|233:317,1,48,8|8,0:0|0:0,0:0:0:0:
216,200,77613,2,0,P|230:218|249:233,1,48,8|8,0:0|0:0,0:0:0:0:
136,324,77795,5,8,0:0:0:0:
132,328,77886,1,8,0:0:0:0:
128,332,77976,2,0,P|88:316|32:316,1,96,4|0,0:0|0:0,0:0:0:0:
35,68,78340,2,0,P|83:68|128:52,1,96,8|0,0:0|0:0,0:0:0:0:
316,141,78704,5,8,0:0:0:0:
195,242,78886,1,0,0:0:0:0:
306,252,79067,1,8,0:0:0:0:
205,131,79249,1,0,0:0:0:0:
296,52,79431,6,0,P|343:54|391:60,1,96,8|0,0:0|0:0,0:0:0:0:
396,232,79795,2,0,P|392:279|386:327,1,96,8|0,0:0|0:0,0:0:0:0:
215,332,80158,2,0,P|168:328|120:322,1,96,8|0,0:0|0:0,0:0:0:0:
116,151,80522,2,0,P|118:104|124:56,1,96,8|0,0:0|0:0,0:0:0:0:
288,0,80886,6,0,P|332:32|304:140,1,144,4|0,0:0|0:0,0:0:0:0:
300,152,81249,2,0,P|276:200|292:264,1,96,8|0,0:0|0:0,0:0:0:0:
320,352,81613,1,8,0:0:0:0:
320,352,81976,1,8,0:0:0:0:
396,252,82158,1,0,0:0:0:0:
208,300,82340,6,0,P|176:340|40:308,1,192,4|8,0:0|0:0,0:0:0:0:
88,132,82886,1,2,0:0:0:0:
108,240,83067,2,0,P|60:236|-12:228,1,96,8|0,0:0|0:0,0:0:0:0:
184,68,83431,2,0,P|232:72|304:80,1,96,8|0,0:0|0:0,0:0:0:0:
440,124,83795,6,0,P|472:180|424:300,1,192,4|8,0:0|0:0,0:0:0:0:
256,352,84340,1,2,0:0:0:0:
160,280,84522,2,0,B|152:232|152:232|176:168,1,96,8|0,0:0|0:0,0:0:0:0:
364,212,84886,2,0,B|372:260|372:260|348:324,1,96,8|2,0:0|0:0,0:0:0:0:
292,104,85249,6,0,L|400:88,1,96,8|0,0:0|0:0,0:0:0:0:
237,266,85613,2,0,L|142:251,1,96,8|0,0:0|0:0,0:0:0:0:
18,202,85976,1,8,0:0:0:0:
95,44,86158,1,0,0:0:0:0:
95,44,86249,1,0,0:0:0:0:
95,44,86340,1,8,0:0:0:0:
216,165,86522,1,0,0:0:0:0:
127,238,86704,6,0,P|99:306|227:342,1,192,4|0,0:0|0:0,0:0:0:0:
259,307,87249,1,0,0:0:0:0:
259,307,87431,2,0,P|304:293|360:297,1,96,2|0,0:0|0:0,0:0:0:0:
439,335,87795,2,0,P|480:289|449:178,1,144,0|4,0:0|0:0,0:0:0:0:
