osu file format v14

[General]
AudioFilename: audio.mp3
AudioLeadIn: 0
PreviewTime: 54613
Countdown: 0
SampleSet: Soft
StackLeniency: 0.5
Mode: 0
LetterboxInBreaks: 0
WidescreenStoryboard: 0

[Editor]
Bookmarks: 35355,41173
DistanceSpacing: 0.5
BeatDivisor: 4
GridSize: 4
TimelineZoom: 1

[Metadata]
Title:Hitorigoto -TV MIX-
TitleUnicode:ヒトリゴト -TV MIX-
Artist:ClariS
ArtistUnicode:ClariS
Creator:DreaM117er
Version:Left's Insane
Source:エロマンガ先生
Tags:eromanga sensei ero manga 和泉 正宗 紗霧 いずみ まさむね さぎり izumi masamune sagiri 妹 imouto op tv size opening Left Rizia Kawaiwkyik KuranteMelodii Firis Mistlud Kisses m1223491117
BeatmapID:1262485
BeatmapSetID:596902

[Difficulty]
HPDrainRate:6
CircleSize:3.7
OverallDifficulty:8.2
ApproachRate:9
SliderMultiplier:1.6
SliderTickRate:1

[Events]
//Background and Video events
0,0,"BG-I5.jpg",0,0
Video,0,"VDO.flv"
//Break Periods
//Storyboard Layer 0 (Background)
//Storyboard Layer 1 (Fail)
//Storyboard Layer 2 (Pass)
//Storyboard Layer 3 (Foreground)
//Storyboard Sound Samples

[TimingPoints]
886,363.636363636364,4,2,1,60,1,0
1795,-200,4,2,1,60,0,0
5249,-133.333333333333,4,2,1,60,0,0
5976,-83.3333333333333,4,2,1,60,0,0
6704,-200,4,2,1,60,0,0
11067,-133.333333333333,4,2,1,60,0,0
11795,-83.3333333333333,4,2,1,60,0,0
11977,-83.3333333333333,4,2,1,5,0,0
12037,-83.3333333333333,4,2,1,60,0,0
12219,-83.3333333333333,4,2,1,5,0,0
12279,-83.3333333333333,4,2,1,60,0,0
12522,-90.9090909090909,4,2,1,70,0,0
14886,-76.9230769230769,4,2,1,60,0,0
15432,-90.9090909090909,4,2,1,60,0,0
18068,-90.9090909090909,4,2,1,5,0,0
18159,-90.9090909090909,4,2,1,60,0,0
18250,-90.9090909090909,4,2,1,5,0,0
18341,-90.9090909090909,4,2,1,60,0,0
18977,-90.9090909090909,4,2,1,5,0,0
19068,-90.9090909090909,4,2,1,60,0,0
20704,-76.9230769230769,4,2,1,60,0,0
21250,-90.9090909090909,4,2,1,60,0,0
23886,-90.9090909090909,4,2,1,5,0,0
23977,-90.9090909090909,4,2,1,60,0,0
24068,-90.9090909090909,4,2,1,5,0,0
24159,-90.9090909090909,4,2,1,60,0,0
25886,-90.9090909090909,4,2,1,5,0,0
25977,-90.9090909090909,4,2,1,60,0,0
31704,-90.9090909090909,4,2,1,5,0,0
31795,-90.9090909090909,4,2,1,60,0,0
36158,-111.111111111111,4,2,1,60,0,0
41613,-90.9090909090909,4,2,1,60,0,0
44432,-90.9090909090909,4,2,1,5,0,0
44522,-90.9090909090909,4,2,1,60,0,0
46250,-90.9090909090909,4,2,1,5,0,0
46341,-90.9090909090909,4,2,1,60,0,0
47341,-90.9090909090909,4,2,1,5,0,0
47432,-90.9090909090909,4,2,1,60,0,0
53795,-76.9230769230769,4,2,1,60,0,0
54068,-76.9230769230769,4,2,1,5,0,0
54158,-200,4,2,1,60,0,0
54613,-200,4,2,1,5,0,0
54704,-86.9565217391304,4,2,1,70,0,1
63704,-86.9565217391304,4,2,1,5,0,1
63795,-86.9565217391304,4,2,1,70,0,1
64432,-86.9565217391304,4,2,1,5,0,1
64522,-86.9565217391304,4,2,1,70,0,1
65704,-86.9565217391304,4,2,1,5,0,1
65795,-86.9565217391304,4,2,1,70,0,1
65886,-86.9565217391304,4,2,1,5,0,1
65977,-86.9565217391304,4,2,1,70,0,1
66068,-86.9565217391304,4,2,1,5,0,1
66159,-86.9565217391304,4,2,1,70,0,1
66250,-86.9565217391304,4,2,1,5,0,1
66341,-86.9565217391304,4,2,1,70,0,1
79704,-86.9565217391304,4,2,1,5,0,1
79795,-86.9565217391304,4,2,1,70,0,1
86704,-166.666666666667,4,2,1,60,0,0

[Colours]
Combo1 : 255,66,255
Combo2 : 60,204,186
Combo3 : 61,102,122
Combo4 : 221,230,226

[HitObjects]
250,317,886,5,12,0:0:0:0:
409,340,1067,1,8,0:0:0:0:
409,340,1795,2,0,L|326:328,1,80,2|0,0:0|0:0,0:0:0:0:
432,189,2340,5,8,0:0:0:0:
245,219,2522,1,8,0:0:0:0:
245,219,3249,2,0,L|328:207,1,80,2|0,0:0|0:0,0:0:0:0:
211,55,3795,5,8,0:0:0:0:
447,89,3976,1,8,0:0:0:0:
447,89,4704,2,0,L|364:77,1,80,2|0,0:0|0:0,0:0:0:0:
170,266,5249,22,0,B|149:236|156:203|156:203|182:165|182:165|195:114|157:83,1,180.000006866455,6|0,0:0|0:0,0:0:0:0:
128,338,5976,6,0,P|189:345|247:298,2,127.99999609375,8|8|4,0:0|0:0|0:3,0:0:0:0:
132,149,6704,5,12,0:0:0:0:
113,326,6886,1,8,0:0:0:0:
113,326,7613,2,0,L|122:233,1,80,2|0,0:0|0:0,0:0:0:0:
251,345,8158,21,8,0:0:0:0:
227,131,8340,1,8,0:0:0:0:
227,131,9067,2,0,L|234:210,1,80,2|0,0:0|0:0,0:0:0:0:
391,102,9613,5,8,0:0:0:0:
362,369,9795,1,8,0:0:0:0:
362,369,10522,2,0,L|369:289,1,80,2|0,0:0|0:0,0:0:0:0:
350,95,11067,6,0,P|341:155|363:96,1,180.000006866455,4|0,0:0|0:0,0:0:0:0:
294,214,11795,22,0,P|342:235|405:211,1,95.9999970703126,10|0,0:0|0:0,0:0:0:0:
383,226,12037,2,0,P|335:205|278:228,1,95.9999970703126,10|0,0:0|0:0,0:0:0:0:
223,254,12279,1,2,0:3:0:0:
341,374,12522,6,0,L|333:286,1,88.000002685547,4|0,0:1|0:0,0:0:0:0:
228,168,12886,2,0,L|236:80,1,88.000002685547,10|0,0:0|0:0,0:0:0:0:
334,38,13249,1,2,0:0:0:0:
228,168,13431,1,2,0:0:0:0:
159,6,13613,1,8,0:0:0:0:
228,168,13795,6,0,L|236:80,1,88.000002685547,2|0,0:0|0:0,0:0:0:0:
336,268,14158,2,0,L|344:356,1,88.000002685547,2|8,0:0|0:0,0:0:0:0:
242,323,14522,1,2,0:0:0:0:
439,302,14704,1,0,0:0:0:0:
242,323,14886,2,0,B|183:346|138:315|138:315|94:288|31:310,1,207.999990478516,6|0,0:0|0:0,0:0:0:0:
343,355,15431,21,6,0:0:0:0:
264,224,15613,1,0,0:0:0:0:
156,325,15795,2,0,P|199:333|242:324,1,88.000002685547,10|0,0:0|0:0,0:0:0:0:
433,166,16158,1,2,0:0:0:0:
422,257,16340,1,2,0:0:0:0:
411,347,16522,1,8,0:0:0:0:
346,176,16704,6,0,L|460:163,1,88.000002685547,2|0,0:0|0:0,0:0:0:0:
421,256,17067,2,0,L|334:266,1,88.000002685547,2|8,0:0|0:0,0:0:0:0:
323,356,17431,2,0,L|437:343,1,88.000002685547,2|0,0:0|0:0,0:0:0:0:
235,183,17795,1,2,0:0:0:0:
334,266,17976,22,0,L|269:256,1,44.0000013427735,10|0,0:1|0:0,0:0:0:0:
225,317,18158,2,0,L|160:327,1,44.0000013427735,2|0,0:1|0:0,0:0:0:0:
104,283,18340,38,0,P|84:233|96:188,1,88.000002685547,4|0,0:0|0:0,0:0:0:0:
217,84,18704,2,0,B|237:79|248:65|248:65|236:175,1,132.00000402832,10|0,0:0|0:0,0:0:0:0:
235,183,19067,1,2,0:0:0:0:
121,44,19249,1,2,0:0:0:0:
59,200,19431,1,8,0:0:0:0:
121,44,19613,22,0,L|139:157,1,88.000002685547,2|0,0:0|0:0,0:0:0:0:
278,235,19976,2,0,L|264:321,1,88.000002685547,2|8,0:0|0:0,0:0:0:0:
184,256,20340,1,2,0:0:0:0:
360,293,20522,1,0,0:0:0:0:
184,256,20704,2,0,B|144:217|91:243|91:243|56:296|-15:282,1,207.999990478516,6|0,0:0|0:0,0:0:0:0:
260,322,21249,5,6,0:0:0:0:
212,158,21431,1,0,0:0:0:0:
101,239,21613,2,0,P|141:257|185:256,1,88.000002685547,10|0,0:0|0:0,0:0:0:0:
377,126,21976,1,2,0:0:0:0:
363,216,22158,1,2,0:0:0:0:
349,304,22340,1,8,0:0:0:0:
289,134,22522,6,0,L|406:123,1,88.000002685547,2|0,0:0|0:0,0:0:0:0:
362,215,22886,2,0,L|275:224,1,88.000002685547,2|8,0:0|0:0,0:0:0:0:
261,312,23249,2,0,L|378:301,1,88.000002685547,2|0,0:0|0:0,0:0:0:0:
211,105,23613,1,2,0:0:0:0:
275,224,23795,6,0,L|285:166,1,44.0000013427735,10|0,0:1|0:0,0:0:0:0:
210,104,23976,2,0,L|203:61,1,44.0000013427735,2|0,0:1|0:0,0:0:0:0:
152,188,24158,6,0,P|111:193|68:161,1,88.000002685547,4|0,0:1|0:0,0:0:0:0:
289,137,24522,2,0,L|273:231,1,88.000002685547,10|0,0:0|0:0,0:0:0:0:
183,360,24886,2,0,L|168:273,1,88.000002685547,2|0,0:0|0:0,0:0:0:0:
134,112,25249,1,10,0:0:0:0:
274,223,25431,1,0,0:0:0:0:
371,48,25613,6,0,B|378:96|378:96|365:128|365:128|374:194,1,132.00000402832,2|0,0:0|0:0,0:0:0:0:
379,199,25976,2,0,P|330:180|277:195,1,88.000002685547,10|0,0:0|0:0,0:0:0:0:
134,112,26340,2,0,P|177:116|216:98,1,88.000002685547,2|0,0:0|0:0,0:0:0:0:
161,32,26704,1,10,0:0:0:0:
196,193,26886,1,0,0:0:0:0:
48,140,27067,5,0,0:0:0:0:
202,209,27249,1,2,0:0:0:0:
63,314,27431,2,0,P|45:267|54:213,1,88.000002685547,10|0,0:0|0:0,0:0:0:0:
106,156,27795,2,0,P|124:109|115:55,1,88.000002685547,2|0,0:0|0:0,0:0:0:0:
33,99,28158,1,10,0:0:0:0:
33,99,28340,1,0,0:0:0:0:
94,273,28522,21,2,0:0:0:0:
33,99,28704,1,2,0:0:0:0:
213,130,28886,1,8,0:0:0:0:
114,168,29067,6,0,L|307:158,1,176.000005371094,2|0,0:0|0:0,0:0:0:0:
213,130,29613,1,10,0:0:0:0:
368,189,29795,1,0,0:0:0:0:
368,189,29886,1,0,0:0:0:0:
368,189,29976,1,6,0:0:0:0:
289,158,30158,5,0,0:0:0:0:
446,221,30340,2,0,L|432:322,1,88.000002685547,10|0,0:0|0:0,0:0:0:0:
322,378,30704,2,0,L|309:290,1,88.000002685547,2|0,0:0|0:0,0:0:0:0:
289,158,31067,1,10,0:0:0:0:
446,221,31249,1,0,0:0:0:0:
407,47,31431,22,0,B|356:43|356:43|325:57|325:57|246:51,1,132.00000402832,2|0,0:0|0:0,0:0:0:0:
262,39,31795,2,0,P|277:83|268:132,1,88.000002685547,10|0,0:0|0:0,0:0:0:0:
115,237,32158,2,0,P|166:237|213:209,1,88.000002685547,2|0,0:0|0:0,0:0:0:0:
55,147,32522,1,10,0:0:0:0:
199,222,32704,1,0,0:0:0:0:
50,309,32886,5,0,0:0:0:0:
217,222,33067,1,2,0:0:0:0:
118,59,33249,1,10,0:0:0:0:
105,149,33431,1,0,0:0:0:0:
259,174,33613,1,2,0:0:0:0:
187,117,33795,1,0,0:0:0:0:
93,243,33976,1,10,0:0:0:0:
178,209,34158,1,0,0:0:0:0:
341,364,34340,5,2,0:0:0:0:
126,332,34522,1,2,0:0:0:0:
341,364,34704,1,8,0:0:0:0:
310,153,34886,2,0,B|252:156|252:156|223:147|223:147|197:160|197:160|119:167,1,176.000005371094,2|0,0:0|0:0,0:0:0:0:
211,63,35431,1,10,0:0:0:0:
236,241,35613,1,0,0:0:0:0:
235,278,35704,1,0,0:0:0:0:
224,312,35795,1,4,0:1:0:0:
224,312,36158,22,0,P|233:279|236:230,1,71.9999978027344,2|0,0:0|0:0,0:0:0:0:
298,169,36522,2,0,P|278:97|270:20,1,143.999995605469,10|2,0:0|0:0,0:0:0:0:
270,28,37067,1,0,0:0:0:0:
213,153,37249,6,0,B|167:156|167:156|124:138|124:138|43:144,1,143.999995605469,2|0,0:0|0:0,0:0:0:0:
23,265,37795,1,2,0:0:0:0:
23,265,37976,2,0,P|82:224|162:254,1,143.999995605469,8|2,0:0|0:0,0:0:0:0:
96,305,38522,1,0,0:0:0:0:
196,173,38704,6,0,L|279:188,1,71.9999978027344,2|0,0:0|0:0,0:0:0:0:
340,134,39067,2,0,P|348:106|341:53,1,71.9999978027344,2|0,0:0|0:0,0:0:0:0:
185,62,39431,2,0,B|178:83|162:97|162:97|263:89,1,143.999995605469,10|2,0:0|0:0,0:0:0:0:
263,88,39976,1,0,0:0:0:0:
239,234,40158,21,2,0:0:0:0:
145,222,40340,2,0,L|57:208,1,71.9999978027344,8|0,0:0|0:0,0:0:0:0:
216,382,40704,5,2,0:0:0:0:
304,356,40886,2,0,P|308:332|310:297,2,47.9999985351563,4|4|4,0:3|0:3|0:3,0:0:0:0:
239,234,41249,2,0,P|235:210|233:175,2,47.9999985351563,8|8|8,0:3|0:3|0:3,0:0:0:0:
297,113,41613,6,0,P|309:66|310:17,1,88.000002685547,4|0,0:1|0:0,0:0:0:0:
390,87,41976,1,10,0:0:0:0:
222,57,42158,1,0,0:0:0:0:
390,87,42340,2,0,P|428:82|486:62,1,88.000002685547,2|0,0:0|0:0,0:0:0:0:
282,206,42704,1,10,0:0:0:0:
222,57,42886,1,0,0:0:0:0:
282,206,43067,22,0,L|271:327,1,88.000002685547,2|0,0:0|0:0,0:0:0:0:
364,162,43431,1,10,0:0:0:0:
194,244,43613,1,0,0:0:0:0:
351,343,43795,1,2,0:0:0:0:
351,343,43976,2,0,L|362:240,1,88.000002685547,2|8,0:0|0:0,0:0:0:0:
201,121,44340,38,0,L|208:187,1,44.0000013427735,2|0,0:1|0:0,0:0:0:0:
282,206,44522,22,0,L|272:299,1,88.000002685547,4|0,0:0|0:0,0:0:0:0:
171,321,44886,1,10,0:0:0:0:
272,293,45067,1,0,0:0:0:0:
94,245,45249,2,0,P|79:200|78:148,1,88.000002685547,2|0,0:0|0:0,0:0:0:0:
272,293,45613,1,10,0:0:0:0:
171,321,45795,1,0,0:0:0:0:
353,366,45976,6,0,P|409:360|485:322,1,132.00000402832,2|0,0:0|0:0,0:0:0:0:
498,290,46340,2,0,L|483:393,1,88.000002685547,10|0,0:0|0:0,0:0:0:0:
299,188,46704,1,2,0:0:0:0:
299,188,46886,2,0,L|325:307,1,88.000002685547,2|8,0:0|0:0,0:0:0:0:
446,81,47249,6,0,L|433:161,1,44.0000013427735,2|0,0:1|0:0,0:0:0:0:
380,206,47431,6,0,P|330:207|290:178,1,88.000002685547,4|0,0:0|0:0,0:0:0:0:
408,291,47795,1,10,0:0:0:0:
353,123,47976,1,0,0:0:0:0:
408,291,48158,2,0,L|512:276,1,88.000002685547,2|0,0:0|0:0,0:0:0:0:
259,93,48522,1,10,0:0:0:0:
315,257,48704,1,0,0:0:0:0:
182,26,48886,6,0,P|168:68|165:117,1,88.000002685547,2|0,0:0|0:0,0:0:0:0:
323,200,49249,2,0,P|294:167|253:140,1,88.000002685547,10|0,0:0|0:0,0:0:0:0:
104,238,49613,1,2,0:0:0:0:
104,238,49795,2,0,P|148:229|192:207,1,88.000002685547,2|8,0:0|0:0,0:0:0:0:
182,26,50158,1,2,0:0:0:0:
353,105,50340,6,0,B|322:87|289:98|289:98|256:122|256:122|220:138|173:109,1,176.000005371094,6|8,0:0|0:0,0:0:0:0:
134,54,50886,1,2,0:0:0:0:
167,204,51067,2,0,P|222:215|282:211,1,88.000002685547,2|0,0:0|0:0,0:0:0:0:
218,36,51431,1,8,0:0:0:0:
89,127,51613,1,0,0:0:0:0:
204,218,51795,22,0,B|233:225|250:246|250:246|226:95,1,176.000005371094,2|8,0:0|0:0,0:0:0:0:
230,126,52340,1,0,0:0:0:0:
137,152,52522,2,0,B|116:188|116:188|120:254,1,88.000002685547,2|0,0:0|0:0,0:0:0:0:
204,218,52886,1,8,0:0:0:0:
69,92,53067,1,0,0:0:0:0:
74,70,53158,1,0,0:0:0:0:
78,48,53249,5,14,0:0:0:0:
154,319,53431,1,8,0:0:0:0:
273,177,53613,1,0,0:0:0:0:
108,200,53795,6,0,B|142:202|165:187|165:187|194:209|194:209|223:192|280:197,1,155.999992858887,6|0,0:0|0:0,0:0:0:0:
273,177,54158,6,0,L|264:277,1,100,2|0,0:1|0:0,0:0:0:0:
261,299,54704,5,4,0:1:0:0:
187,126,54886,1,2,0:0:0:0:
365,225,55067,2,0,P|416:225|458:195,1,92.0000017547608,10|0,0:0|0:0,0:0:0:0:
187,126,55431,2,0,P|135:127|92:155,1,92.0000017547608,2|0,0:0|0:0,0:0:0:0:
161,219,55795,1,10,0:0:0:0:
187,126,55976,1,0,0:0:0:0:
341,340,56158,5,2,0:1:0:0:
308,183,56340,1,2,0:0:0:0:
161,219,56522,1,8,0:0:0:0:
248,281,56704,2,0,P|279:275|315:256,2,46.0000008773804,2|0|2,0:0|0:0|0:1,0:0:0:0:
191,87,57067,21,2,0:0:0:0:
413,150,57249,1,10,0:1:0:0:
191,87,57431,1,0,0:0:0:0:
284,31,57613,37,6,0:0:0:0:
336,203,57795,1,0,0:0:0:0:
507,155,57976,1,10,0:0:0:0:
308,115,58158,1,0,0:0:0:0:
412,272,58340,2,0,L|426:163,1,92.0000017547608,0|0,0:0|0:0,0:0:0:0:
405,83,58704,1,10,0:0:0:0:
424,181,58886,1,0,0:0:0:0:
499,117,59067,21,2,0:1:0:0:
330,150,59249,2,0,L|204:137,1,92.0000017547608,0|8,0:0|0:0,0:0:0:0:
405,83,59613,2,0,L|411:18,2,46.0000008773804,2|0|2,0:0|0:0|0:1,0:0:0:0:
272,325,59976,37,0,0:0:0:0:
254,232,60158,1,10,0:1:0:0:
238,140,60340,1,0,0:0:0:0:
168,199,60522,22,0,P|165:248|192:304,1,92.0000017547608,4|2,0:0|0:0,0:0:0:0:
369,134,60886,2,0,B|337:114|306:123|306:123|272:150|217:135,1,138.000002632141,8|0,0:0|0:0,0:0:0:0:
218,134,61249,1,2,0:0:0:0:
183,307,61431,1,0,0:0:0:0:
117,248,61613,2,0,P|170:219|233:244,1,92.0000017547608,10|0,0:0|0:0,0:0:0:0:
314,344,61976,6,0,L|300:229,1,92.0000017547608,4|2,0:0|0:0,0:0:0:0:
390,124,62340,1,10,0:0:0:0:
390,124,62522,1,0,0:0:0:0:
401,215,62704,2,0,L|387:100,1,92.0000017547608,2|0,0:0|0:0,0:0:0:0:
281,100,63067,2,0,L|267:-15,1,92.0000017547608,10|0,0:0|0:0,0:0:0:0:
155,220,63431,22,0,B|101:229|57:206|57:206|92:179,1,138.000002632141,6|0,0:0|0:0,0:0:0:0:
221,164,63795,2,0,P|240:213|231:259,1,92.0000017547608,10|0,0:0|0:0,0:0:0:0:
155,220,64158,6,0,B|101:229|57:206|57:206|86:183,1,138.000002632141,6|0,0:0|0:0,0:0:0:0:
221,164,64522,2,0,P|240:213|231:259,1,92.0000017547608,10|0,0:0|0:0,0:0:0:0:
104,313,64886,5,6,0:0:0:0:
77,216,65067,1,0,0:0:0:0:
140,140,65249,1,10,0:0:0:0:
113,47,65431,1,2,0:0:0:0:
59,308,65613,6,0,L|104:313,1,46.0000008773804,2|0,0:1|0:0,0:0:0:0:
186,135,65795,2,0,L|140:140,1,46.0000008773804,2|0,0:0|0:0,0:0:0:0:
32,211,65976,2,0,L|77:216,1,46.0000008773804,10|0,0:1|0:0,0:0:0:0:
159,42,66158,2,0,L|113:47,1,46.0000008773804,2|0,0:0|0:0,0:0:0:0:
217,222,66340,5,4,0:1:0:0:
424,149,66522,1,2,0:0:0:0:
243,67,66704,1,8,0:0:0:0:
407,149,66886,1,0,0:0:0:0:
217,222,67067,2,0,P|165:215|118:185,1,92.0000017547608,2|0,0:0|0:0,0:0:0:0:
182,314,67431,1,10,0:0:0:0:
217,222,67613,1,0,0:0:0:0:
412,262,67795,5,2,0:1:0:0:
252,129,67976,1,2,0:0:0:0:
293,289,68158,1,8,0:0:0:0:
323,195,68340,2,0,P|347:186|393:183,2,46.0000008773804,2|0|2,0:0|0:0|0:1,0:0:0:0:
125,160,68704,21,0,0:0:0:0:
364,97,68886,1,10,0:1:0:0:
125,160,69067,1,0,0:0:0:0:
145,64,69249,37,6,0:0:0:0:
285,195,69431,1,0,0:0:0:0:
100,255,69613,1,10,0:0:0:0:
180,165,69795,1,0,0:0:0:0:
254,320,69976,1,2,0:0:0:0:
390,224,70158,1,0,0:0:0:0:
248,335,70340,1,10,0:0:0:0:
170,179,70522,1,0,0:0:0:0:
317,279,70704,21,2,0:1:0:0:
337,77,70886,1,2,0:0:0:0:
326,177,71067,1,8,0:0:0:0:
242,115,71249,2,0,L|195:108,2,46.0000008773804,2|0|2,0:0|0:0|0:1,0:0:0:0:
337,297,71613,37,0,0:0:0:0:
345,180,71795,1,10,0:1:0:0:
355,63,71976,1,0,0:0:0:0:
242,115,72158,21,4,0:0:0:0:
242,115,72340,2,0,P|196:110|152:96,1,92.0000017547608,2|8,0:0|0:0,0:0:0:0:
218,20,72704,1,2,0:0:0:0:
210,212,72886,2,0,P|256:211|300:197,1,92.0000017547608,2|0,0:0|0:0,0:0:0:0:
242,115,73249,1,8,0:0:0:0:
171,300,73431,1,2,0:0:0:0:
366,265,73613,5,4,0:0:0:0:
280,329,73795,2,0,P|265:283|262:230,1,92.0000017547608,2|8,0:0|0:0,0:0:0:0:
399,102,74158,1,2,0:0:0:0:
399,102,74340,2,0,P|369:138|323:167,1,92.0000017547608,2|0,0:0|0:0,0:0:0:0:
147,112,74704,2,0,P|189:122|242:145,1,92.0000017547608,10|0,0:0|0:0,0:0:0:0:
365,256,75067,22,0,B|314:274|273:243|273:243|228:215|163:244,2,184.000003509522,6|8|0,0:0|0:0|0:0,0:0:0:0:
214,330,75976,2,0,P|164:329|102:298,1,92.0000017547608,2|8,0:0|0:0,0:0:0:0:
125,314,76340,1,0,0:0:0:0:
244,39,76522,37,2,0:1:0:0:
286,287,76704,1,0,0:0:0:0:
136,94,76886,1,10,0:1:0:0:
168,282,77067,1,0,0:0:0:0:
30,150,77249,1,2,0:1:0:0:
30,150,77340,1,0,0:0:0:0:
30,150,77431,1,0,0:0:0:0:
52,268,77613,1,10,0:1:0:0:
30,150,77795,1,2,0:0:0:0:
249,206,77976,21,4,0:1:0:0:
129,329,78158,2,0,P|144:289|151:225,1,92.0000017547608,2|8,0:0|0:0,0:0:0:0:
52,268,78522,1,2,0:0:0:0:
235,307,78704,2,0,P|286:304|347:280,1,92.0000017547608,2|0,0:0|0:0,0:0:0:0:
151,240,79067,1,8,0:0:0:0:
179,384,79249,1,0,0:0:0:0:
367,334,79431,6,0,P|302:309|207:311,1,138.000002632141,2|0,0:0|0:0,0:0:0:0:
219,321,79795,2,0,L|203:209,1,92.0000017547608,8|0,0:0|0:0,0:0:0:0:
319,166,80158,2,0,L|335:54,1,92.0000017547608,2|0,0:0|0:0,0:0:0:0:
300,268,80522,1,10,0:0:0:0:
114,187,80704,1,2,0:0:0:0:
300,268,80886,22,0,P|345:273|386:254,1,92.0000017547608,6|0,0:0|0:0,0:0:0:0:
357,80,81249,2,0,P|329:116|325:161,1,92.0000017547608,8|2,0:0|0:0,0:0:0:0:
490,226,81613,2,0,P|471:184|435:157,1,92.0000017547608,2|0,0:0|0:0,0:0:0:0:
300,268,81976,1,10,0:0:0:0:
300,268,82158,1,0,0:0:0:0:
435,157,82340,6,0,P|453:198|489:225,1,92.0000017547608,0|2,0:0|0:0,0:0:0:0:
325,161,82704,2,0,P|352:124|356:79,1,92.0000017547608,8|2,0:0|0:0,0:0:0:0:
386,253,83067,2,0,P|340:247|299:266,1,92.0000017547608,2|0,0:0|0:0,0:0:0:0:
359,341,83431,1,8,0:0:0:0:
386,253,83613,1,0,0:0:0:0:
206,108,83795,6,0,B|192:142|193:170|193:170|222:213|222:213|223:258|199:309,1,184.000003509522,6|8,0:0|0:0,0:0:0:0:
291,144,84340,1,2,0:0:0:0:
126,240,84522,1,2,0:0:0:0:
291,144,84704,2,0,P|339:143|393:179,1,92.0000017547608,0|8,0:0|0:0,0:0:0:0:
312,242,85067,1,2,0:0:0:0:
258,48,85249,22,0,P|217:68|152:65,1,92.0000017547608,6|0,0:0|0:0,0:0:0:0:
51,130,85613,2,0,P|96:129|137:150,1,92.0000017547608,10|0,0:0|0:0,0:0:0:0:
235,226,85976,1,2,0:0:0:0:
71,282,86158,1,8,0:0:0:0:
107,271,86249,1,8,0:3:0:0:
144,277,86340,1,4,0:3:0:0:
178,295,86431,1,4,0:3:0:0:
213,311,86522,1,8,0:3:0:0:
251,313,86613,1,4,0:3:0:0:
286,297,86704,6,0,B|261:248|293:201|293:201|306:137|213:110|174:199|247:233,1,287.999991210938,4|0,0:0|0:0,0:0:0:0:
362,254,88067,1,4,0:1:0:0:
