osu file format v14

[General]
AudioFilename: audio.mp3
AudioLeadIn: 0
PreviewTime: 54613
Countdown: 0
SampleSet: Soft
StackLeniency: 0.7
Mode: 0
LetterboxInBreaks: 0
WidescreenStoryboard: 0

[Editor]
DistanceSpacing: 1.2
BeatDivisor: 4
GridSize: 4
TimelineZoom: 1.2

[Metadata]
Title:Hitorigoto -TV MIX-
TitleUnicode:ヒトリゴト -TV MIX-
Artist:ClariS
ArtistUnicode:ClariS
Creator:DreaM117er
Version:Hard
Source:エロマンガ先生
Tags:eromanga sensei ero manga 和泉 正宗 紗霧 いずみ まさむね さぎり izumi masamune sagiri 妹 imouto op tv size opening Left Rizia Kawaiwkyik KuranteMelodii Firis Mistlud Kisses m1223491117
BeatmapID:1263188
BeatmapSetID:596902

[Difficulty]
HPDrainRate:5
CircleSize:3.6
OverallDifficulty:5.5
ApproachRate:7.8
SliderMultiplier:1.5
SliderTickRate:1

[Events]
//Background and Video events
0,0,"BG-ENH.jpg",0,0
Video,0,"VDO.flv"
//Break Periods
//Storyboard Layer 0 (Background)
//Storyboard Layer 1 (Fail)
//Storyboard Layer 2 (Pass)
//Storyboard Layer 3 (Foreground)
//Storyboard Sound Samples

[TimingPoints]
886,363.636363636364,4,2,1,60,1,0
886,-133.333333333333,4,2,1,60,0,0
2159,-133.333333333333,4,2,1,10,0,0
2341,-133.333333333333,4,2,1,60,0,0
3613,-133.333333333333,4,2,1,10,0,0
3795,-133.333333333333,4,2,1,60,0,0
7977,-133.333333333333,4,2,1,10,0,0
8159,-133.333333333333,4,2,1,60,0,0
9431,-133.333333333333,4,2,1,10,0,0
9613,-133.333333333333,4,2,1,60,0,0
12522,-100,4,2,1,70,0,0
24159,-111.111111111111,4,2,1,70,0,0
35795,-133.333333333333,4,2,1,50,0,0
41613,-111.111111111111,4,2,1,60,0,0
53795,-200,4,2,1,70,0,0
54704,-100,4,2,1,70,0,1
85976,-100,4,2,1,50,0,1
86704,-100,4,2,1,70,0,0

[Colours]
Combo1 : 255,66,255
Combo2 : 60,204,186
Combo3 : 61,102,122
Combo4 : 221,230,226

[HitObjects]
370,240,886,5,8,0:0:0:0:
370,240,1067,1,8,0:0:0:0:
327,151,1795,6,2,P|409:139|516:122,1,168.750006437302,0|8,0:0|0:0,0:1:0:0:
493,125,2522,1,8,0:0:0:0:
346,330,3249,6,2,B|256:293|269:350|180:325,1,168.750006437302,0|8,0:0|0:0,0:1:0:0:
136,242,3976,1,8,0:0:0:0:
136,242,4158,2,0,L|145:178,1,56.2500021457673,0|2,0:0|0:0,0:0:0:0:
115,106,4522,2,0,P|164:142|225:130,1,112.500004291535,0|0,0:0|0:0,0:0:0:0:
279,85,5067,1,2,0:0:0:0:
296,167,5249,5,4,0:0:0:0:
296,167,5431,2,0,B|341:158|379:152|379:152|428:172,1,112.500004291535,2|0,0:0|0:0,0:0:0:0:
490,134,5976,2,2,L|503:42,2,75.000002861023
477,242,6704,5,8,0:0:0:0:
477,242,6886,1,8,0:0:0:0:
260,175,7613,6,2,L|284:362,1,168.750006437302,0|8,0:0|0:0,0:1:0:0:
281,342,8340,1,8,0:0:0:0:
488,341,9067,6,2,P|428:281|334:298,1,168.750006437302,0|8,0:0|0:0,0:1:0:0:
282,343,9795,1,8,0:0:0:0:
210,292,9976,2,0,L|196:216,2,56.2500021457673,0|2|0,0:0|0:0|0:0,0:0:0:0:
150,352,10522,2,0,L|94:342,1,56.2500021457673,0|2,0:0|0:0,0:0:0:0:
12,322,10886,1,2,0:0:0:0:
69,260,11067,5,4,0:0:0:0:
69,260,11249,2,0,P|76:203|92:123,1,112.500004291535,0|0,0:0|0:0,0:0:0:0:
96,62,11795,2,0,P|61:63|21:86,2,75.000002861023,2|2|0,0:0|0:0|0:0,0:0:0:0:
180,134,12522,6,0,P|221:143|265:152,1,75,4|0,0:0|0:0,0:0:0:0:
331,201,12886,2,0,B|379:180|432:174|432:174|462:188|482:203,1,150,8|0,0:0|0:0,0:0:0:0:
503,280,13431,1,0,0:0:0:0:
433,336,13613,1,8,0:0:0:0:
433,336,13795,6,0,P|412:291|415:254,1,75,2|0,0:1|0:0,0:0:0:0:
471,195,14158,2,0,L|485:114,1,75,2|8,0:1|0:0,0:0:0:0:
439,42,14522,2,0,B|340:62|340:62|308:59|276:34,1,150,2|2,0:1|0:1,0:0:0:0:
207,18,15067,2,0,L|219:91,1,75,8|0,0:0|0:0,0:0:0:0:
237,180,15431,5,4,0:0:0:0:
237,180,15795,2,0,L|144:167,1,75,8|0,0:0|0:0,0:0:0:0:
139,257,16158,2,0,L|64:268,1,75,0|0,0:0|0:0,0:0:0:0:
5,200,16522,1,8,0:0:0:0:
74,142,16704,6,0,P|95:107|96:62,1,75,2|0,0:1|0:0,0:0:0:0:
184,78,17067,2,0,P|180:41|161:8,1,75,2|8,0:1|0:0,0:0:0:0:
162,169,17431,2,0,P|250:155|321:146,1,150,2|2,0:1|0:1,0:0:0:0:
351,227,17976,1,8,0:0:0:0:
351,227,18158,1,8,0:0:0:0:
279,287,18340,6,0,P|233:285|205:264,1,75,4|0,0:0|0:0,0:0:0:0:
153,199,18704,1,8,0:0:0:0:
153,199,19067,2,0,L|164:107,2,75,0|0|8,0:0|0:0|0:0,0:0:0:0:
123,284,19613,6,0,P|88:270|51:267,1,75,2|0,0:1|0:0,0:0:0:0:
108,373,19976,2,0,P|145:370|179:356,1,75,2|8,0:1|0:0,0:0:0:0:
270,285,20340,2,0,P|258:214|244:120,1,150,2|2,0:1|0:1,0:0:0:0:
230,48,20886,1,8,0:0:0:0:
230,48,21249,6,0,P|283:64|319:57,1,75,4|0,0:0|0:0,0:0:0:0:
388,37,21613,2,0,P|376:111|364:192,1,150,8|0,0:0|0:0,0:0:0:0:
349,274,22158,1,0,0:0:0:0:
281,214,22340,1,8,0:0:0:0:
365,185,22522,6,0,L|443:171,1,75,2|0,0:1|0:0,0:0:0:0:
511,275,22886,2,0,L|438:262,1,75,2|8,0:1|0:0,0:0:0:0:
349,170,23249,6,0,P|332:138|335:92,1,75,2|0,0:1|0:0,0:0:0:0:
447,38,23613,2,0,P|490:96|480:169,1,150,2|2,0:1|0:1,0:0:0:0:
414,238,24158,5,4,0:0:0:0:
414,238,24522,2,0,P|377:243|336:253,1,67.4999979400635,8|0,0:0|0:0,0:0:0:0:
292,181,24886,2,0,P|227:172|144:161,1,134.999995880127,0|8,0:0|0:0,0:0:0:0:
79,202,25431,1,0,0:0:0:0:
14,143,25613,6,0,B|28:96|35:57|35:57|13:-13,2,134.999995880127,0|8|0,0:0|0:0|0:0,0:0:0:0:
41,226,26522,1,0,0:0:0:0:
41,226,26704,2,0,L|55:313,1,67.4999979400635,8|0,0:0|0:0,0:0:0:0:
101,365,27067,6,0,P|138:363|170:342,1,67.4999979400635,0|0,0:0|0:0,0:0:0:0:
234,294,27431,2,0,B|261:326|287:335|287:335|323:331|361:305,1,134.999995880127,8|0,0:0|0:0,0:0:0:0:
414,252,27976,1,0,0:0:0:0:
488,298,28158,2,0,L|474:385,1,67.4999979400635,8|0,0:0|0:0,0:0:0:0:
414,252,28522,5,2,0:0:0:0:
467,182,28704,2,0,P|459:136|447:42,2,134.999995880127,2|2|2,0:0|0:0|0:0,0:0:0:0:
414,252,29613,1,8,0:0:0:0:
331,221,29795,1,8,0:0:0:0:
331,221,29886,1,8,0:0:0:0:
331,221,29976,6,0,P|296:215|243:209,1,67.4999979400635,4|0,0:0|0:0,0:0:0:0:
178,232,30340,2,0,P|140:276|147:359,1,134.999995880127,8|0,0:0|0:0,0:0:0:0:
230,376,30886,1,0,0:0:0:0:
230,376,31067,2,0,P|226:343|220:310,1,67.4999979400635,8|0,0:0|0:0,0:0:0:0:
178,232,31431,6,0,B|113:245|88:249|88:249|62:242|31:227,1,134.999995880127,0|8,0:0|0:0,0:0:0:0:
8,156,31976,1,0,0:0:0:0:
25,242,32158,2,0,P|17:282|13:322,1,67.4999979400635,0|0,0:0|0:0,0:0:0:0:
125,364,32522,2,0,P|120:330|114:297,1,67.4999979400635,8|0,0:0|0:0,0:0:0:0:
223,212,32886,5,2,0:0:0:0:
223,212,33067,2,0,L|211:292,1,67.4999979400635,2|8,0:0|0:0,0:0:0:0:
316,297,33431,1,2,0:0:0:0:
316,297,33613,2,0,L|326:363,1,67.4999979400635,0|2,0:0|0:0,0:0:0:0:
432,230,33976,2,0,L|421:297,1,67.4999979400635,8|0,0:0|0:0,0:0:0:0:
356,184,34340,5,2,0:0:0:0:
356,184,34522,2,0,L|495:161,2,134.999995880127,2|2|2,0:0|0:0|0:0,0:0:0:0:
285,132,35431,2,0,P|274:96|271:57,1,67.4999979400635,8|8,0:0|0:0,0:0:0:0:
270,66,35704,1,8,0:0:0:0:
270,66,35795,1,4,0:0:0:0:
227,253,36158,6,0,P|190:282|110:269,2,112.500004291535,0|8|2,0:0|0:0|0:0,0:0:0:0:
259,175,37067,1,8,0:0:0:0:
189,127,37249,2,0,L|115:119,1,56.2500021457673,2|0,0:0|0:0,0:0:0:0:
49,109,37613,1,2,0:0:0:0:
49,109,37976,2,0,B|57:147|65:180|65:180|56:211|47:235,1,112.500004291535,8|0,0:0|0:0,0:0:0:0:
16,293,38522,1,0,0:0:0:0:
86,340,38704,6,0,P|125:313|194:325,1,112.500004291535,4|0,0:0|0:0,0:0:0:0:
335,224,39431,2,0,P|378:221|458:204,1,112.500004291535,8|0,0:0|0:0,0:0:0:0:
509,151,39976,1,8,0:0:0:0:
466,224,40158,2,0,L|456:298,2,56.2500021457673,2|0|2,0:0|0:0|0:0,0:0:0:0:
304,74,40886,6,0,L|293:13,2,37.5000014305115,8|8|8,0:0|0:0|0:0,0:0:0:0:
376,108,41249,2,0,L|387:51,2,37.5000014305115,8|8|8,0:0|0:0|0:0,0:0:0:0:
358,184,41613,6,0,P|320:195|273:187,1,67.4999979400635,4|0,0:0|0:0,0:0:0:0:
215,150,41976,1,8,0:0:0:0:
130,126,42158,1,0,0:0:0:0:
43,143,42340,1,2,0:0:0:0:
43,143,42704,5,8,0:0:0:0:
125,112,42886,1,0,0:0:0:0:
192,57,43067,1,2,0:0:0:0:
192,57,43431,5,8,0:0:0:0:
105,39,43613,1,0,0:0:0:0:
18,22,43795,1,2,0:0:0:0:
18,22,43976,2,0,B|29:71|37:112|37:112|16:182,1,134.999995880127,2|2,0:0|0:0,0:0:0:0:
71,228,44522,6,0,L|82:294,1,67.4999979400635,2|0,0:1|0:0,0:0:0:0:
42,373,44886,1,8,0:0:0:0:
105,313,45067,1,0,0:0:0:0:
188,339,45249,1,2,0:0:0:0:
188,339,45613,5,8,0:0:0:0:
256,280,45795,1,0,0:0:0:0:
324,339,45976,1,2,0:0:0:0:
324,339,46340,5,8,0:0:0:0:
407,313,46522,1,0,0:0:0:0:
470,373,46704,1,2,0:0:0:0:
428,295,46886,2,0,P|438:231|454:146,1,134.999995880127,2|2,0:0|0:0,0:0:0:0:
409,38,47431,6,0,P|373:24|292:94,1,134.999995880127,4|8,0:0|0:0,0:0:0:0:
289,158,47976,1,0,0:0:0:0:
289,158,48158,2,0,B|301:215|309:251|309:251|301:281|290:314,1,134.999995880127,2|8,0:0|0:0,0:0:0:0:
238,354,48704,1,0,0:0:0:0:
238,354,48886,6,0,P|165:363|114:308,1,134.999995880127,2|8,0:0|0:0,0:0:0:0:
86,245,49431,1,0,0:0:0:0:
86,245,49613,1,2,0:0:0:0:
9,201,49795,2,0,P|60:159|135:171,1,134.999995880127,2|2,0:0|0:0,0:0:0:0:
188,225,50340,6,0,P|227:237|305:186,1,134.999995880127,0|8,0:0|0:0,0:0:0:0:
324,105,50886,1,0,0:0:0:0:
324,105,51067,2,0,B|376:115|411:121|411:121|470:100,1,134.999995880127,0|8,0:0|0:0,0:0:0:0:
509,35,51613,1,0,0:0:0:0:
482,118,51795,6,0,P|487:157|494:184,1,67.4999979400635,0|0,0:0|0:0,0:0:0:0:
451,261,52158,2,0,P|411:268|367:280,1,67.4999979400635,8|0,0:0|0:0,0:0:0:0:
343,352,52522,2,0,P|283:361|213:315,1,134.999995880127,0|8,0:0|0:0,0:0:0:0:
184,245,53067,1,8,0:0:0:0:
184,245,53158,1,8,0:0:0:0:
184,245,53249,2,0,P|150:253|106:259,2,67.4999979400635,8|8|0,0:0|0:0|0:0,0:0:0:0:
276,252,53795,6,0,B|283:215|268:182|268:182|248:142|268:93,1,150,4|0,0:0|0:0,0:0:0:0:
320,35,54704,6,0,P|274:15|236:21,1,75,4|0,0:0|0:0,0:0:0:0:
180,74,55067,2,0,P|138:72|94:44,1,75,10|0,0:0|0:0,0:0:0:0:
10,21,55431,2,0,P|16:58|24:95,1,75,0|0,0:0|0:0,0:0:0:0:
28,185,55795,2,0,P|69:176|122:165,1,75,10|0,0:0|0:0,0:0:0:0:
182,208,56158,5,2,0:0:0:0:
269,187,56340,2,0,P|275:150|281:112,1,75,2|10,0:0|0:0,0:0:0:0:
182,208,56704,2,0,P|188:246|194:282,1,75,2|0,0:0|0:0,0:0:0:0:
272,329,57067,1,2,0:0:0:0:
193,372,57249,2,0,P|156:365|126:343,1,75,10|0,0:0|0:0,0:0:0:0:
0,288,57613,6,0,P|37:281|73:269,1,75,4|0,0:0|0:0,0:0:0:0:
182,208,57976,2,0,P|141:200|109:188,1,75,10|0,0:0|0:0,0:0:0:0:
37,134,58340,1,2,0:0:0:0:
37,134,58522,1,2,0:0:0:0:
82,56,58704,1,10,0:0:0:0:
82,56,58886,1,0,0:0:0:0:
155,106,59067,5,2,0:0:0:0:
155,106,59249,2,0,L|251:88,1,75,2|10,0:0|0:0,0:0:0:0:
332,26,59613,2,0,P|323:67|316:107,1,75,2|0,0:0|0:0,0:0:0:0:
267,174,59976,1,2,0:0:0:0:
237,259,60158,2,0,P|243:303|251:333,1,75,10|0,0:0|0:0,0:0:0:0:
331,374,60522,6,0,P|373:366|410:341,1,75,4|0,0:0|0:0,0:0:0:0:
457,279,60886,2,0,P|445:248|442:199,1,75,10|0,0:0|0:0,0:0:0:0:
471,121,61249,1,0,0:0:0:0:
471,121,61431,1,0,0:0:0:0:
432,39,61613,2,0,P|380:43|351:64,1,75,10|0,0:0|0:0,0:0:0:0:
301,121,61976,5,4,0:0:0:0:
286,209,62158,2,0,P|323:209|356:193,1,75,2|10,0:0|0:0,0:0:0:0:
301,121,62522,1,2,0:0:0:0:
301,121,62704,2,0,L|216:106,1,75,0|0,0:0|0:0,0:0:0:0:
111,200,63067,2,0,L|185:187,1,75,10|0,0:0|0:0,0:0:0:0:
282,243,63431,6,0,P|297:276|297:342,1,75,4|0,0:0|0:0,0:0:0:0:
195,379,63795,2,0,P|202:342|211:306,1,75,8|0,0:0|0:0,0:0:0:0:
306,228,64158,2,0,P|361:242|403:250,1,75,4|0,0:0|0:0,0:0:0:0:
443,137,64522,2,0,P|409:151|372:155,1,75,8|0,0:0|0:0,0:0:0:0:
290,116,64886,5,10,0:0:0:0:
290,116,65067,1,0,0:0:0:0:
220,173,65249,1,10,0:0:0:0:
220,173,65431,1,0,0:0:0:0:
235,261,65613,2,0,P|245:304|261:355,1,75,10|0,0:0|0:0,0:0:0:0:
360,362,65976,2,0,P|352:325|342:289,1,75,10|0,0:0|0:0,0:0:0:0:
308,205,66340,5,4,0:0:0:0:
220,173,66522,2,0,P|181:181|133:190,1,75,0|10,0:0|0:0,0:0:0:0:
63,150,66886,1,0,0:0:0:0:
5,81,67067,2,0,P|38:64|76:63,1,75,0|0,0:0|0:0,0:0:0:0:
160,94,67431,1,10,0:0:0:0:
160,94,67613,1,0,0:0:0:0:
229,37,67795,6,0,P|274:68|391:59,1,150,0|10,0:0|0:0,0:0:0:0:
459,25,68340,2,0,P|448:76|440:119,1,75,2|0,0:0|0:0,0:0:0:0:
464,186,68704,1,2,0:0:0:0:
464,186,68886,2,0,P|483:222|479:265,1,75,10|0,0:0|0:0,0:0:0:0:
421,323,69249,6,0,L|335:336,1,75,4|0,0:0|0:0,0:0:0:0:
256,345,69613,1,10,0:0:0:0:
256,345,69795,1,0,0:0:0:0:
172,312,69976,1,2,0:0:0:0:
145,225,70158,2,0,P|151:189|160:152,1,75,2|10,0:0|0:0,0:0:0:0:
233,242,70522,1,2,0:0:0:0:
172,312,70704,6,0,P|104:299|81:294,1,75,0|0,0:0|0:0,0:0:0:0:
14,331,71067,1,10,0:0:0:0:
25,241,71249,2,0,P|11:211|24:156,1,75,2|0,0:0|0:0,0:0:0:0:
88,93,71613,2,0,P|51:85|15:79,2,75,2|10|0,0:0|0:0|0:0,0:0:0:0:
160,151,72158,6,0,B|226:143|277:136|277:136|253:157,1,150,4|10,0:0|0:0,0:0:0:0:
213,239,72704,1,0,0:0:0:0:
213,239,72886,2,0,P|198:295|202:337,1,75,0|0,0:0|0:0,0:0:0:0:
297,367,73249,2,0,P|292:329|286:293,1,75,10|0,0:0|0:0,0:0:0:0:
268,167,73613,6,0,B|326:179|363:186|363:186|392:173|427:152,1,150,4|10,0:0|0:0,0:0:0:0:
483,108,74158,1,0,0:0:0:0:
439,29,74340,2,0,P|404:13|344:28,1,75,0|0,0:0|0:0,0:0:0:0:
290,63,74704,2,0,P|298:109|307:150,1,75,10|0,0:0|0:0,0:0:0:0:
209,192,75067,6,0,P|198:132|178:36,1,150,4|10,0:0|0:0,0:0:0:0:
303,136,75613,1,0,0:0:0:0:
303,136,75795,2,0,P|287:209|273:283,1,150,4|10,0:0|0:0,0:0:0:0:
253,370,76340,1,0,0:0:0:0:
186,308,76522,6,0,P|147:309|102:339,1,75,4|0,0:0|0:0,0:0:0:0:
11,219,76886,2,0,P|44:236|82:240,1,75,10|0,0:0|0:0,0:0:0:0:
163,200,77249,2,0,L|172:163,2,37.5,4|0|0,0:0|0:0|0:0,0:0:0:0:
76,148,77613,2,0,L|63:99,2,37.5,10|0|0,0:0|0:0|0:0,0:0:0:0:
156,228,77976,6,0,P|234:220|297:280,1,150,4|10,0:0|0:0,0:0:0:0:
331,341,78522,1,0,0:0:0:0:
207,305,78704,2,0,P|195:230|183:156,1,150,2|10,0:0|0:0,0:0:0:0:
124,81,79249,1,0,0:0:0:0:
124,81,79340,1,0,0:0:0:0:
124,81,79431,6,0,P|165:63|211:68,1,75,4|0,0:0|0:0,0:0:0:0:
275,7,79795,2,0,P|293:48|288:94,1,75,10|0,0:0|0:0,0:0:0:0:
348,154,80158,2,0,P|307:172|261:167,1,75,4|0,0:0|0:0,0:0:0:0:
200,227,80522,2,0,P|182:186|187:140,1,75,10|0,0:0|0:0,0:0:0:0:
292,77,80886,6,0,P|368:91|440:101,1,150,4|10,0:0|0:0,0:0:0:0:
511,156,81431,1,0,0:0:0:0:
466,234,81613,1,2,0:0:0:0:
466,234,81795,2,0,P|429:227|389:223,1,75,0|10,0:0|0:0,0:0:0:0:
302,234,82158,1,0,0:0:0:0:
246,163,82340,6,0,B|257:110|266:65|266:65|243:5,2,150,0|10|2,0:0|0:0|0:0,0:0:0:0:
216,248,83249,1,0,0:0:0:0:
126,255,83431,2,0,L|112:181,1,75,10|0,0:0|0:0,0:0:0:0:
47,299,83795,6,0,P|106:341|178:329,1,150,4|10,0:0|0:0,0:0:0:0:
252,268,84340,1,0,0:0:0:0:
333,328,84522,2,0,P|405:341|465:299,1,150,0|10,0:0|0:0,0:0:0:0:
500,216,85067,1,0,0:0:0:0:
451,139,85249,6,0,P|406:132|358:121,1,75,4|0,0:0|0:0,0:0:0:0:
271,53,85613,2,0,P|279:90|286:127,1,75,10|0,0:0|0:0,0:0:0:0:
275,216,85976,1,8,0:0:0:0:
207,274,86158,1,8,0:0:0:0:
207,274,86249,1,8,0:0:0:0:
207,274,86340,2,0,L|161:265,3,37.5,8|8|8|8,0:0|0:0|0:0|0:0,0:0:0:0:
125,257,86704,5,4,0:0:0:0:
256,192,86795,12,6,88067,0:0:0:0:
