osu file format v14

[General]
AudioFilename: audio.mp3
AudioLeadIn: 0
PreviewTime: 54613
Countdown: 0
SampleSet: Soft
StackLeniency: 0.7
Mode: 0
LetterboxInBreaks: 0
WidescreenStoryboard: 0

[Editor]
Bookmarks: 35355,40264,41173
DistanceSpacing: 0.6
BeatDivisor: 4
GridSize: 32
TimelineZoom: 1.1

[Metadata]
Title:Hitorigoto -TV MIX-
TitleUnicode:ヒトリゴト -TV MIX-
Artist:ClariS
ArtistUnicode:ClariS
Creator:DreaM117er
Version:Insane
Source:エロマンガ先生
Tags:eromanga sensei ero manga 和泉 正宗 紗霧 いずみ まさむね さぎり izumi masamune sagiri 妹 imouto op tv size opening Left Rizia Kawaiwkyik KuranteMelodii Firis Mistlud Kisses m1223491117
BeatmapID:1264343
BeatmapSetID:596902

[Difficulty]
HPDrainRate:6
CircleSize:4
OverallDifficulty:8
ApproachRate:9
SliderMultiplier:1.7
SliderTickRate:1

[Events]
//Background and Video events
0,0,"BG-I1.jpg",0,0
Video,0,"VDO.flv"
//Break Periods
//Storyboard Layer 0 (Background)
//Storyboard Layer 1 (Fail)
//Storyboard Layer 2 (Pass)
//Storyboard Layer 3 (Foreground)
//Storyboard Sound Samples

[TimingPoints]
886,363.636363636364,4,2,1,60,1,0
886,-133.333333333333,4,2,1,60,0,0
2159,-133.333333333333,4,2,1,10,0,0
2341,-133.333333333333,4,2,1,60,0,0
3613,-133.333333333333,4,2,1,10,0,0
3795,-133.333333333333,4,2,1,60,0,0
7977,-133.333333333333,4,2,1,10,0,0
8159,-133.333333333333,4,2,1,60,0,0
9431,-133.333333333333,4,2,1,10,0,0
9613,-133.333333333333,4,2,1,60,0,0
12522,-100,4,2,1,70,0,0
24158,-111.111111111111,4,2,1,60,0,0
35795,-133.333333333333,4,2,1,50,0,0
41613,-111.111111111111,4,2,1,60,0,0
54704,-100,4,2,1,70,0,1
86704,-100,4,2,1,70,0,0

[Colours]
Combo1 : 255,66,255
Combo2 : 60,204,186
Combo3 : 61,102,122
Combo4 : 221,230,226

[HitObjects]
491,316,886,5,8,0:0:0:0:
317,240,1067,1,8,0:0:0:0:
329,259,1795,6,2,L|348:108,1,127.500004863739,0|0,0:0|0:0,0:1:0:0:
403,333,2340,5,8,0:0:0:0:
229,257,2522,1,8,0:0:0:0:
241,276,3249,6,2,L|260:125,1,127.500004863739,0|0,0:0|0:0,0:1:0:0:
315,350,3795,5,8,0:0:0:0:
141,274,3976,1,8,0:0:0:0:
264,194,4158,1,0,0:0:0:0:
173,157,4340,1,2,0:0:0:0:
229,271,4522,1,0,0:0:0:0:
339,144,4704,2,0,P|329:80|320:17,1,127.500004863739,0|2,0:0|0:0,0:0:0:0:
264,194,5249,5,4,0:0:0:0:
447,270,5431,2,0,P|400:229|338:232,1,127.500004863739,2|0,0:0|0:0,0:0:0:0:
262,289,5976,2,0,P|214:298|164:309,2,85.0000032424928,2|2|2,0:0|0:0|0:0,0:0:0:0:
338,232,6704,5,8,0:0:0:0:
159,176,6886,1,8,0:0:0:0:
174,161,7613,6,2,L|196:307,1,127.500004863739,0|0,0:0|0:0,0:1:0:0:
270,175,8158,5,8,0:0:0:0:
91,119,8340,1,8,0:0:0:0:
106,104,9067,6,2,L|128:250,1,127.500004863739,0|0,0:0|0:0,0:1:0:0:
202,118,9613,5,8,0:0:0:0:
23,62,9795,1,8,0:0:0:0:
202,118,9976,5,0,0:0:0:0:
69,175,10158,1,2,0:0:0:0:
202,118,10340,5,0,0:0:0:0:
166,262,10522,2,0,L|91:248,2,63.7500024318696,0|2|2,0:0|0:0|0:0,0:0:0:0:
364,373,11067,5,4,0:0:0:0:
364,373,11249,2,0,P|325:342|238:352,1,127.500004863739,0|0,0:0|0:0,0:0:0:0:
188,280,11795,2,0,P|196:228|203:179,2,85.0000032424928,2|2|0,0:0|0:0|0:0,0:0:0:0:
39,192,12522,6,0,P|74:214|116:214,1,85,4|0,0:0|0:0,0:0:0:0:
338,113,12886,2,0,P|296:113|260:135,1,85,8|0,0:0|0:0,0:0:0:0:
188,280,13249,1,0,0:0:0:0:
98,133,13431,1,0,0:0:0:0:
221,206,13613,1,8,0:0:0:0:
85,286,13795,6,0,L|-20:271,1,85,2|0,0:1|0:0,0:0:0:0:
272,292,14158,2,0,L|188:280,1,85,2|8,0:1|0:0,0:0:0:0:
459,298,14522,2,0,L|374:285,1,85,2|0,0:1|0:0,0:0:0:0:
170,310,14886,1,2,0:1:0:0:
287,269,15067,1,8,0:0:0:0:
364,372,15249,1,0,0:0:0:0:
190,224,15431,6,0,P|199:176|206:133,1,85,4|0,0:0|0:0,0:0:0:0:
293,13,15795,2,0,P|300:55|308:97,1,85,8|0,0:0|0:0,0:0:0:0:
354,243,16158,1,0,0:0:0:0:
394,117,16340,1,0,0:0:0:0:
276,194,16522,1,8,0:0:0:0:
427,286,16704,6,0,L|532:271,1,85,2|0,0:1|0:0,0:0:0:0:
240,292,17067,2,0,L|324:280,1,85,2|8,0:1|0:0,0:0:0:0:
53,298,17431,2,0,L|138:285,1,85,2|0,0:1|0:0,0:0:0:0:
340,252,17795,1,2,0:1:0:0:
196,201,17976,1,8,0:0:0:0:
196,201,18158,1,8,0:0:0:0:
353,335,18340,6,0,P|345:293|339:251,1,85,4|0,0:0|0:0,0:0:0:0:
209,117,18704,2,0,P|202:158|196:200,1,85,8|0,0:0|0:0,0:0:0:0:
241,296,19067,1,0,0:0:0:0:
339,251,19249,1,0,0:0:0:0:
196,200,19431,1,8,0:0:0:0:
353,335,19613,6,0,P|395:328|438:304,1,85,2|0,0:1|0:0,0:0:0:0:
145,278,19976,2,0,P|103:270|65:245,1,85,2|8,0:1|0:0,0:0:0:0:
296,147,20340,2,0,P|304:105|311:64,1,85,2|0,0:1|0:0,0:0:0:0:
245,244,20704,1,2,0:1:0:0:
201,116,20886,1,8,0:0:0:0:
145,278,21067,1,0,0:0:0:0:
296,147,21249,6,0,P|337:154|386:163,1,85,4|0,0:0|0:0,0:0:0:0:
135,186,21613,2,0,P|93:193|45:202,1,85,8|0,0:0|0:0,0:0:0:0:
245,244,21976,1,0,0:0:0:0:
311,64,22158,1,0,0:0:0:0:
379,162,22340,1,8,0:0:0:0:
201,116,22522,6,0,L|181:11,1,85,2|0,0:1|0:0,0:0:0:0:
362,245,22886,2,0,L|379:162,1,85,2|8,0:1|0:0,0:0:0:0:
162,319,23249,2,0,L|145:235,1,85,2|0,0:1|0:0,0:0:0:0:
115,110,23613,1,2,0:1:0:0:
235,209,23795,1,8,0:0:0:0:
64,264,23976,1,2,0:1:0:0:
206,123,24158,6,0,P|241:115|292:105,1,76.4999976654053,4|0,0:0|0:0,0:0:0:0:
400,214,24522,2,0,P|325:230|250:246,1,152.999995330811,8|0,0:0|0:0,0:0:0:0:
162,319,25067,1,0,0:0:0:0:
238,225,25249,2,0,P|243:188|251:135,1,76.4999976654053,8|0,0:0|0:0,0:0:0:0:
116,35,25613,6,0,P|70:31|36:132,2,152.999995330811,0|8|0,0:0|0:0|0:0,0:0:0:0:
249,149,26522,1,0,0:0:0:0:
154,204,26704,2,0,P|116:198|78:192,1,76.4999976654053,8|0,0:0|0:0,0:0:0:0:
165,303,27067,5,0,0:0:0:0:
66,212,27249,1,0,0:0:0:0:
1,332,27431,2,0,P|38:326|85:319,1,76.4999976654053,8|0,0:0|0:0,0:0:0:0:
246,287,27795,1,0,0:0:0:0:
154,204,27976,1,0,0:0:0:0:
255,180,28158,1,8,0:0:0:0:
168,343,28340,1,0,0:0:0:0:
268,269,28522,5,2,0:0:0:0:
119,175,28704,2,0,P|124:212|131:250,1,76.4999976654053,2|8,0:0|0:0,0:0:0:0:
384,315,29067,2,0,P|312:300|262:354,1,152.999995330811,2|2,0:0|0:0,0:0:0:0:
295,182,29613,2,0,P|244:176|202:166,1,76.4999976654053,8|8,0:0|0:0,0:0:0:0:
186,203,29886,1,8,0:0:0:0:
186,203,29976,6,0,P|141:211|93:219,1,76.4999976654053,4|0,0:0|0:0,0:0:0:0:
5,110,30340,2,0,P|81:98|156:84,1,152.999995330811,8|0,0:0|0:0,0:0:0:0:
267,27,30886,1,0,0:0:0:0:
267,27,31067,2,0,P|260:75|253:127,1,76.4999976654053,8|0,0:0|0:0,0:0:0:0:
371,242,31431,6,0,P|423:251|463:163,2,152.999995330811,0|8|0,0:0|0:0|0:0,0:0:0:0:
256,102,32340,1,0,0:0:0:0:
378,146,32522,2,0,P|373:108|368:71,1,76.4999976654053,8|0,0:0|0:0,0:0:0:0:
264,198,32886,5,2,0:0:0:0:
321,307,33067,2,0,P|318:349|306:393,2,76.4999976654053,2|8|2,0:0|0:0|0:0,0:0:0:0:
166,172,33613,1,0,0:0:0:0:
215,293,33795,1,2,0:0:0:0:
294,202,33976,1,8,0:0:0:0:
99,262,34158,1,0,0:0:0:0:
257,306,34340,5,2,0:0:0:0:
88,185,34522,2,0,P|28:229|39:314,2,152.999995330811,2|2|2,0:0|0:0|0:0,0:0:0:0:
154,25,35431,2,0,P|161:76|176:127,1,76.4999976654053,8|8,0:0|0:0,0:0:0:0:
167,100,35704,1,8,0:0:0:0:
167,100,35795,1,4,0:0:0:0:
319,222,36158,6,0,P|326:176|342:87,2,127.500004863739,0|8|2,0:0|0:0|0:0,0:0:0:0:
302,309,37067,1,8,0:0:0:0:
461,224,37249,6,0,P|430:231|398:238,1,63.7500024318696,2|0,0:0|0:0,0:0:0:0:
278,148,37613,1,2,0:0:0:0:
278,148,37976,2,0,P|227:155|166:105,1,127.500004863739,8|0,0:0|0:0,0:0:0:0:
145,25,38522,1,0,0:0:0:0:
111,185,38704,6,0,P|48:180|1:221,1,127.500004863739,4|0,0:0|0:0,0:0:0:0:
261,202,39431,2,0,P|249:140|241:77,1,127.500004863739,8|0,0:0|0:0,0:0:0:0:
297,7,39976,1,8,0:0:0:0:
372,133,40158,5,2,0:0:0:0:
241,76,40340,1,0,0:0:0:0:
376,49,40522,2,0,P|408:56|444:62,1,63.7500024318696,2|0,0:0|0:0,0:0:0:0:
354,200,40886,6,0,P|349:177|338:136,2,42.5000016212464,8|8|8,0:0|0:0|0:0,0:0:0:0:
430,245,41249,2,0,P|435:222|446:181,2,42.5000016212464,8|8|8,0:0|0:0|0:0,0:0:0:0:
406,332,41613,5,4,0:0:0:0:
406,332,41976,1,8,0:0:0:0:
267,369,42158,1,0,0:0:0:0:
305,237,42340,1,2,0:0:0:0:
305,237,42704,5,8,0:0:0:0:
406,332,42886,1,0,0:0:0:0:
267,369,43067,1,2,0:0:0:0:
267,369,43431,5,8,0:0:0:0:
305,237,43613,1,0,0:0:0:0:
406,332,43795,1,2,0:0:0:0:
231,287,43976,2,0,P|182:295|146:313,1,76.4999976654053,2|8,0:0|0:0,0:0:0:0:
84,361,44340,1,2,0:0:0:0:
13,191,44522,5,2,0:1:0:0:
13,191,44886,1,8,0:0:0:0:
145,227,45067,1,0,0:0:0:0:
108,93,45249,1,2,0:0:0:0:
108,93,45613,5,8,0:0:0:0:
13,191,45795,1,0,0:0:0:0:
145,227,45976,1,2,0:0:0:0:
145,227,46340,5,8,0:0:0:0:
108,93,46522,1,0,0:0:0:0:
13,191,46704,1,2,0:0:0:0:
182,148,46886,2,0,P|231:156|267:174,1,76.4999976654053,2|0,0:0|0:0,0:0:0:0:
324,226,47249,1,2,0:0:0:0:
318,56,47431,6,0,P|280:64|243:71,1,76.4999976654053,4|0,0:0|0:0,0:0:0:0:
117,256,47795,5,8,0:0:0:0:
117,256,47976,1,0,0:0:0:0:
117,256,48158,2,0,P|155:259|197:235,1,76.4999976654053,2|0,0:0|0:0,0:0:0:0:
442,142,48522,5,8,0:0:0:0:
442,142,48704,1,0,0:0:0:0:
442,142,48886,2,0,P|407:125|370:128,1,76.4999976654053,2|0,0:0|0:0,0:0:0:0:
284,197,49249,2,0,L|304:295,1,76.4999976654053,8|0,0:0|0:0,0:0:0:0:
320,361,49613,1,2,0:0:0:0:
186,199,49795,2,0,L|200:123,1,76.4999976654053,2|8,0:0|0:0,0:0:0:0:
219,33,50158,1,2,0:0:0:0:
54,158,50340,6,0,P|128:151|186:199,1,152.999995330811,0|8,0:0|0:0,0:0:0:0:
231,338,50886,1,0,0:0:0:0:
396,212,51067,2,0,P|321:204|264:252,1,152.999995330811,0|8,0:0|0:0,0:0:0:0:
231,338,51613,1,0,0:0:0:0:
363,367,51795,6,0,P|356:329|350:292,1,76.4999976654053,0|0,0:0|0:0,0:0:0:0:
199,123,52158,2,0,P|192:161|186:199,1,76.4999976654053,8|0,0:0|0:0,0:0:0:0:
277,326,52522,2,0,P|270:288|263:250,1,76.4999976654053,0|0,0:0|0:0,0:0:0:0:
118,81,52886,1,8,0:0:0:0:
221,29,53067,1,8,0:0:0:0:
221,29,53158,1,8,0:0:0:0:
221,29,53249,5,8,0:0:0:0:
97,224,53431,2,0,P|56:223|16:194,1,76.4999976654053,8|0,0:0|0:0,0:0:0:0:
236,138,53795,2,0,B|277:136|314:121|314:121|350:145|350:145|378:137|412:132|412:132|391:168|402:208|452:229|476:211|497:185,1,344.249989494324,4|0,0:0|0:0,0:0:0:0:
502,170,54704,5,4,0:0:0:0:
457,54,54886,1,0,0:0:0:0:
411,233,55067,2,0,P|347:224|283:215,1,127.5,10|0,0:0|0:0,0:0:0:0:
242,208,55431,1,0,0:0:0:0:
288,323,55613,1,0,0:0:0:0:
353,178,55795,1,10,0:0:0:0:
200,291,55976,1,0,0:0:0:0:
372,353,56158,5,2,0:0:0:0:
372,353,56340,2,0,P|413:346|456:340,1,85,2|10,0:0|0:0,0:0:0:0:
284,303,56704,2,0,P|241:296|199:290,1,85,2|0,0:0|0:0,0:0:0:0:
373,250,57067,1,2,0:0:0:0:
228,203,57249,1,10,0:0:0:0:
167,373,57431,1,0,0:0:0:0:
284,303,57613,5,4,0:0:0:0:
143,171,57795,1,0,0:0:0:0:
34,277,57976,2,0,P|76:269|136:258,1,85,10|0,0:0|0:0,0:0:0:0:
314,226,58340,1,2,0:0:0:0:
177,180,58522,1,2,0:0:0:0:
288,232,58704,1,10,0:0:0:0:
171,335,58886,1,0,0:0:0:0:
266,128,59067,5,2,0:0:0:0:
303,315,59249,2,0,L|288:232,1,85,2|10,0:0|0:0,0:0:0:0:
241,16,59613,2,0,P|238:58|222:114,1,85,2|0,0:0|0:0,0:0:0:0:
189,194,59976,1,2,0:0:0:0:
340,108,60158,1,10,0:0:0:0:
152,46,60340,1,0,0:0:0:0:
308,214,60522,6,0,P|265:208|213:193,1,85,4|0,0:0|0:0,0:0:0:0:
123,130,60886,2,0,P|134:196|146:281,1,127.5,10|0,0:0|0:0,0:0:0:0:
150,297,61249,1,0,0:0:0:0:
218,152,61431,1,0,0:0:0:0:
56,217,61613,1,10,0:0:0:0:
193,62,61795,1,0,0:0:0:0:
54,11,61976,5,4,0:0:0:0:
134,172,62158,1,2,0:0:0:0:
193,62,62340,1,10,0:0:0:0:
85,256,62522,1,2,0:0:0:0:
218,152,62704,2,0,P|257:143|307:135,1,85,0|0,0:0|0:0,0:0:0:0:
83,100,63067,2,0,P|41:92|0:83,1,85,10|0,0:0|0:0,0:0:0:0:
126,256,63431,6,0,P|174:253|209:227,1,85,4|0,0:0|0:0,0:0:0:0:
379,158,63795,2,0,P|331:155|296:129,1,85,8|0,0:0|0:0,0:0:0:0:
178,35,64158,2,0,P|185:82|196:143,1,85,4|0,0:0|0:0,0:0:0:0:
311,324,64522,2,0,P|318:282|324:240,1,85,8|0,0:0|0:0,0:0:0:0:
362,67,64886,5,10,0:0:0:0:
399,190,65067,1,0,0:0:0:0:
368,46,65249,1,10,0:0:0:0:
412,206,65431,1,0,0:0:0:0:
279,180,65613,5,10,0:0:0:0:
447,109,65795,1,0,0:0:0:0:
257,168,65976,1,10,0:0:0:0:
462,93,66158,1,0,0:0:0:0:
236,160,66340,6,0,P|193:153|138:145,1,85,4|0,0:0|0:0,0:0:0:0:
332,252,66704,2,0,P|374:245|416:239,1,85,10|0,0:0|0:0,0:0:0:0:
236,282,67067,1,0,0:0:0:0:
318,121,67249,1,0,0:0:0:0:
332,226,67431,1,10,0:0:0:0:
222,179,67613,1,0,0:0:0:0:
385,74,67795,6,0,P|439:77|474:182,1,170,0|10,0:0|0:0,0:0:0:0:
239,98,68340,2,0,P|246:56|251:8,1,85,2|0,0:0|0:0,0:0:0:0:
284,192,68704,1,2,0:0:0:0:
135,125,68886,1,10,0:0:0:0:
277,90,69067,1,0,0:0:0:0:
138,251,69249,5,4,0:0:0:0:
138,251,69431,2,0,P|70:240|39:236,2,85,0|10|0,0:0|0:0|0:0,0:0:0:0:
321,291,69976,1,2,0:0:0:0:
321,291,70158,2,0,P|278:296|237:304,1,85,2|10,0:0|0:0,0:0:0:0:
141,356,70522,1,2,0:0:0:0:
45,206,70704,6,0,P|85:165|199:174,1,170,0|10,0:0|0:0,0:0:0:0:
397,125,71249,2,0,P|342:115|294:105,1,85,2|0,0:0|0:0,0:0:0:0:
210,53,71613,1,2,0:0:0:0:
296,226,71795,1,10,0:0:0:0:
313,109,71976,1,0,0:0:0:0:
220,282,72158,6,0,P|305:269|406:254,1,170,4|10,0:0|0:0,0:0:0:0:
485,237,72704,1,0,0:0:0:0:
330,148,72886,1,0,0:0:0:0:
330,148,73067,1,0,0:0:0:0:
388,256,73249,1,10,0:0:0:0:
409,63,73431,1,0,0:0:0:0:
292,174,73613,6,0,P|299:220|318:350,1,170,4|10,0:0|0:0,0:0:0:0:
407,235,74158,1,0,0:0:0:0:
246,90,74340,2,0,P|212:124|212:220,1,127.5,0|0,0:0|0:0,0:0:0:0:
217,240,74704,2,0,P|171:222|124:225,1,85,10|0,0:0|0:0,0:0:0:0:
316,342,75067,6,0,P|396:329|486:316,2,170,4|10|4,0:0|0:0|0:0,0:0:0:0:
181,367,75976,1,0,0:0:0:0:
181,367,76158,2,0,P|188:325|196:267,1,85,10|0,0:0|0:0,0:0:0:0:
306,147,76522,6,0,P|311:189|318:230,1,85,4|0,0:0|0:0,0:0:0:0:
167,376,76886,2,0,P|174:334|182:276,1,85,10|0,0:0|0:0,0:0:0:0:
211,115,77249,1,4,0:0:0:0:
211,115,77340,1,0,0:0:0:0:
211,115,77431,1,0,0:0:0:0:
318,231,77613,1,10,0:0:0:0:
357,245,77704,1,0,0:0:0:0:
399,240,77795,1,0,0:0:0:0:
436,219,77886,1,0,0:0:0:0:
455,181,77976,6,0,P|446:122|441:79,1,85,4|0,0:0|0:0,0:0:0:0:
301,21,78340,2,0,P|310:80|315:123,1,85,10|0,0:0|0:0,0:0:0:0:
346,298,78704,1,2,0:0:0:0:
376,167,78886,1,0,0:0:0:0:
267,254,79067,1,10,0:0:0:0:
416,331,79249,1,0,0:0:0:0:
416,331,79340,1,0,0:0:0:0:
416,331,79431,6,0,P|458:323|511:314,1,85,4|0,0:0|0:0,0:0:0:0:
267,254,79795,2,0,P|222:245|172:237,1,85,10|0,0:0|0:0,0:0:0:0:
405,200,80158,1,4,0:0:0:0:
302,152,80340,1,0,0:0:0:0:
420,207,80522,1,10,0:0:0:0:
267,254,80704,1,0,0:0:0:0:
411,116,80886,6,0,P|465:126|501:156,1,85,4|0,0:0|0:0,0:0:0:0:
358,282,81249,1,10,0:0:0:0:
315,177,81431,1,0,0:0:0:0:
280,335,81613,2,0,P|226:325|190:295,1,85,2|0,0:0|0:0,0:0:0:0:
397,255,81976,2,0,P|391:299|384:353,1,85,10|0,0:0|0:0,0:0:0:0:
236,178,82340,6,0,P|225:109|205:-10,2,170,0|10|2,0:0|0:0|0:0,0:0:0:0:
266,328,83249,1,0,0:0:0:0:
324,203,83431,1,10,0:0:0:0:
191,271,83613,1,0,0:0:0:0:
398,226,83795,6,0,P|388:158|293:135,1,170,4|10,0:0|0:0,0:0:0:0:
191,271,84340,1,0,0:0:0:0:
364,325,84522,2,0,P|369:282|376:240,1,85,2|0,0:0|0:0,0:0:0:0:
408,75,84886,1,10,0:0:0:0:
229,164,85067,1,0,0:0:0:0:
229,164,85158,1,0,0:0:0:0:
229,164,85249,6,0,P|283:155|334:143,1,85,4|0,0:0|0:0,0:0:0:0:
459,255,85613,2,0,P|417:246|376:240,1,85,10|0,0:0|0:0,0:0:0:0:
396,342,85976,1,8,0:0:0:0:
491,163,86158,1,8,0:0:0:0:
466,159,86248,1,8,0:0:0:0:
441,155,86339,1,8,0:0:0:0:
416,151,86430,1,8,0:0:0:0:
391,147,86521,1,8,0:0:0:0:
366,143,86612,1,8,0:0:0:0:
341,139,86704,5,4,0:0:0:0:
256,192,86795,12,6,88067,0:0:0:0:
