osu file format v14

[General]
AudioFilename: audio.mp3
AudioLeadIn: 0
PreviewTime: 54613
Countdown: 0
SampleSet: Soft
StackLeniency: 0.7
Mode: 0
LetterboxInBreaks: 0
WidescreenStoryboard: 0

[Editor]
Bookmarks: 73249
DistanceSpacing: 1
BeatDivisor: 4
GridSize: 32
TimelineZoom: 1

[Metadata]
Title:Hitorigoto -TV MIX-
TitleUnicode:ヒトリゴト -TV MIX-
Artist:ClariS
ArtistUnicode:ClariS
Creator:DreaM117er
Version:Easy
Source:エロマンガ先生
Tags:eromanga sensei ero manga 和泉 正宗 紗霧 いずみ まさむね さぎり izumi masamune sagiri 妹 imouto op tv size opening Left Rizia Kawaiwkyik KuranteMelodii Firis Mistlud Kisses m1223491117
BeatmapID:1262040
BeatmapSetID:596902

[Difficulty]
HPDrainRate:2
CircleSize:2.5
OverallDifficulty:2
ApproachRate:3
SliderMultiplier:0.9
SliderTickRate:1

[Events]
//Background and Video events
0,0,"BG-ENH.jpg",0,0
Video,0,"VDO.flv"
//Break Periods
//Storyboard Layer 0 (Background)
//Storyboard Layer 1 (Fail)
//Storyboard Layer 2 (Pass)
//Storyboard Layer 3 (Foreground)
//Storyboard Sound Samples

[TimingPoints]
886,363.636363636364,4,2,1,60,1,0
12522,-100,4,2,1,70,0,0
24159,-100,4,2,1,60,0,0
35795,-100,4,2,1,50,0,0
41613,-100,4,2,1,60,0,0
54704,-100,4,2,1,70,0,1
86704,-100,4,2,1,70,0,0

[Colours]
Combo1 : 255,66,255
Combo2 : 60,204,186
Combo3 : 61,102,122
Combo4 : 221,230,226

[HitObjects]
99,150,886,6,0,L|85:47,2,90,8|0|0,0:0|0:0|0:0,0:0:0:0:
147,227,1976,1,0,0:0:0:0:
200,301,2340,2,0,L|301:287,2,90,8|0|0,0:0|0:0|0:0,0:0:0:0:
111,319,3431,1,0,0:0:0:0:
55,243,3795,6,0,P|49:162|141:106,1,180,8|0,0:0|0:0,0:0:0:0:
210,87,4886,1,0,0:0:0:0:
281,142,5249,2,0,L|257:329,2,180,4|2|8,0:0|0:0|0:0,0:0:0:0:
294,53,7067,6,0,P|250:51|212:27,2,90,0|0|0,0:0|0:0|0:0,0:0:0:0:
362,111,8158,2,0,P|401:93|455:97,1,90,8|0,0:0|0:0,0:0:0:0:
504,164,8886,2,0,L|491:253,1,90,0|0,0:0|0:0,0:0:0:0:
478,342,9613,5,8,0:0:0:0:
389,359,9976,2,0,B|315:331|296:400|214:358,1,180,0|2,0:0|0:0,0:0:0:0:
134,318,11067,2,0,B|96:350|52:355|52:355|7:322|-2:271,1,180,4|2,0:0|0:0,0:0:0:0:
7,194,12158,1,0,0:0:0:0:
20,104,12522,6,0,L|117:89,1,90,4|8,0:0|0:0,0:0:0:0:
177,32,13249,2,0,P|246:47|316:57,1,135,0|2,0:0|0:1,0:0:0:0:
354,135,14158,1,2,0:1:0:0:
273,175,14522,2,0,P|237:223|254:320,1,135,2|8,0:1|0:0,0:0:0:0:
309,352,15431,6,0,P|373:342|398:316,1,90,4|8,0:0|0:0,0:0:0:0:
480,325,16158,2,0,B|471:279|461:239|461:239|466:212|475:189,1,135,0|2,0:0|0:1,0:0:0:0:
413,126,17067,2,0,P|466:104|515:116,2,90,2|2|2,0:1|0:1|0:1,0:0:0:0:
351,59,18158,6,0,P|285:51|202:37,1,135,8|8,0:0|0:0,0:0:0:0:
129,19,19067,2,0,B|138:65|148:105|148:105|143:132|134:155,1,135,0|2,0:0|0:1,0:0:0:0:
88,226,19976,1,2,0:1:0:0:
10,272,20340,2,0,P|53:310|137:303,1,135,2|8,0:1|0:0,0:0:0:0:
179,234,21249,6,0,L|278:254,1,90,4|8,0:0|0:0,0:0:0:0:
341,200,21976,2,0,B|390:189|431:184|431:184|496:216,1,135,0|2,0:0|0:1,0:0:0:0:
503,286,22886,1,2,0:1:0:0:
437,347,23249,2,0,P|360:357|301:300,1,135,2|8,0:1|0:0,0:0:0:0:
267,251,24158,5,4,0:0:0:0:
188,206,24522,2,0,P|151:205|96:232,2,90,8|0|8,0:0|0:0|0:0,0:0:0:0:
264,158,25613,2,0,L|246:37,1,90,0|8,0:0|0:0,0:0:0:0:
323,15,26340,2,0,P|360:14|415:41,1,90,0|8,0:0|0:0,0:0:0:0:
474,95,27067,5,0,0:0:0:0:
504,179,27431,2,0,B|481:316|481:316|454:266,1,180,8|8,0:0|0:0,0:0:0:0:
381,239,28522,2,0,P|323:276|246:260,2,135,2|2|8,0:0|0:0|0:0,0:0:0:0:
414,155,29976,5,4,0:0:0:0:
344,98,30340,2,0,P|300:106|237:118,1,90,8|0,0:0|0:0,0:0:0:0:
170,143,31067,1,8,0:0:0:0:
103,82,31431,2,0,P|60:66|16:66,2,90,0|8|0,0:0|0:0|0:0,0:0:0:0:
170,143,32522,1,8,0:0:0:0:
222,216,32886,6,0,P|269:225|322:232,2,90,2|8|0,0:0|0:0|0:0,0:0:0:0:
133,230,33976,1,8,0:0:0:0:
46,254,34340,2,0,P|14:302|13:381,2,135,2|2|8,0:0|0:0|0:0,0:0:0:0:
133,230,35795,5,4,0:0:0:0:
212,271,36158,2,0,L|225:379,2,90,0|8|2,0:0|0:0|0:0,0:0:0:0:
273,205,37249,2,0,P|282:141|296:66,2,135,2|0|0,0:0|0:0|0:0,0:0:0:0:
306,288,38704,6,0,P|346:320|397:318,1,90,4|0,0:0|0:0,0:0:0:0:
456,269,39431,2,0,P|463:218|436:175,1,90,8|0,0:0|0:0,0:0:0:0:
372,134,40158,2,0,P|438:121|505:112,2,135,2|0|8,0:0|0:0|0:0,0:0:0:0:
294,179,41613,5,4,0:0:0:0:
267,92,41976,2,0,P|220:83|161:73,1,90,8|2,0:0|0:0,0:0:0:0:
95,109,42704,1,8,0:0:0:0:
38,178,43067,2,0,P|42:237|65:270,1,90,2|8,0:0|0:0,0:0:0:0:
133,311,43795,2,0,L|-25:334,2,135,2|2|8,0:0|0:0|0:0,0:0:0:0:
204,255,45249,6,0,P|247:275|302:267,1,90,2|8,0:0|0:0,0:0:0:0:
375,247,45976,2,0,P|377:291|357:331,2,90,2|8|2,0:0|0:0|0:0,0:0:0:0:
338,164,47067,1,8,0:0:0:0:
260,117,47431,6,0,P|258:64|280:23,2,90,4|8|2,0:0|0:0|0:0,0:0:0:0:
258,206,48522,1,8,0:0:0:0:
190,265,48886,2,0,P|147:263|99:243,1,90,2|8,0:0|0:0,0:0:0:0:
16,265,49613,2,0,L|2:158,1,90,2|8,0:0|0:0,0:0:0:0:
22,87,50340,6,0,P|83:30|180:50,1,180,0|0,0:0|0:0,0:0:0:0:
232,111,51431,1,8,0:0:0:0:
248,199,51795,2,0,P|221:262|235:313,1,90,0|8,0:0|0:0,0:0:0:0:
227,371,52522,2,0,L|334:358,1,90,0|8,0:0|0:0,0:0:0:0:
405,347,53249,5,8,0:0:0:0:
500,251,53795,2,0,P|442:216|375:216,1,135,4|0,0:0|0:0,0:0:0:0:
303,162,54704,6,0,P|286:217|302:270,2,90,4|10|0,0:0|0:0|0:0,0:0:0:0:
360,92,55795,1,10,0:0:0:0:
435,43,56158,2,0,L|301:25,2,135,2|2|10,0:0|0:0|0:0,0:0:0:0:
504,100,57613,6,0,P|502:151|482:185,1,90,4|10,0:0|0:0,0:0:0:0:
408,234,58340,2,0,P|361:233|312:204,1,90,2|10,0:0|0:0,0:0:0:0:
233,211,59067,2,0,B|217:162|217:162|223:122|245:72,2,135,2|2|10,0:0|0:0|0:0,0:0:0:0:
275,290,60522,5,4,0:0:0:0:
226,365,60886,2,0,L|137:353,2,90,10|0|10,0:0|0:0|0:0,0:0:0:0:
275,290,61976,2,0,P|365:280|461:264,1,180,4|0,0:0|0:0,0:0:0:0:
498,187,63067,1,10,0:0:0:0:
464,103,63431,6,0,P|476:63|475:7,2,90,4|8|4,0:0|0:0|0:0,0:0:0:0:
409,174,64522,1,8,0:0:0:0:
333,124,64886,2,0,P|268:117|203:166,2,135,10|0|10,0:0|0:0|0:0,0:0:0:0:
409,174,66340,5,4,0:0:0:0:
459,248,66704,2,0,L|445:356,1,90,10|0,0:0|0:0,0:0:0:0:
361,366,67431,1,10,0:0:0:0:
284,319,67795,2,0,L|265:167,2,135,0|2|10,0:0|0:0|0:0,0:0:0:0:
208,368,69249,6,0,P|165:373|107:342,1,90,4|10,0:0|0:0,0:0:0:0:
32,349,69976,2,0,P|38:303|46:260,1,90,2|10,0:0|0:0,0:0:0:0:
125,217,70704,2,0,P|196:209|244:148,2,135,0|2|10,0:0|0:0|0:0,0:0:0:0:
47,169,72158,6,0,P|40:123|32:80,1,90,4|10,0:0|0:0,0:0:0:0:
93,13,72886,2,0,P|137:23|188:33,1,90,0|10,0:0|0:0,0:0:0:0:
258,77,73613,2,0,B|325:64|389:54|389:54|355:109,1,180,4|0,0:0|0:0,0:0:0:0:
315,169,74704,1,10,0:0:0:0:
258,238,75067,6,0,P|191:223|111:302,2,180,4|4|4,0:0|0:0|0:0,0:0:0:0:
303,315,76886,1,10,0:0:0:0:
385,350,77249,2,0,P|429:351|470:332,1,90,4|10,0:0|0:0,0:0:0:0:
509,251,77976,6,0,L|476:58,1,180,4|2,0:0|0:0,0:0:0:0:
409,16,79067,1,10,0:0:0:0:
364,94,79431,2,0,P|311:133|277:133,1,90,4|10,0:0|0:0,0:0:0:0:
204,164,80158,2,0,P|145:137|109:146,1,90,4|10,0:0|0:0,0:0:0:0:
32,140,80886,6,0,B|22:169|11:202|11:202|22:269|54:334,1,180,4|2,0:0|0:0,0:0:0:0:
118,360,81976,1,10,0:0:0:0:
206,342,82340,2,0,P|211:297|221:241,1,90,0|10,0:0|0:0,0:0:0:0:
199,164,83067,2,0,P|248:141|295:152,1,90,2|10,0:0|0:0,0:0:0:0:
345,210,83795,6,0,P|406:224|491:144,1,180,4|2,0:0|0:0,0:0:0:0:
486,62,84886,1,10,0:0:0:0:
402,27,85249,2,0,P|354:34|306:44,1,90,4|10,0:0|0:0,0:0:0:0:
226,18,85976,2,0,P|205:79|219:118,1,90,8|8,0:0|0:0,0:0:0:0:
256,192,86704,12,6,88067,0:0:0:0:
