osu file format v14

[General]
AudioFilename: eromanga.mp3
AudioLeadIn: 0
PreviewTime: 54263
Countdown: 0
SampleSet: Soft
StackLeniency: 0.7
Mode: 0
LetterboxInBreaks: 0
WidescreenStoryboard: 1

[Editor]
DistanceSpacing: 1.2
BeatDivisor: 4
GridSize: 4
TimelineZoom: 1.5

[Metadata]
Title:Hitorigoto -TV MIX-
TitleUnicode:ヒトリゴト -TV MIX-
Artist:ClariS
ArtistUnicode:ClariS
Creator:Doormat
Version:Xxdeathx's Insane
Source:エロマンガ先生
Tags:xxdeathx Little CloudSplash16 StarrStyx Kencho eromanga sensei ero manga eromanga-sensei eromangasensei opening tv size
BeatmapID:1263997
BeatmapSetID:596704

[Difficulty]
HPDrainRate:6
CircleSize:4
OverallDifficulty:8
ApproachRate:9
SliderMultiplier:1.6
SliderTickRate:1

[Events]
//Background and Video events
0,0,"eromanga.png",0,0
Video,-430,"eromanga opening.avi"
//Break Periods
//Storyboard Layer 0 (Background)
//Storyboard Layer 1 (Fail)
//Storyboard Layer 2 (Pass)
//Storyboard Layer 3 (Foreground)
//Storyboard Sound Samples

[TimingPoints]
536,363.636363636364,4,2,1,80,1,0
536,-133.333333333333,4,2,1,80,0,0
12172,-100,4,2,1,80,0,0
23808,-111.111111111111,4,2,1,60,0,0
35445,-133.333333333333,4,2,1,50,0,0
41263,-100,4,2,1,60,0,0
54354,-90.9090909090909,4,2,1,80,0,1
65899,-90.9090909090909,4,2,1,80,0,0
65990,-80,4,2,1,80,0,1
86354,-100,4,2,1,70,0,0

[Colours]
Combo1 : 52,164,178
Combo2 : 254,194,206
Combo3 : 179,220,233
Combo4 : 235,142,173

[HitObjects]
141,149,172,6,0,B|94:159|74:191|74:191|32:177,1,120
9,166,536,5,4,0:0:0:0:
150,361,717,1,0,0:0:0:0:
150,361,899,2,0,P|135:299|165:237,1,120.000004577637
236,186,1445,2,0,B|280:210|308:166|356:190,1,120.000004577637
456,276,1990,5,0,1:0:0:0:
359,68,2172,1,0,1:0:0:0:
359,68,2354,2,0,L|351:204,1,120.000004577637,0|0,0:0|0:0,0:0:0:0:
332,344,2899,2,0,P|300:300|228:304,1,120.000004577637,0|0,0:0|0:0,0:0:0:0:
64,372,3445,5,0,1:0:0:0:
128,160,3626,1,0,1:0:0:0:
200,208,3808,2,0,P|228:208|264:192,1,60.0000022888184,0|0,0:0|0:0,0:0:0:0:
232,64,4172,2,0,P|218:88|213:127,1,60.0000022888184,0|0,0:0|0:0,0:0:0:0:
340,168,4536,2,0,P|326:143|294:120,1,60.0000022888184,0|0,0:0|0:0,0:0:0:0:
36,204,4899,6,0,B|102:224|145:181|145:181|164:204|200:208,1,180.000006866455,4|0,1:2|0:0,0:0:0:0:
248,204,5536,1,0,0:0:0:0:
248,204,5626,2,0,P|288:196|336:224,2,80.0000030517579,4|4|4,3:0|3:0|3:0,0:0:0:0:
164,320,6354,5,4,0:0:0:0:
72,115,6536,1,0,0:0:0:0:
72,115,6717,2,0,L|204:111,1,120.000004577637
392,120,7263,1,0,0:0:0:0:
392,120,7445,2,0,P|344:120|304:96,1,90.0000034332277,0|0,0:0|0:0,0:0:0:0:
284,64,7808,5,0,1:0:0:0:
376,264,7990,1,0,1:0:0:0:
292,216,8172,2,0,P|232:220|204:284,1,120.000004577637,0|0,0:0|0:0,0:0:0:0:
376,264,8717,2,0,L|380:132,1,120.000004577637,0|0,0:0|0:0,0:0:0:0:
388,4,9263,5,0,1:0:0:0:
139,63,9445,1,0,1:0:0:0:
231,83,9626,2,0,P|254:109|260:145,1,60.0000022888184,0|0,0:0|0:0,0:0:0:0:
147,201,9990,2,0,P|158:167|186:144,1,60.0000022888184,0|0,0:0|0:0,0:0:0:0:
292,216,10354,2,0,P|256:223|223:209,1,60.0000022888184,0|0,0:0|0:0,0:0:0:0:
279,44,10717,6,0,B|323:104|243:156|295:220,1,180.000006866455,4|0,1:2|0:0,0:0:0:0:
424,264,11445,2,0,P|460:244|480:204,2,80.0000030517579,4|4|4,3:0|3:0|3:0,0:0:0:0:
384,168,12172,6,0,L|388:80,1,80,4|0,0:0|0:0,0:0:0:0:
172,196,12536,2,0,L|180:296,1,80,8|0,0:0|0:0,0:0:0:0:
264,372,12899,1,2,0:0:0:0:
292,216,13081,1,0,0:0:0:0:
264,372,13263,1,8,0:0:0:0:
178,275,13445,6,0,P|136:260|86:279,1,80,0|2,0:0|0:0,0:0:0:0:
292,216,13808,2,0,L|292:124,1,80,0|8,0:0|0:0,0:0:0:0:
488,76,14172,2,0,P|460:100|400:100,1,80,0|2,0:0|0:0,0:0:0:0:
256,28,14536,1,0,0:0:0:0:
372,180,14717,1,8,0:0:0:0:
416,16,14899,1,0,0:0:0:0:
256,144,15081,6,0,P|219:141|176:98,1,80,4|0,0:0|0:0,0:0:0:0:
20,16,15445,2,0,L|24:108,1,80,8|0,0:0|0:0,0:0:0:0:
28,140,15717,1,0,0:0:0:0:
28,140,15808,1,2,0:0:0:0:
185,115,15990,1,0,0:0:0:0:
88,288,16172,1,8,0:0:0:0:
260,264,16354,6,0,L|360:256,1,80,0|2,0:0|0:0,0:0:0:0:
296,68,16717,2,0,P|280:104|296:160,1,80,0|8,0:0|0:0,0:0:0:0:
424,308,17081,2,0,P|440:272|424:216,1,80,0|2,0:0|0:0,0:0:0:0:
376,116,17445,1,0,0:0:0:0:
339,257,17626,1,8,0:0:0:0:
212,192,17808,1,0,0:0:0:0:
376,116,17990,6,0,L|472:120,1,80,4|0,0:0|0:0,0:0:0:0:
291,188,18354,2,0,L|191:192,1,80,8|0,0:0|0:0,0:0:0:0:
176,192,18626,1,0,0:0:0:0:
176,192,18717,1,2,0:0:0:0:
252,76,18899,1,0,0:0:0:0:
80,196,19081,1,8,0:0:0:0:
252,292,19263,6,0,P|268:332|256:380,1,80,0|2,0:0|0:0,0:0:0:0:
90,271,19626,2,0,P|74:231|86:183,1,80,0|8,0:0|0:0,0:0:0:0:
232,72,19990,2,0,P|205:105|157:119,1,80,0|2,0:0|0:0,0:0:0:0:
64,80,20354,1,0,0:0:0:0:
196,220,20536,1,8,0:0:0:0:
232,72,20717,1,0,0:0:0:0:
368,212,20899,6,0,P|412:224|464:208,1,80,4|0,0:0|0:0,0:0:0:0:
504,32,21263,2,0,P|460:20|408:36,1,80,8|0,0:0|0:0,0:0:0:0:
392,40,21536,1,0,0:0:0:0:
392,40,21626,2,0,L|388:136,1,80,2|0,0:0|0:0,0:0:0:0:
384,304,21990,1,8,0:0:0:0:
296,140,22172,5,0,0:0:0:0:
300,332,22354,1,4,0:0:0:0:
120,204,22536,1,0,0:0:0:0:
300,236,22717,1,8,0:0:0:0:
64,292,22899,1,0,0:0:0:0:
152,88,23081,1,4,0:0:0:0:
184,312,23263,1,0,0:0:0:0:
36,144,23445,1,8,0:0:0:0:
64,292,23626,1,0,0:0:0:0:
159,159,23808,6,0,L|151:79,1,71.9999978027344,4|0,0:0|0:0,0:0:0:0:
272,120,24172,2,0,P|340:112|368:32,2,143.999995605469,8|2|8,0:0|0:0|0:0,0:0:0:0:
272,120,25081,1,0,0:0:0:0:
280,256,25263,6,0,L|288:352,1,71.9999978027344,2|0,0:0|0:0,0:0:0:0:
396,248,25626,2,0,L|404:152,1,71.9999978027344,8|0,0:0|0:0,0:0:0:0:
438,37,25990,2,0,P|402:53|362:45,1,71.9999978027344,2|0,0:0|0:0,0:0:0:0:
168,20,26354,2,0,P|207:24|237:51,1,71.9999978027344,8|0,0:0|0:0,0:0:0:0:
304,168,26717,5,2,0:0:0:0:
304,168,26899,1,0,0:0:0:0:
160,116,27081,1,8,0:0:0:0:
160,116,27263,1,0,0:0:0:0:
116,264,27445,1,2,0:0:0:0:
116,264,27626,1,0,0:0:0:0:
252,316,27808,1,8,0:0:0:0:
252,316,27990,1,0,0:0:0:0:
160,116,28172,5,2,0:0:0:0:
356,260,28354,2,0,P|392:268|440:248,1,71.9999978027344,0|8,0:0|0:0,0:0:0:0:
312,96,28717,2,0,L|304:176,1,71.9999978027344,0|2,0:0|0:0,0:0:0:0:
252,316,29081,1,0,0:0:0:0:
64,200,29263,1,8,0:0:0:0:
304,167,29445,1,8,0:0:0:0:
320,164,29536,1,8,0:0:0:0:
336,162,29626,5,4,0:0:0:0:
336,162,29990,2,0,B|309:209|361:253|337:301,2,143.999995605469,8|2|8,0:0|0:0|0:0,0:0:0:0:
392,76,30899,1,0,0:0:0:0:
237,124,31081,6,0,L|145:128,1,71.9999978027344,2|0,0:0|0:0,0:0:0:0:
17,177,31445,2,0,P|57:177|89:153,1,71.9999978027344,8|0,0:0|0:0,0:0:0:0:
113,8,31808,2,0,P|93:42|97:82,1,71.9999978027344,2|0,0:0|0:0,0:0:0:0:
213,177,32172,2,0,P|193:142|156:126,1,71.9999978027344,8|0,0:0|0:0,0:0:0:0:
208,280,32536,5,2,0:0:0:0:
208,280,32717,1,0,0:0:0:0:
392,220,32899,1,8,0:0:0:0:
392,220,33081,1,0,0:0:0:0:
248,84,33263,1,2,0:0:0:0:
248,84,33445,1,0,0:0:0:0:
424,44,33626,1,8,0:0:0:0:
424,44,33808,1,0,0:0:0:0:
208,280,33990,5,2,0:0:0:0:
248,84,34172,2,0,L|252:4,1,71.9999978027344,0|8,0:0|0:0,0:0:0:0:
396,136,34536,2,0,P|364:152|308:144,1,71.9999978027344,0|2,0:0|0:0,0:0:0:0:
144,92,34899,1,0,0:0:0:0:
344,64,35081,1,8,0:0:0:0:
158,195,35263,1,8,0:0:0:0:
140,206,35354,1,8,0:0:0:0:
125,215,35445,6,0,B|88:236|47:198|4:219,1,120.000004577637,4|0,0:0|0:0,0:0:0:0:
245,299,36172,2,0,L|250:170,1,120.000004577637,8|0,0:0|0:0,0:0:0:0:
254,88,36717,1,0,0:0:0:0:
347,201,36899,6,0,P|391:209|446:158,1,120.000004577637,2|2,0:0|0:0,0:0:0:0:
254,88,37626,2,0,B|212:100|184:84|184:84|168:108|144:112,1,120.000004577637,8|0,0:0|0:0,0:0:0:0:
52,88,38172,1,0,0:0:0:0:
212,184,38354,6,0,P|224:236|172:284,1,120.000004577637,6|0,0:0|0:0,0:0:0:0:
0,344,39081,2,0,B|52:312|52:312|111:332,1,120.000004577637,8|0,0:0|0:0,0:0:0:0:
184,364,39626,1,8,0:0:0:0:
104,240,39808,5,2,0:0:0:0:
184,364,39990,1,8,0:0:0:0:
264,240,40172,1,2,0:0:0:0:
311,21,40536,5,8,3:2:0:0:
286,69,40657,2,0,P|282:89|294:133,1,40.000001525879,8|8,3:0|3:0,0:0:0:0:
377,207,40899,1,8,3:0:0:0:
431,204,41020,2,0,P|450:197|482:165,1,40.000001525879,8|8,3:0|3:0,0:0:0:0:
396,97,41263,6,0,P|356:108|312:96,1,80,4|0,0:0|0:0,0:0:0:0:
168,40,41626,1,8,0:0:0:0:
168,40,41808,1,0,0:0:0:0:
224,116,41990,2,0,L|228:212,1,80,2|0,0:0|0:0,0:0:0:0:
232,360,42354,1,8,0:0:0:0:
316,240,42536,1,0,0:0:0:0:
148,256,42717,6,0,P|104:244|76:208,1,80,2|0,0:0|0:0,0:0:0:0:
44,72,43081,1,8,0:0:0:0:
156,164,43263,1,0,0:0:0:0:
128,12,43445,1,2,0:0:0:0:
240,108,43626,2,0,L|324:104,1,80,0|8,0:0|0:0,0:0:0:0:
256,344,43990,6,0,P|204:284|224:204,1,160,0|0,0:0|0:0,0:0:0:0:
319,104,44536,1,8,0:0:0:0:
292,262,44717,1,0,0:0:0:0:
404,148,44899,2,0,P|440:136|496:152,1,80,2|0,0:0|0:0,0:0:0:0:
292,262,45263,1,8,0:0:0:0:
319,104,45445,1,0,0:0:0:0:
218,210,45626,6,0,P|182:230|126:222,1,80,2|0,0:0|0:0,0:0:0:0:
0,144,45990,1,8,0:0:0:0:
160,144,46172,1,0,0:0:0:0:
80,308,46354,1,2,0:0:0:0:
256,316,46536,2,0,L|348:320,1,80,0|8,0:0|0:0,0:0:0:0:
504,332,46899,1,0,0:0:0:0:
408,200,47081,6,0,P|392:160|400:120,1,80,4|0,0:0|0:0,0:0:0:0:
504,4,47445,1,8,0:0:0:0:
484,152,47626,1,0,0:0:0:0:
332,56,47808,2,0,P|292:44|244:56,1,80,2|0,0:0|0:0,0:0:0:0:
132,160,48172,1,8,0:0:0:0:
288,140,48354,1,0,0:0:0:0:
164,260,48536,6,0,P|144:296|152:348,1,80,2|0,0:0|0:0,0:0:0:0:
288,140,48899,1,8,0:0:0:0:
132,160,49081,1,0,0:0:0:0:
240,312,49263,1,2,0:0:0:0:
288,140,49445,2,0,L|284:56,1,80,0|8,0:0|0:0,0:0:0:0:
368,232,49808,1,0,0:0:0:0:
368,232,49990,6,0,P|392:164|484:180,1,160,2|8,0:0|0:0,0:0:0:0:
492,324,50536,1,0,0:0:0:0:
492,324,50717,2,0,L|320:328,1,160,2|8,0:0|0:0,0:0:0:0:
148,328,51263,1,0,0:0:0:0:
240,280,51445,6,0,P|248:240|236:196,1,80,2|0,0:0|0:0,0:0:0:0:
68,200,51808,2,0,P|98:226|142:238,1,80,8|0,0:0|0:0,0:0:0:0:
224,96,52172,2,0,P|185:109|153:141,1,80,2|0,0:0|0:0,0:0:0:0:
344,228,52536,2,0,L|428:224,1,80,8|8,0:0|0:0,0:0:0:0:
470,222,52808,1,8,0:0:0:0:
470,222,52899,5,2,0:1:0:0:
328,128,53081,2,0,P|324:84|352:40,1,80,2|0,0:1|0:0,0:0:0:0:
470,222,53445,2,0,P|484:284|448:336,1,120,2|0,0:1|0:0,0:0:0:0:
432,364,53808,2,0,P|447:366|461:377,8,20,0|0|0|0|0|0|0|0|0,0:0|0:0|0:0|0:0|0:0|0:0|0:0|0:0|0:0,0:0:0:0:
268,374,54354,5,4,0:0:0:0:
392,263,54536,1,0,0:0:0:0:
224,266,54717,2,0,P|184:259|144:220,1,88.000002685547,8|0,0:0|0:0,0:0:0:0:
104,64,55081,1,2,0:0:0:0:
48,220,55263,1,0,0:0:0:0:
228,168,55445,1,8,0:0:0:0:
48,220,55626,1,0,0:0:0:0:
220,80,55808,5,4,0:1:0:0:
235,256,55990,2,0,L|243:356,1,88.000002685547,0|8,0:0|0:0,0:0:0:0:
20,336,56354,2,0,P|52:264|152:264,1,176.000005371094
328,312,56899,1,8,0:0:0:0:
232,164,57081,2,0,P|232:120|264:76,1,88.000002685547,0|4,0:0|0:0,0:0:0:0:
380,16,57445,5,0,0:0:0:0:
152,56,57626,1,8,0:0:0:0:
328,152,57808,1,0,0:0:0:0:
112,212,57990,1,2,0:0:0:0:
328,152,58172,1,0,0:0:0:0:
72,124,58354,1,8,0:0:0:0:
168,328,58536,1,0,0:0:0:0:
208,116,58717,5,4,0:1:0:0:
300,304,58899,2,0,P|344:308|392:276,1,88.000002685547,0|8,0:0|0:0,0:0:0:0:
504,100,59263,2,0,P|460:96|412:128,1,88.000002685547,0|4,0:0|0:1,0:0:0:0:
324,216,59626,1,0,0:0:0:0:
408,28,59808,1,8,0:0:0:0:
212,32,59990,2,0,L|112:36,1,88.000002685547,0|4,0:0|0:0,0:0:0:0:
20,116,60354,5,0,0:0:0:0:
140,160,60536,2,0,P|152:196|136:252,1,88.000002685547,8|0,0:0|0:0,0:0:0:0:
4,352,60899,1,2,0:0:0:0:
48,204,61081,1,0,0:0:0:0:
196,324,61263,1,8,0:0:0:0:
236,156,61445,2,0,P|272:132|328:132,1,88.000002685547,0|4,0:0|0:0,0:0:0:0:
478,156,61808,5,0,0:0:0:0:
327,27,61990,1,8,0:0:0:0:
308,232,62172,1,0,0:0:0:0:
157,103,62354,2,0,L|153:-1,1,88.000002685547,2|0,0:0|0:0,0:0:0:0:
308,232,62717,2,0,L|303:341,1,88.000002685547,8|0,0:0|0:0,0:0:0:0:
100,236,63081,6,0,P|136:216|192:224,1,88.000002685547,4|0,0:0|0:0,0:0:0:0:
385,303,63445,2,0,P|349:323|293:315,1,88.000002685547,8|0,0:0|0:0,0:0:0:0:
436,52,63808,2,0,L|420:156,1,88.000002685547,4|0,0:0|0:0,0:0:0:0:
190,306,64172,2,0,L|178:190,1,88.000002685547,8|0,0:0|0:0,0:0:0:0:
154,16,64536,5,4,0:0:0:0:
353,229,64717,1,0,0:0:0:0:
66,174,64899,1,8,0:0:0:0:
331,50,65081,1,0,0:0:0:0:
66,174,65263,5,2,0:0:0:0:
190,306,65445,1,0,0:0:0:0:
331,50,65626,1,8,0:0:0:0:
353,229,65808,1,0,0:0:0:0:
154,16,65990,6,0,P|106:12|46:48,1,100,4|0,0:0|0:0,0:0:0:0:
301,141,66354,2,0,P|349:145|409:109,1,100,8|0,0:0|0:0,0:0:0:0:
504,4,66717,1,8,0:0:0:0:
331,50,66899,1,0,0:0:0:0:
504,160,67081,1,8,0:0:0:0:
331,50,67263,1,0,0:0:0:0:
341,245,67445,6,0,L|345:357,1,100,12|0,0:1|0:0,0:0:0:0:
73,277,67808,2,0,L|81:169,1,100,8|0,0:0|0:0,0:0:0:0:
205,29,68172,1,12,0:1:0:0:
181,229,68354,1,0,0:0:0:0:
309,85,68536,2,0,P|361:93|401:141,1,100,8|0,0:0|0:0,0:0:0:0:
365,339,68899,5,12,0:0:0:0:
509,174,69081,1,0,0:0:0:0:
300,205,69263,1,8,0:0:0:0:
489,317,69445,1,0,0:0:0:0:
265,357,69626,1,8,0:0:0:0:
489,317,69808,1,0,0:0:0:0:
393,124,69990,1,8,0:0:0:0:
365,339,70172,1,0,0:0:0:0:
169,141,70354,5,12,0:1:0:0:
377,233,70536,1,0,0:0:0:0:
137,301,70717,1,8,0:0:0:0:
281,129,70899,1,0,0:0:0:0:
137,301,71081,1,12,0:1:0:0:
65,85,71263,1,0,0:0:0:0:
245,245,71445,1,8,0:0:0:0:
65,85,71626,1,0,0:0:0:0:
365,73,71808,5,12,0:0:0:0:
153,169,71990,2,0,P|128:212|133:271,2,100,0|8|0,0:0|0:0|0:0,0:0:0:0:
273,37,72536,1,8,0:0:0:0:
245,245,72717,1,0,0:0:0:0:
65,85,72899,1,8,0:0:0:0:
245,245,73081,1,0,0:0:0:0:
356,24,73263,6,0,P|396:20|452:56,1,100,12|0,0:0|0:0,0:0:0:0:
500,240,73626,1,8,0:0:0:0:
380,112,73808,1,0,0:0:0:0:
432,304,73990,2,0,P|405:345|353:364,1,100,8|0,0:0|0:0,0:0:0:0:
176,354,74354,1,8,0:0:0:0:
344,269,74536,1,0,0:0:0:0:
151,257,74717,6,0,P|68:198|95:113,1,200,12|8,0:1|0:0,0:0:0:0:
336,139,75263,1,0,0:0:0:0:
336,139,75354,1,0,0:0:0:0:
336,139,75445,2,0,B|251:99|228:204|139:173,1,200,12|8,0:1|0:0,0:0:0:0:
4,96,75990,1,0,0:0:0:0:
171,97,76172,6,0,P|219:83|258:41,1,100,12|0,0:1|0:0,0:0:0:0:
460,16,76536,2,0,L|468:124,1,100,8|0,0:0|0:0,0:0:0:0:
480,276,76899,2,0,P|442:242|386:233,1,100,8|0,0:0|0:0,0:0:0:0:
240,243,77263,1,8,0:0:0:0:
344,96,77445,1,0,0:0:0:0:
147,173,77626,6,0,P|55:145|35:49,1,200,12|8,0:0|0:0,0:0:0:0:
248,44,78172,1,0,0:0:0:0:
248,44,78354,2,0,L|240:256,1,200,8|8,0:0|0:0,0:0:0:0:
236,376,78899,1,0,0:0:0:0:
148,172,79081,6,0,P|101:155|52:163,1,100,8|0,0:0|0:0,0:0:0:0:
340,304,79445,2,0,L|332:192,1,100,8|0,0:0|0:0,0:0:0:0:
496,4,79808,2,0,P|512:61|496:104,1,100,8|0,0:0|0:0,0:0:0:0:
332,204,80172,1,8,0:0:0:0:
408,56,80354,1,0,0:0:0:0:
216,144,80536,6,0,B|132:176|100:76|8:116,1,200,12|8,0:0|0:0,0:0:0:0:
12,292,81081,1,0,0:0:0:0:
12,292,81263,2,0,P|16:248|60:196,1,100,8|0,0:0|0:0,0:0:0:0:
216,144,81626,1,8,0:0:0:0:
116,284,81808,1,0,0:0:0:0:
180,52,81990,5,8,0:0:0:0:
256,244,82172,1,0,0:0:0:0:
272,28,82354,1,8,0:0:0:0:
164,216,82536,1,0,0:0:0:0:
388,140,82717,1,8,0:0:0:0:
180,52,82899,1,0,0:0:0:0:
388,140,83081,1,8,0:0:0:0:
104,128,83263,1,0,0:0:0:0:
388,56,83445,6,0,P|472:124|436:208,1,200,12|8,0:0|0:0,0:0:0:0:
308,272,83990,1,0,0:0:0:0:
308,272,84172,2,0,P|310:231|280:173,1,100,8|0,0:0|0:0,0:0:0:0:
164,64,84536,1,8,0:0:0:0:
216,248,84717,1,0,0:0:0:0:
96,124,84899,6,0,P|62:101|-2:98,1,100,8|0,0:0|0:0,0:0:0:0:
285,178,85263,2,0,P|325:180|383:150,1,100,8|0,0:0|0:0,0:0:0:0:
192,24,85626,2,0,L|200:152,1,100,8|0,0:0|0:0,0:0:0:0:
265,354,85990,2,0,L|277:242,1,100,8|0,0:0|0:0,0:0:0:0:
285,178,86263,1,0,0:0:0:0:
285,178,86354,5,4,0:0:0:0:
256,192,86536,12,4,87717,1:2:0:0:
