osu file format v14

[General]
AudioFilename: eromanga.mp3
AudioLeadIn: 0
PreviewTime: 54263
Countdown: 0
SampleSet: None
StackLeniency: 0.4
Mode: 0
LetterboxInBreaks: 0
WidescreenStoryboard: 1

[Editor]
DistanceSpacing: 1
BeatDivisor: 4
GridSize: 4
TimelineZoom: 2.699999

[Metadata]
Title:Hitorigoto -TV MIX-
TitleUnicode:ヒトリゴト -TV MIX-
Artist:ClariS
ArtistUnicode:ClariS
Creator:Doormat
Version:StarR-sensei's Insane
Source:エロマンガ先生
Tags:xxdeathx Little CloudSplash16 StarrStyx Kencho eromanga sensei ero manga eromanga-sensei eromangasensei opening tv size
BeatmapID:1269453
BeatmapSetID:596704

[Difficulty]
HPDrainRate:7
CircleSize:4
OverallDifficulty:8
ApproachRate:9
SliderMultiplier:1.6
SliderTickRate:1

[Events]
//Background and Video events
0,0,"eromanga.png",0,0
Video,-430,"eromanga opening.avi"
//Break Periods
//Storyboard Layer 0 (Background)
//Storyboard Layer 1 (Fail)
//Storyboard Layer 2 (Pass)
//Storyboard Layer 3 (Foreground)
//Storyboard Sound Samples

[TimingPoints]
536,363.636363636364,4,2,1,80,1,0
1445,-125,4,2,1,80,0,0
1899,-125,4,2,1,80,0,0
1990,-125,4,2,1,80,0,0
3354,-125,4,2,1,80,0,0
3445,-125,4,2,1,80,0,0
7717,-125,4,2,1,80,0,0
7808,-125,4,2,1,80,0,0
9172,-125,4,2,1,80,0,0
9263,-125,4,2,1,80,0,0
10626,-125,4,2,1,80,0,0
10717,-125,4,2,1,80,0,0
12172,-100,4,2,1,80,0,0
14990,-100,4,2,1,80,0,0
15081,-100,4,2,1,80,0,0
20808,-100,4,2,1,80,0,0
20899,-100,4,2,1,80,0,0
23808,-100,4,2,1,60,0,0
35445,-125,4,2,1,50,0,0
40536,-100,4,2,1,50,0,0
41263,-100,4,2,1,60,0,0
53444,-83.3333333333333,4,2,1,60,0,0
54354,-100,4,2,1,80,0,1
65899,-100,4,2,1,80,0,0
65990,-100,4,2,1,80,0,1
86354,-100,4,2,1,70,0,0

[Colours]
Combo1 : 52,164,178
Combo2 : 254,194,206
Combo3 : 179,220,233
Combo4 : 235,142,173

[HitObjects]
175,107,536,5,4,1:2:0:0:
175,107,717,1,0,1:0:0:0:
175,107,1445,2,0,P|242:154|317:140,1,160,0|0,0:0|0:0,0:0:0:0:
261,58,1990,5,0,1:0:0:0:
261,58,2172,1,0,1:0:0:0:
261,58,2899,2,0,L|271:228,1,160,0|0,0:0|0:0,0:0:0:0:
277,314,3445,5,0,1:0:0:0:
277,314,3626,1,0,1:0:0:0:
277,314,4354,2,0,P|210:267|135:281,1,160,0|0,0:0|0:0,0:0:0:0:
49,318,4899,5,4,1:2:0:0:
49,318,5081,2,0,L|60:183,1,128,0|0,0:0|0:0,0:0:0:0:
28,107,5626,2,0,L|91:97,1,64,4|0,3:0|0:0,0:0:0:0:
143,19,5869,2,0,L|119:78,1,64,4|0,3:0|0:0,0:0:0:0:
161,161,6111,2,0,L|120:111,1,64,4|0,3:0|0:0,0:0:0:0:
240,85,6354,5,4,1:2:0:0:
240,85,6536,1,0,1:0:0:0:
240,85,7263,2,0,B|304:75|304:75|348:92|348:92|412:82,1,160,0|0,0:0|0:0,0:0:0:0:
490,167,7808,5,0,1:0:0:0:
490,167,7990,1,0,1:0:0:0:
490,167,8717,2,0,P|412:162|364:231,1,160,0|0,0:0|0:0,0:0:0:0:
450,242,9263,5,0,1:0:0:0:
450,242,9445,1,0,1:0:0:0:
450,242,10172,2,0,L|290:231,1,160,0|0,0:0|0:0,0:0:0:0:
208,166,10717,5,4,1:2:0:0:
208,166,10899,2,0,B|171:141|171:141|183:224,1,128,0|0,0:0|0:0,0:0:0:0:
308,373,11445,2,0,L|267:323,1,64,4|0,3:0|0:0,0:0:0:0:
290,231,11688,2,0,L|266:290,1,64,4|0,3:0|0:0,0:0:0:0:
175,319,11929,2,0,L|238:309,1,64,4|0,3:0|0:0,0:0:0:0:
345,166,12172,6,0,P|312:149|262:150,1,80,4|0,0:0|0:0,0:0:0:0:
102,236,12536,2,0,P|139:234|181:208,1,80,8|0,0:0|0:0,0:0:0:0:
234,74,12899,1,2,0:0:0:0:
303,267,13081,1,0,0:0:0:0:
118,154,13263,1,8,0:0:0:0:
32,312,13445,6,0,P|18:277|24:229,1,80,0|2,0:0|0:0,0:0:0:0:
215,152,13808,2,0,P|209:189|180:227,1,80,0|8,0:0|0:0,0:0:0:0:
70,77,14172,2,0,P|105:63|152:69,1,80,0|2,0:0|0:0,0:0:0:0:
309,131,14536,1,0,0:0:0:0:
136,278,14717,2,0,L|134:159,1,120,8|0,0:0|0:0,0:0:0:0:
134,159,15081,6,0,P|178:161|218:144,1,80,4|0,0:0|0:0,0:0:0:0:
377,59,15445,2,0,P|399:91|407:130,1,80,8|0,0:0|0:0,0:0:0:0:
253,284,15808,1,2,0:0:0:0:
309,131,15990,1,0,0:0:0:0:
447,307,16172,1,8,0:0:0:0:
253,284,16354,6,0,P|295:272|350:274,1,80,0|2,0:0|0:0,0:0:0:0:
509,128,16717,2,0,P|498:170|469:217,1,80,0|8,0:0|0:0,0:0:0:0:
309,131,17081,2,0,P|277:100|251:51,1,80,0|2,0:0|0:0,0:0:0:0:
194,209,17445,1,0,0:0:0:0:
347,46,17626,1,8,0:0:0:0:
415,248,17808,1,0,0:0:0:0:
272,206,17990,6,0,P|233:201|194:209,1,80,4|0,0:0|0:0,0:0:0:0:
415,248,18354,2,0,P|447:271|484:285,1,80,8|0,0:0|0:0,0:0:0:0:
329,149,18717,1,2,0:0:0:0:
382,347,18899,1,0,0:0:0:0:
489,194,19081,1,8,0:0:0:0:
329,149,19263,6,0,L|241:162,1,80,0|2,0:0|0:0,0:0:0:0:
69,41,19626,2,0,L|149:53,1,80,0|8,0:0|0:0,0:0:0:0:
253,253,19990,2,0,P|214:246|180:221,1,80,0|2,0:0|0:0,0:0:0:0:
101,120,20354,1,0,0:0:0:0:
11,317,20536,2,0,L|3:183,1,120,8|0,0:0|0:0,0:0:0:0:
3,197,20899,6,0,P|38:217|85:218,1,80,4|0,0:0|0:0,0:0:0:0:
255,97,21263,2,0,P|272:132|271:172,1,80,8|0,0:0|0:0,0:0:0:0:
188,322,21626,1,2,0:0:0:0:
360,201,21808,1,0,0:0:0:0:
175,154,21990,1,8,0:0:0:0:
303,369,22172,6,0,L|310:282,1,80,0|4,0:0|0:0,0:0:0:0:
409,136,22536,2,0,P|373:120|327:126,1,80,0|8,0:0|0:0,0:0:0:0:
148,233,22899,2,0,P|187:236|223:220,1,80,0|4,0:0|0:0,0:0:0:0:
122,85,23263,1,0,0:0:0:0:
122,85,23354,1,0,0:0:0:0:
122,85,23445,2,0,L|67:76,3,40,10|2|2|2,0:0|0:0|0:0|0:0,0:0:0:0:
51,104,23808,6,0,L|58:198,1,80,4|0,0:0|0:0,0:0:0:0:
186,335,24172,2,0,L|191:255,1,80,8|0,0:0|0:0,0:0:0:0:
260,111,24536,1,2,0:0:0:0:
77,299,24717,1,0,0:0:0:0:
286,254,24899,1,8,0:0:0:0:
136,131,25081,1,0,0:0:0:0:
286,254,25263,6,0,P|322:271|371:271,1,80,2|0,0:0|0:0,0:0:0:0:
510,149,25626,2,0,P|472:161|441:186,1,80,8|0,0:0|0:0,0:0:0:0:
479,347,25990,2,0,P|473:307|453:273,1,80,2|0,0:0|0:0,0:0:0:0:
308,144,26354,2,0,P|347:138|381:118,1,80,8|0,0:0|0:0,0:0:0:0:
244,38,26717,5,2,0:0:0:0:
328,242,26899,1,0,0:0:0:0:
173,159,27081,1,8,0:0:0:0:
381,118,27263,1,0,0:0:0:0:
159,72,27445,5,2,0:0:0:0:
196,287,27626,1,0,0:0:0:0:
274,102,27808,1,8,0:0:0:0:
46,222,27990,1,0,0:0:0:0:
266,330,28172,5,2,0:0:0:0:
266,330,28354,2,0,P|276:291|267:244,1,80,0|8,0:0|0:0,0:0:0:0:
115,177,28717,2,0,P|185:183|254:131,1,160,0|0,0:0|0:0,0:0:0:0:
159,72,29263,1,8,0:0:0:0:
39,235,29445,1,8,0:0:0:0:
39,235,29536,1,8,0:0:0:0:
39,235,29626,6,0,P|19:201|22:154,1,80,4|0,0:0|0:0,0:0:0:0:
240,29,29990,2,0,L|234:122,1,80,8|0,0:0|0:0,0:0:0:0:
316,290,30354,1,2,0:0:0:0:
115,177,30536,1,0,0:0:0:0:
335,96,30717,1,8,0:0:0:0:
179,292,30899,1,0,0:0:0:0:
397,310,31081,6,0,P|395:267|371:228,1,80,2|0,0:0|0:0,0:0:0:0:
178,100,31445,2,0,P|201:136|241:158,1,80,8|0,0:0|0:0,0:0:0:0:
394,153,31808,2,0,P|413:114|412:68,1,80,2|0,0:0|0:0,0:0:0:0:
244,241,32172,2,0,P|267:277|307:299,1,80,8|0,0:0|0:0,0:0:0:0:
471,334,32536,5,2,0:0:0:0:
331,195,32717,1,0,0:0:0:0:
292,374,32899,1,8,0:0:0:0:
475,205,33081,1,0,0:0:0:0:
384,380,33263,5,2,0:0:0:0:
263,119,33445,1,0,0:0:0:0:
197,318,33626,1,8,0:0:0:0:
402,221,33808,1,0,0:0:0:0:
159,134,33990,5,2,0:0:0:0:
159,134,34172,2,0,P|161:172|142:209,1,80,0|8,0:0|0:0,0:0:0:0:
374,298,34536,2,0,P|323:243|342:165,1,160,0|0,0:0|0:0,0:0:0:0:
478,305,35081,1,8,0:0:0:0:
298,350,35263,1,8,0:0:0:0:
298,350,35354,1,8,0:0:0:0:
298,350,35445,6,0,B|256:334|256:334|169:350,1,128,4|0,0:0|0:0,0:0:0:0:
29,225,36172,2,0,P|93:232|151:184,1,128,8|0,0:0|0:0,0:0:0:0:
229,108,36717,1,0,0:0:0:0:
343,237,36899,6,0,L|352:102,1,128,2|2,0:0|0:0,0:0:0:0:
142,196,37626,2,0,L|134:324,1,128,8|0,0:0|0:0,0:0:0:0:
275,178,38172,1,0,0:0:0:0:
150,99,38354,6,0,P|87:116|50:174,1,128,6|0,0:0|0:0,0:0:0:0:
347,232,39081,2,0,P|363:168|332:107,1,128,8|0,0:0|0:0,0:0:0:0:
190,259,39626,1,8,0:0:0:0:
355,340,39808,5,2,0:0:0:0:
355,340,39990,1,8,0:0:0:0:
190,259,40172,1,2,0:0:0:0:
338,114,40536,6,0,L|331:181,2,53.3333333333333,8|8|8,3:2|3:0|3:0,0:0:0:0:
217,88,40899,2,0,L|210:21,2,53.3333333333333,8|8|8,3:0|3:0|3:0,0:0:0:0:
124,192,41263,6,0,L|32:183,1,80,4|0,0:0|0:0,0:0:0:0:
173,324,41626,1,8,0:0:0:0:
259,155,41808,1,0,0:0:0:0:
364,308,41990,2,0,L|456:299,1,80,2|0,0:0|0:0,0:0:0:0:
331,130,42354,2,0,P|293:132|258:155,1,80,8|0,0:0|0:0,0:0:0:0:
100,299,42717,6,0,P|132:320|172:323,1,80,2|0,0:0|0:0,0:0:0:0:
324,228,43081,1,8,0:0:0:0:
148,125,43263,1,0,0:0:0:0:
326,88,43445,1,2,0:0:0:0:
326,88,43626,1,0,0:0:0:0:
228,252,43808,1,8,0:0:0:0:
412,151,43990,1,0,0:0:0:0:
236,22,44172,6,0,L|241:117,1,80,2|0,0:0|0:0,0:0:0:0:
254,330,44536,1,8,0:0:0:0:
118,252,44717,1,0,0:0:0:0:
304,173,44899,2,0,P|341:159|393:166,1,80,2|0,0:0|0:0,0:0:0:0:
512,229,45263,1,8,0:0:0:0:
402,68,45445,1,0,0:0:0:0:
355,257,45626,6,0,P|329:287|281:307,1,80,2|0,0:0|0:0,0:0:0:0:
105,208,45990,1,8,0:0:0:0:
268,102,46172,1,0,0:0:0:0:
212,298,46354,1,2,0:0:0:0:
212,298,46536,1,0,0:0:0:0:
271,88,46717,1,8,0:0:0:0:
396,284,46899,1,0,0:0:0:0:
181,191,47081,6,0,P|142:192|98:212,1,80,4|0,0:0|0:0,0:0:0:0:
396,284,47445,2,0,P|429:263|457:224,1,80,8|0,0:0|0:0,0:0:0:0:
275,75,47808,2,0,P|262:111|266:160,1,80,2|0,0:0|0:0,0:0:0:0:
300,327,48172,1,8,0:0:0:0:
453,230,48354,1,0,0:0:0:0:
264,152,48536,6,0,L|164:144,1,80,2|0,0:0|0:0,0:0:0:0:
56,217,48899,1,8,0:0:0:0:
276,69,49081,1,0,0:0:0:0:
37,207,49263,1,2,0:0:0:0:
251,290,49445,1,0,0:0:0:0:
116,107,49626,1,8,0:0:0:0:
65,307,49808,1,0,0:0:0:0:
65,307,49990,6,0,L|224:293,1,160,2|8,0:0|0:0,0:0:0:0:
300,134,50536,1,0,0:0:0:0:
408,234,50717,2,0,P|421:198|420:147,1,80,2|0,0:0|0:0,0:0:0:0:
217,80,51081,2,0,P|204:115|208:168,1,80,8|0,0:0|0:0,0:0:0:0:
254,318,51445,5,2,0:0:0:0:
327,214,51626,1,0,0:0:0:0:
205,157,51808,2,0,L|105:165,1,80,8|0,0:0|0:0,0:0:0:0:
277,69,52172,5,2,0:0:0:0:
193,244,52354,1,0,0:0:0:0:
351,309,52536,2,0,L|451:301,1,80,8|8,0:0|0:0,0:0:0:0:
430,302,52808,1,8,0:0:0:0:
430,302,52899,1,2,0:1:0:0:
357,195,53081,6,0,P|317:198|275:228,1,80,2|0,0:1|0:0,0:0:0:0:
156,335,53445,6,0,P|178:264|158:200,1,143.999995605469,2|0,0:1|0:0,0:0:0:0:
91,143,53808,6,0,P|170:127|94:156,1,239.999992675781,0|0,0:0|0:0,0:0:0:0:
38,221,54354,5,4,0:0:0:0:
222,294,54536,1,0,0:0:0:0:
173,146,54717,2,0,L|94:156,1,80,8|0,0:0|0:0,0:0:0:0:
249,292,55081,2,0,L|328:282,1,80,2|0,0:0|0:0,0:0:0:0:
429,160,55445,1,8,0:0:0:0:
349,384,55626,1,0,0:0:0:0:
505,264,55808,6,0,P|470:250|426:254,1,80,4|0,0:1|0:0,0:0:0:0:
232,164,56172,2,0,P|271:167|308:153,1,80,8|0,0:0|0:0,0:0:0:0:
399,45,56536,1,4,0:1:0:0:
293,271,56717,1,0,0:0:0:0:
454,168,56899,1,8,0:0:0:0:
260,86,57081,1,0,0:0:0:0:
396,289,57263,5,4,0:0:0:0:
355,126,57445,1,0,0:0:0:0:
218,204,57626,2,0,L|128:192,1,80,8|0,0:0|0:0,0:0:0:0:
326,48,57990,2,0,P|367:44|404:59,1,80,2|0,0:0|0:0,0:0:0:0:
499,191,58354,1,8,0:0:0:0:
286,274,58536,1,0,0:0:0:0:
355,126,58717,6,0,P|368:162|362:212,1,80,4|0,0:1|0:0,0:0:0:0:
202,324,59081,2,0,P|189:288|195:238,1,80,8|0,0:0|0:0,0:0:0:0:
240,83,59445,1,4,0:1:0:0:
364,280,59626,1,0,0:0:0:0:
121,201,59808,1,8,0:0:0:0:
355,126,59990,1,0,0:0:0:0:
202,324,60172,5,4,0:0:0:0:
45,217,60354,2,0,P|82:200|121:201,1,80,0|8,0:0|0:0,0:0:0:0:
281,247,60717,1,0,0:0:0:0:
139,377,60899,2,0,P|121:340|122:300,1,80,2|0,0:0|0:0,0:0:0:0:
297,171,61263,2,0,P|297:211|281:247,1,80,8|0,0:0|0:0,0:0:0:0:
191,93,61626,5,4,0:0:0:0:
191,93,61808,2,0,L|270:88,1,80,0|8,0:0|0:0,0:0:0:0:
406,192,62172,1,0,0:0:0:0:
214,294,62354,2,0,P|200:261|207:211,1,80,2|0,0:0|0:0,0:0:0:0:
358,61,62717,2,0,P|362:100|348:137,1,80,8|0,0:0|0:0,0:0:0:0:
204,217,63081,6,0,L|111:207,1,80,4|0,0:0|0:0,0:0:0:0:
333,358,63445,2,0,L|426:348,1,80,8|0,0:0|0:0,0:0:0:0:
271,168,63808,2,0,P|265:129|278:92,1,80,4|0,0:0|0:0,0:0:0:0:
469,211,64172,2,0,P|475:250|462:287,1,80,8|0,0:0|0:0,0:0:0:0:
346,136,64536,5,4,0:1:0:0:
265,322,64717,1,0,0:0:0:0:
469,211,64899,1,12,0:1:0:0:
213,218,65081,1,0,0:0:0:0:
380,366,65263,5,4,0:1:0:0:
245,79,65445,1,4,0:1:0:0:
427,146,65626,1,12,0:1:0:0:
178,320,65808,1,4,0:1:0:0:
440,297,65990,5,4,0:0:0:0:
346,77,66172,1,0,0:0:0:0:
170,200,66354,2,0,P|212:204|259:187,1,80,8|0,0:0|0:0,0:0:0:0:
297,10,66717,2,0,P|272:44|263:93,1,80,2|0,0:0|0:0,0:0:0:0:
326,286,67081,1,8,0:0:0:0:
427,143,67263,1,0,0:0:0:0:
263,80,67445,6,0,L|172:88,1,80,4|0,0:1|0:0,0:0:0:0:
326,286,67808,2,0,L|405:278,1,80,8|0,0:0|0:0,0:0:0:0:
245,363,68172,1,4,0:1:0:0:
340,129,68354,1,0,0:0:0:0:
464,344,68536,1,8,0:0:0:0:
211,234,68717,1,0,0:0:0:0:
406,79,68899,6,0,P|422:115|417:155,1,80,4|0,0:0|0:0,0:0:0:0:
198,309,69263,2,0,P|194:269|210:233,1,80,8|0,0:0|0:0,0:0:0:0:
340,129,69626,1,2,0:0:0:0:
367,316,69808,1,0,0:0:0:0:
219,136,69990,1,8,0:0:0:0:
449,223,70172,1,0,0:0:0:0:
275,283,70354,5,4,0:1:0:0:
428,106,70536,1,0,0:0:0:0:
210,26,70717,2,0,L|217:136,1,80,8|0,0:0|0:0,0:0:0:0:
153,258,71081,1,4,0:1:0:0:
312,162,71263,1,0,0:0:0:0:
78,225,71445,2,0,P|71:264|84:302,1,80,8|0,0:0|0:0,0:0:0:0:
215,105,71808,5,4,0:0:0:0:
353,252,71990,2,0,P|312:261|272:253,1,80,0|8,0:0|0:0,0:0:0:0:
137,173,72354,1,0,0:0:0:0:
306,36,72536,2,0,P|325:73|327:113,1,80,2|0,0:0|0:0,0:0:0:0:
206,315,72899,2,0,P|186:277|184:237,1,80,8|0,0:0|0:0,0:0:0:0:
166,93,73263,5,4,0:0:0:0:
166,93,73445,2,0,L|87:99,1,80,0|8,0:0|0:0,0:0:0:0:
226,210,73808,1,0,0:0:0:0:
353,20,73990,2,0,P|372:50|374:103,1,80,0|0,0:0|0:0,0:0:0:0:
158,257,74354,2,0,P|143:219|147:180,1,80,8|0,0:0|0:0,0:0:0:0:
267,313,74717,5,4,0:1:0:0:
411,178,74899,1,0,0:0:0:0:
183,116,75081,2,0,P|221:101|264:108,1,80,8|0,0:0|0:0,0:0:0:0:
388,292,75445,1,4,0:1:0:0:
146,236,75626,1,0,0:0:0:0:
341,49,75808,2,0,P|356:82|357:128,1,80,8|0,0:0|0:0,0:0:0:0:
267,313,76172,6,0,L|188:318,1,80,4|0,0:1|0:0,0:0:0:0:
277,129,76536,2,0,L|356:124,1,80,8|0,0:0|0:0,0:0:0:0:
471,270,76899,1,2,0:0:0:0:
471,270,76990,1,2,0:0:0:0:
471,270,77081,1,2,0:0:0:0:
304,212,77263,2,0,P|341:227|385:223,1,80,8|0,0:0|0:0,0:0:0:0:
237,39,77626,6,0,P|187:91|194:180,1,160,4|8,0:0|0:0,0:0:0:0:
356,124,78172,1,0,0:0:0:0:
223,267,78354,2,0,L|52:251,1,160,2|8,0:0|0:0,0:0:0:0:
181,112,78899,1,0,0:0:0:0:
273,333,79081,6,0,P|297:301|305:253,1,80,2|0,0:0|0:0,0:0:0:0:
181,112,79445,2,0,P|196:148|234:179,1,80,8|0,0:0|0:0,0:0:0:0:
375,132,79808,1,2,0:0:0:0:
375,132,79899,1,0,0:0:0:0:
375,132,79990,1,0,0:0:0:0:
507,234,80172,2,0,P|470:248|425:242,1,80,8|0,0:0|0:0,0:0:0:0:
294,78,80536,6,0,P|354:36|452:72,1,160,4|8,0:0|0:0,0:0:0:0:
507,234,81081,1,0,0:0:0:0:
305,169,81263,2,0,L|219:175,1,80,2|0,0:0|0:0,0:0:0:0:
85,336,81626,2,0,P|124:341|163:331,1,80,8|0,0:0|0:0,0:0:0:0:
292,252,81990,5,2,0:0:0:0:
150,127,82172,1,0,0:0:0:0:
324,10,82354,2,0,L|314:106,1,80,8|0,0:0|0:0,0:0:0:0:
178,255,82717,1,2,0:0:0:0:
346,165,82899,1,0,0:0:0:0:
177,48,83081,2,0,P|135:46|94:64,1,80,8|0,0:0|0:0,0:0:0:0:
18,242,83445,6,0,L|191:256,1,160,4|8,0:0|0:0,0:0:0:0:
346,165,83990,1,0,0:0:0:0:
266,23,84172,2,0,P|251:59|252:105,1,80,2|0,0:0|0:0,0:0:0:0:
442,186,84536,2,0,P|441:146|426:109,1,80,8|0,0:0|0:0,0:0:0:0:
271,199,84899,6,0,L|279:294,1,80,2|0,0:0|0:0,0:0:0:0:
170,109,85263,1,8,0:0:0:0:
346,165,85445,1,0,0:0:0:0:
201,321,85626,2,0,L|196:271,3,40,8|0|0|0,3:2|3:0|3:0|3:0,0:0:0:0:
114,211,85990,2,0,L|109:261,3,40,8|0|0|0,3:2|3:0|3:0|3:0,0:0:0:0:
32,330,86354,5,4,0:0:0:0:
256,192,86445,12,4,87717,1:2:0:0:
