osu file format v14

[General]
AudioFilename: eromanga.mp3
AudioLeadIn: 0
PreviewTime: 54263
Countdown: 0
SampleSet: Soft
StackLeniency: 0.7
Mode: 0
LetterboxInBreaks: 0
WidescreenStoryboard: 1

[Editor]
DistanceSpacing: 1
BeatDivisor: 4
GridSize: 4
TimelineZoom: 1.5

[Metadata]
Title:Hitorigoto -TV MIX-
TitleUnicode:ヒトリゴト -TV MIX-
Artist:ClariS
ArtistUnicode:ClariS
Creator:Doormat
Version:Normal
Source:エロマンガ先生
Tags:xxdeathx Little CloudSplash16 StarrStyx Kencho eromanga sensei ero manga eromanga-sensei eromangasensei opening tv size
BeatmapID:1262010
BeatmapSetID:596704

[Difficulty]
HPDrainRate:4
CircleSize:3.2
OverallDifficulty:5
ApproachRate:5.5
SliderMultiplier:1.1
SliderTickRate:1

[Events]
//Background and Video events
0,0,"eromanga.png",0,0
Video,-430,"eromanga opening.avi"
//Break Periods
//Storyboard Layer 0 (Background)
//Storyboard Layer 1 (Fail)
//Storyboard Layer 2 (Pass)
//Storyboard Layer 3 (Foreground)
//Storyboard Sound Samples

[TimingPoints]
536,363.636363636364,4,2,1,80,1,0
23808,-100,4,2,1,60,0,0
35445,-100,4,2,1,50,0,0
41263,-100,4,2,1,60,0,0
54354,-100,4,2,1,80,0,1
65899,-100,4,2,1,80,0,0
65990,-100,4,2,1,80,0,1
86354,-100,4,2,1,70,0,0

[Colours]
Combo1 : 52,164,178
Combo2 : 254,194,206
Combo3 : 179,220,233
Combo4 : 235,142,173

[HitObjects]
404,124,536,6,0,L|396:192,1,55,4|0,1:2|1:0,0:0:0:0:
420,228,899,2,0,P|356:216|308:228,1,110,0|0,0:0|0:0,0:0:0:0:
216,276,1626,1,0,0:0:0:0:
128,212,1990,2,0,L|132:152,1,55,0|0,1:0|1:0,0:0:0:0:
136,100,2354,1,0,0:0:0:0:
240,132,2717,1,0,0:0:0:0:
319,57,3081,1,0,0:0:0:0:
422,88,3445,6,0,P|428:115|426:143,1,55,0|0,1:0|1:0,0:0:0:0:
396,188,3808,2,0,P|394:215|399:242,1,55,0|0,0:0|0:0,0:0:0:0:
432,288,4172,2,0,L|322:281,1,110,0|0,0:0|0:0,0:0:0:0:
232,344,4899,2,0,L|122:337,1,110,4|0,1:2|0:0,0:0:0:0:
23,292,5626,2,0,P|10:326|14:362,2,73.3333333333333,4|4|4,3:0|3:0|3:0,0:0:0:0:
60,220,6354,6,0,P|64:180|60:152,1,55,4|0,1:2|1:0,0:0:0:0:
28,124,6717,2,0,L|148:104,1,110,0|0,0:0|0:0,0:0:0:0:
244,136,7445,1,0,0:0:0:0:
200,236,7808,2,0,P|196:268|200:300,1,55,0|0,1:0|1:0,0:0:0:0:
208,344,8172,1,0,0:0:0:0:
308,300,8536,1,0,0:0:0:0:
396,364,8899,1,0,0:0:0:0:
496,320,9263,6,0,L|492:256,1,55,0|0,1:0|1:0,0:0:0:0:
452,228,9626,2,0,L|448:164,1,55,0|0,0:0|0:0,0:0:0:0:
476,124,9990,2,0,P|428:144|348:128,1,110,0|0,0:0|0:0,0:0:0:0:
283,71,10717,2,0,P|230:57|177:69,1,110,4|0,1:2|0:0,0:0:0:0:
100,148,11445,2,0,P|72:108|68:76,2,73.3333333333333,4|4|4,3:0|3:0|3:0,0:0:0:0:
160,204,12172,5,4,0:0:0:0:
260,160,12536,1,8,0:0:0:0:
348,224,12899,2,0,L|340:300,1,55,2|0,0:0|0:0,0:0:0:0:
364,328,13263,1,8,0:0:0:0:
364,328,13445,2,0,P|324:312|236:324,1,110,2|2,0:1|0:1,0:0:0:0:
160,368,14172,1,2,0:1:0:0:
60,320,14536,2,0,L|68:200,1,110,2|0,0:1|0:0,0:0:0:0:
72,156,15081,5,4,0:0:0:0:
172,204,15445,1,8,0:0:0:0:
252,131,15808,2,0,L|256:60,1,55,2|0,0:0|0:0,0:0:0:0:
220,32,16172,1,8,0:0:0:0:
220,32,16353,2,0,P|252:44|328:36,1,110,2|2,0:1|0:1,0:0:0:0:
432,12,17081,1,2,0:1:0:0:
408,120,17445,2,0,P|397:152|409:228,1,110,2|0,0:1|0:0,0:0:0:0:
440,272,17990,5,4,0:0:0:0:
332,300,18354,1,8,0:0:0:0:
224,328,18717,2,0,L|152:320,1,55,2|0,0:0|0:0,0:0:0:0:
120,344,19081,1,8,0:0:0:0:
120,344,19263,2,0,P|136:296|124:220,1,110,2|2,0:1|0:1,0:0:0:0:
84,140,19990,1,2,0:1:0:0:
145,50,20354,2,0,P|188:36|260:56,1,110,2|0,0:1|0:0,0:0:0:0:
296,80,20899,5,4,0:0:0:0:
244,176,21263,1,8,0:0:0:0:
308,264,21626,2,0,L|380:272,1,55,2|0,0:0|0:0,0:0:0:0:
408,304,21990,1,8,0:0:0:0:
408,304,22172,2,0,P|400:240|416:192,1,110,2|2,0:1|0:1,0:0:0:0:
496,128,22899,1,2,0:1:0:0:
412,56,23263,2,0,L|404:0,2,55,2|10|2,0:1|0:0|0:0,0:0:0:0:
376,96,23808,6,0,L|266:81,1,110,4|8,0:0|0:0,0:0:0:0:
168,132,24536,1,2,0:0:0:0:
185,241,24899,1,8,0:0:0:0:
294,258,25263,2,0,P|348:254|400:236,1,110,2|8,0:0|0:0,0:0:0:0:
444,136,25990,1,2,0:0:0:0:
380,48,26354,1,8,0:0:0:0:
272,76,26717,6,0,L|217:79,1,55,2|0,0:0|0:0,0:0:0:0:
180,120,27081,2,0,L|125:123,1,55,8|0,0:0|0:0,0:0:0:0:
76,96,27445,2,0,P|88:132|88:204,1,110,2|8,0:0|0:0,0:0:0:0:
60,311,28172,2,0,P|34:303|11:287,2,55,2|0|8,0:0|0:0|0:0,0:0:0:0:
112,296,28717,2,0,P|152:288|240:308,1,110,0|0,0:0|0:0,0:0:0:0:
268,324,29263,1,8,0:0:0:0:
340,240,29626,6,0,L|332:112,1,110,4|8,0:0|0:0,0:0:0:0:
428,72,30354,2,0,L|436:200,1,110,2|8,0:0|0:0,0:0:0:0:
436,292,31081,1,2,0:0:0:0:
340,240,31445,1,8,0:0:0:0:
246,297,31808,1,2,0:0:0:0:
150,245,32172,1,8,0:0:0:0:
147,135,32536,6,0,L|224:120,1,55,2|0,0:0|0:0,0:0:0:0:
252,144,32899,2,0,L|329:129,1,55,8|0,0:0|0:0,0:0:0:0:
340,89,33263,2,0,P|332:133|344:217,1,110,2|8,0:0|0:0,0:0:0:0:
356,304,33990,2,0,P|392:292|420:264,2,55,2|0|8,0:0|0:0|0:0,0:0:0:0:
304,288,34536,2,0,P|252:271|199:284,1,110,0|0,0:0|0:0,0:0:0:0:
156,320,35081,1,8,0:0:0:0:
76,244,35445,6,0,L|83:134,1,110,4|0,0:0|0:0,0:0:0:0:
184,88,36172,2,0,L|191:197,1,110,8|0,0:0|0:0,0:0:0:0:
164,244,36717,1,0,0:0:0:0:
163,244,36899,2,0,P|215:224|269:228,1,110,2|2,0:0|0:0,0:0:0:0:
284,336,37626,2,0,P|232:355|178:351,1,110,8|0,0:0|0:0,0:0:0:0:
76,308,38354,5,6,0:0:0:0:
164,244,38717,1,0,0:0:0:0:
100,156,39081,1,8,0:0:0:0:
188,92,39445,2,0,L|248:100,1,55,0|8,0:0|0:0,0:0:0:0:
284,136,39808,2,0,L|344:144,1,55,2|8,0:0|0:0,0:0:0:0:
388,120,40172,1,2,0:0:0:0:
476,183,40536,2,0,P|456:236|455:291,1,110,8|8,3:2|3:0,0:0:0:0:
388,376,41263,6,0,P|352:332|305:304,1,110,4|8,0:0|0:0,0:0:0:0:
264,272,41808,1,0,0:0:0:0:
264,272,41990,2,0,P|235:318|193:353,1,110,2|8,0:0|0:0,0:0:0:0:
140,360,42536,1,0,0:0:0:0:
140,360,42717,1,2,0:0:0:0:
56,288,43081,1,8,0:0:0:0:
136,216,43445,2,0,L|140:148,1,55,2|0,0:0|0:0,0:0:0:0:
108,116,43808,1,8,0:0:0:0:
108,116,43990,6,0,P|160:124|216:108,1,110,2|0,0:0|0:0,0:0:0:0:
256,72,44536,2,0,L|324:76,1,55,8|0,0:0|0:0,0:0:0:0:
364,60,44899,2,0,P|355:112|371:168,1,110,2|8,0:0|0:0,0:0:0:0:
408,208,45445,1,0,0:0:0:0:
408,208,45626,1,2,0:0:0:0:
308,256,45990,1,8,0:0:0:0:
208,212,46354,2,0,L|133:222,1,55,2|0,0:0|0:0,0:0:0:0:
108,252,46717,1,8,0:0:0:0:
108,252,46899,6,0,P|111:197|97:144,1,110,2|0,0:0|0:0,0:0:0:0:
68,96,47445,2,0,L|137:66,1,55,8|0,0:0|0:0,0:0:0:0:
152,32,47808,2,0,P|204:49|258:49,1,110,2|8,0:0|0:0,0:0:0:0:
312,28,48354,1,0,0:0:0:0:
312,28,48536,1,2,0:0:0:0:
384,112,48899,1,8,0:0:0:0:
326,203,49263,1,2,0:0:0:0:
398,287,49626,1,8,0:0:0:0:
492,228,49990,6,0,L|480:114,1,110,2|8,0:0|0:0,0:0:0:0:
504,70,50536,1,0,0:0:0:0:
504,70,50717,2,0,P|468:82|384:70,1,110,2|8,0:0|0:0,0:0:0:0:
352,44,51263,1,0,0:0:0:0:
352,44,51445,1,2,0:0:0:0:
304,142,51808,1,8,0:0:0:0:
364,232,52172,1,2,0:0:0:0:
316,330,52536,1,8,0:0:0:0:
222,384,52899,5,2,0:1:0:0:
222,384,53081,2,0,P|206:332|220:279,1,110,2|2,0:1|0:1,0:0:0:0:
216,16,54354,6,0,L|328:16,1,110,4|8,0:0|0:0,0:0:0:0:
420,64,55081,2,0,P|412:104|412:140,1,55,2|0,0:0|0:0,0:0:0:0:
416,172,55445,1,8,0:0:0:0:
320,224,55808,2,0,L|240:212,1,55,4|0,0:1|0:0,0:0:0:0:
223,179,56172,1,8,0:0:0:0:
223,179,56354,2,0,P|228:234|211:286,1,110,0|0,0:0|0:0,0:0:0:0:
172,320,56899,1,8,0:0:0:0:
76,264,57263,6,0,L|84:144,1,110,4|8,0:0|0:0,0:0:0:0:
64,44,57990,2,0,L|136:48,1,55,2|0,0:0|0:0,0:0:0:0:
173,50,58354,1,8,0:0:0:0:
280,28,58717,2,0,P|284:72|280:88,1,55,4|0,0:1|0:0,0:0:0:0:
252,127,59081,1,8,0:0:0:0:
252,127,59263,2,0,P|237:180|250:233,1,110,0|0,0:0|0:0,0:0:0:0:
280,280,59808,1,8,0:0:0:0:
212,368,60172,6,0,L|157:362,1,55,4|0,0:0|0:0,0:0:0:0:
104,376,60536,2,0,P|116:332|100:252,1,110,8|2,0:0|0:0,0:0:0:0:
72,228,61081,1,0,0:0:0:0:
72,228,61263,1,8,0:0:0:0:
144,148,61626,2,0,L|198:154,1,55,4|0,0:0|0:0,0:0:0:0:
244,184,61990,2,0,L|298:190,1,55,8|0,0:0|0:0,0:0:0:0:
340,228,62354,2,0,P|336:180|352:116,1,110,2|8,0:0|0:0,0:0:0:0:
448,72,63081,5,4,0:0:0:0:
357,11,63445,1,8,0:0:0:0:
259,59,63808,1,4,0:0:0:0:
350,120,64172,1,8,0:0:0:0:
251,168,64536,2,0,P|236:208|256:296,1,110,4|12,0:1|0:1,0:0:0:0:
196,372,65263,2,0,L|141:364,1,55,4|4,0:1|0:1,0:0:0:0:
101,327,65626,2,0,L|46:319,1,55,12|4,0:1|0:1,0:0:0:0:
0,347,65990,6,0,P|17:294|16:240,1,110,4|8,0:0|0:0,0:0:0:0:
9,187,66536,1,0,0:0:0:0:
8,186,66717,2,0,P|61:203|116:201,1,110,2|8,0:0|0:0,0:0:0:0:
196,124,67445,2,0,L|260:136,1,55,4|0,0:1|0:0,0:0:0:0:
284,176,67808,2,0,L|348:188,1,55,8|0,0:0|0:0,0:0:0:0:
388,160,68172,1,4,0:1:0:0:
484,212,68536,1,8,0:0:0:0:
432,308,68899,6,0,P|378:315|327:295,1,110,4|8,0:0|0:0,0:0:0:0:
285,261,69445,1,0,0:0:0:0:
285,261,69626,2,0,P|240:292|186:299,1,110,2|8,0:0|0:0,0:0:0:0:
201,189,70354,2,0,L|209:125,1,55,4|0,0:1|0:0,0:0:0:0:
253,101,70717,2,0,L|261:37,1,55,8|0,0:0|0:0,0:0:0:0:
229,1,71081,1,4,0:1:0:0:
125,37,71445,1,8,0:0:0:0:
21,72,71808,6,0,P|12:127|23:180,1,110,4|8,0:0|0:0,0:0:0:0:
116,240,72536,2,0,L|108:308,2,55,2|0|8,0:0|0:0|0:0,0:0:0:0:
228,220,73263,2,0,P|281:209|335:217,1,110,4|8,0:0|0:0,0:0:0:0:
384,240,73808,1,0,0:0:0:0:
383,239,73990,2,0,P|373:186|380:132,1,110,0|8,0:0|0:0,0:0:0:0:
280,84,74717,6,0,L|152:68,1,110,4|8,0:1|0:0,0:0:0:0:
156,180,75445,2,0,L|284:196,1,110,4|8,0:1|0:0,0:0:0:0:
312,168,75990,1,0,0:0:0:0:
312,168,76172,1,4,0:1:0:0:
356,268,76536,1,8,0:0:0:0:
464,257,76899,1,2,0:0:0:0:
487,150,77263,2,0,L|476:88,1,55,8|0,0:0|0:0,0:0:0:0:
488,42,77626,6,0,P|436:62|382:57,1,110,4|8,0:0|0:0,0:0:0:0:
335,32,78172,1,0,0:0:0:0:
335,32,78353,2,0,P|340:86|321:137,1,110,2|8,0:0|0:0,0:0:0:0:
236,204,79081,1,2,0:0:0:0:
302,290,79445,1,8,0:0:0:0:
388,223,79808,1,2,0:0:0:0:
321,137,80172,1,8,0:0:0:0:
236,204,80536,6,0,L|104:196,1,110,4|8,0:0|0:0,0:0:0:0:
72,192,81081,1,0,0:0:0:0:
72,192,81263,1,2,0:0:0:0:
28,92,81626,1,8,0:0:0:0:
108,19,81990,2,0,P|158:40|211:33,1,110,2|8,0:0|0:0,0:0:0:0:
280,119,82717,2,0,P|228:138|193:179,1,110,2|8,0:0|0:0,0:0:0:0:
292,228,83445,6,0,L|420:212,1,110,4|8,0:0|0:0,0:0:0:0:
456,204,83990,1,0,0:0:0:0:
456,204,84172,1,2,0:0:0:0:
508,300,84536,2,0,L|500:364,1,55,8|0,0:0|0:0,0:0:0:0:
452,380,84899,1,2,0:0:0:0:
360,320,85263,1,8,0:0:0:0:
261,368,85626,1,8,3:2:0:0:
169,308,85990,1,8,3:2:0:0:
266,258,86354,5,4,0:0:0:0:
256,192,86445,12,4,87717,1:2:0:0:
