osu file format v14

[General]
AudioFilename: eromanga.mp3
AudioLeadIn: 0
PreviewTime: 54263
Countdown: 0
SampleSet: Soft
StackLeniency: 0.7
Mode: 0
LetterboxInBreaks: 0
WidescreenStoryboard: 1

[Editor]
DistanceSpacing: 1
BeatDivisor: 4
GridSize: 4
TimelineZoom: 1.5

[Metadata]
Title:Hitorigoto -TV MIX-
TitleUnicode:ヒトリゴト -TV MIX-
Artist:ClariS
ArtistUnicode:ClariS
Creator:Doormat
Version:Little's Normal
Source:エロマンガ先生
Tags:xxdeathx Little CloudSplash16 StarrStyx Kencho eromanga sensei ero manga eromanga-sensei eromangasensei opening tv size
BeatmapID:1262335
BeatmapSetID:596704

[Difficulty]
HPDrainRate:4
CircleSize:3.2
OverallDifficulty:5
ApproachRate:5.5
SliderMultiplier:1.1
SliderTickRate:1

[Events]
//Background and Video events
0,0,"eromanga.png",0,0
Video,-430,"eromanga opening.avi"
//Break Periods
//Storyboard Layer 0 (Background)
//Storyboard Layer 1 (Fail)
//Storyboard Layer 2 (Pass)
//Storyboard Layer 3 (Foreground)
//Storyboard Sound Samples

[TimingPoints]
536,363.636363636364,4,2,1,80,1,0
536,-125,4,2,1,80,0,0
11445,-111.111111111111,4,2,1,80,0,0
12172,-100,4,2,1,70,0,0
23808,-100,4,2,1,60,0,0
35445,-125,4,2,1,60,0,0
41263,-100,4,2,1,60,0,0
44172,-100,4,2,1,65,0,0
47081,-100,4,2,1,70,0,0
49990,-100,4,2,1,75,0,0
52899,-100,4,2,1,80,0,0
54354,-100,4,2,1,85,0,1
65899,-100,4,2,1,85,0,0
65990,-100,4,2,1,85,0,1
86354,-100,4,2,1,80,0,0

[Colours]
Combo1 : 52,164,178
Combo2 : 254,194,206
Combo3 : 179,220,233
Combo4 : 235,142,173

[HitObjects]
389,67,536,5,10,0:0:0:0:
389,67,717,1,8,0:0:0:0:
185,119,1990,5,10,0:0:0:0:
185,119,2172,1,8,0:0:0:0:
333,270,3445,5,10,0:0:0:0:
333,270,3626,1,8,0:0:0:0:
389,67,4899,6,0,P|332:35|270:53,1,132,6|0,0:0|0:0,0:0:0:0:
241,91,5626,2,0,L|230:207,1,117.333333333333,10|2,0:0|0:0,0:0:0:0:
224,272,6354,5,10,0:0:0:0:
224,272,6536,1,8,0:0:0:0:
406,166,7808,5,10,0:0:0:0:
406,166,7989,1,8,0:0:0:0:
222,61,9263,5,10,0:0:0:0:
222,61,9444,1,8,0:0:0:0:
406,166,10717,6,0,L|394:298,1,132,6|0,0:0|0:0,0:0:0:0:
365,344,11445,2,0,P|302:361|243:335,1,131.99999597168,10|2,0:0|0:0,0:0:0:0:
196,280,12172,5,6,0:0:0:0:
260,192,12536,1,8,0:0:0:0:
152,180,12899,2,0,B|97:174,1,55,2|0,0:0|0:0,0:0:0:0:
44,192,13263,1,8,0:0:0:0:
44,192,13445,2,0,P|21:240|33:293,1,110,2|2,0:1|0:1,0:0:0:0:
120,360,14172,1,2,0:1:0:0:
224,320,14536,2,0,P|278:314|333:317,1,110,2|2,0:1|0:0,0:0:0:0:
388,320,15081,6,0,B|408:268,1,55,6|0,0:0|0:0,0:0:0:0:
428,217,15445,1,8,0:0:0:0:
320,208,15808,2,0,B|299:156,1,55,2|0,0:0|0:0,0:0:0:0:
280,105,16172,1,8,0:0:0:0:
280,105,16354,2,0,P|230:86|178:102,1,110,2|2,0:1|0:1,0:0:0:0:
96,176,17081,2,0,L|80:284,1,110,2|2,0:1|0:1,0:0:0:0:
100,336,17626,2,0,P|123:350|149:358,1,55,8|2,0:0|0:0,0:0:0:0:
204,356,17990,5,6,0:0:0:0:
304,312,18354,1,8,0:0:0:0:
215,244,18717,2,0,P|207:217|206:190,1,55,2|0,0:0|0:0,0:0:0:0:
228,140,19081,1,8,0:0:0:0:
228,140,19263,2,0,L|336:124,1,110,2|2,0:1|0:1,0:0:0:0:
440,160,19990,1,2,0:1:0:0:
420,268,20354,2,0,P|370:286|318:270,1,110,2|2,0:1|0:0,0:0:0:0:
264,264,20899,6,0,B|243:315,1,55,6|0,0:0|0:0,0:0:0:0:
224,368,21263,1,8,0:0:0:0:
124,324,21626,2,0,B|103:272,1,55,2|0,0:0|0:0,0:0:0:0:
84,220,21990,1,8,0:0:0:0:
84,220,22172,2,0,L|100:112,1,110,2|2,0:1|0:1,0:0:0:0:
204,72,22899,2,0,P|234:115|232:169,1,110,2|2,0:1|0:1,0:0:0:0:
208,220,23445,2,0,B|228:271,1,55,8|2,0:0|0:0,0:0:0:0:
248,324,23809,5,6,0:0:0:0:
348,368,24172,1,8,0:0:0:0:
436,303,24536,1,2,0:0:0:0:
423,194,24899,1,8,0:0:0:0:
322,150,25263,2,0,P|272:168|220:152,1,110,2|8,0:0|0:0,0:0:0:0:
116,188,25990,2,0,L|100:296,1,110,2|8,0:0|0:0,0:0:0:0:
193,356,26717,5,2,0:0:0:0:
300,328,27081,2,0,P|354:322|409:325,1,110,8|2,0:0|0:0,0:0:0:0:
460,304,27626,1,0,0:0:0:0:
460,304,27808,2,0,P|473:280|480:253,1,55,8|0,0:0|0:0,0:0:0:0:
484,200,28172,1,2,0:0:0:0:
484,200,28354,2,0,L|468:92,1,110,0|0,0:0|0:0,0:0:0:0:
357,91,29081,1,0,0:0:0:0:
357,91,29263,2,0,B|348:145,1,55,8|2,0:0|0:0,0:0:0:0:
338,200,29626,5,6,0:0:0:0:
269,286,29990,1,8,0:0:0:0:
160,269,30354,1,2,0:0:0:0:
230,183,30717,1,8,0:0:0:0:
121,165,31081,2,0,L|13:149,1,110,2|8,0:0|0:0,0:0:0:0:
12,38,31808,2,0,L|120:22,1,110,2|8,0:0|0:0,0:0:0:0:
196,102,32536,5,2,0:0:0:0:
284,36,32899,2,0,P|335:19|386:37,1,110,8|2,0:0|0:0,0:0:0:0:
424,80,33445,1,0,0:0:0:0:
424,80,33626,2,0,B|433:134,1,55,8|0,0:0|0:0,0:0:0:0:
416,188,33990,1,2,0:0:0:0:
416,188,34172,2,0,P|396:238|384:292,1,110,0|0,0:0|0:0,0:0:0:0:
292,352,34899,1,0,0:0:0:0:
292,352,35081,2,0,P|266:341|239:336,1,55,8|2,0:0|0:0,0:0:0:0:
192,328,35445,6,0,L|104:341,1,88,6|2,0:0|0:3,0:0:0:0:
76,248,36172,2,0,L|163:234,1,88,8|0,0:0|0:0,0:0:0:0:
252,200,36899,2,0,P|274:162|284:119,1,88,2|2,0:0|0:0,0:0:0:0:
380,132,37626,2,0,L|393:219,1,88,8|2,0:0|0:0,0:0:0:0:
392,268,38172,1,2,0:0:0:0:
392,268,38354,6,0,P|321:316|239:294,1,176,2|8,0:0|0:0,0:0:0:0:
163,234,39445,1,0,0:0:0:0:
176,140,39808,2,0,L|189:52,1,88,2|2,0:0|0:0,0:0:0:0:
286,52,40536,2,0,L|299:140,1,88,8|2,0:0|0:0,0:0:0:0:
316,248,41263,5,6,0:0:0:0:
212,284,41626,2,0,B|158:275,1,55,8|0,0:0|0:0,0:0:0:0:
112,244,41990,2,0,P|99:190|121:141,1,110,2|8,0:0|0:0,0:0:0:0:
168,112,42535,1,0,0:0:0:0:
168,112,42717,2,0,L|276:128,1,110,2|8,0:0|0:0,0:0:0:0:
386,111,43445,1,2,0:0:0:0:
386,111,43627,2,0,B|440:102,1,55,0|8,0:0|0:0,0:0:0:0:
494,93,43990,1,2,0:0:0:0:
466,256,44536,6,0,B|457:310,1,55,8|0,0:0|0:0,0:0:0:0:
426,356,44899,2,0,P|375:374|323:358,1,110,2|8,0:0|0:0,0:0:0:0:
274,336,45445,1,0,0:0:0:0:
274,336,45626,2,0,P|222:320|171:338,1,110,2|8,0:0|0:0,0:0:0:0:
68,300,46354,1,2,0:0:0:0:
68,300,46536,2,0,B|59:246,1,55,0|8,0:0|0:0,0:0:0:0:
50,192,46899,1,2,0:0:0:0:
172,80,47445,6,0,B|181:134,1,55,8|0,0:0|0:0,0:0:0:0:
212,180,47808,2,0,P|263:198|315:182,1,110,2|8,0:0|0:0,0:0:0:0:
360,148,48354,1,0,0:0:0:0:
360,148,48536,1,2,0:0:0:0:
457,194,48899,1,8,0:0:0:0:
463,304,49263,1,2,0:0:0:0:
372,364,49626,1,8,0:0:0:0:
274,315,49990,6,0,P|220:309|165:312,1,110,2|8,0:0|0:0,0:0:0:0:
112,300,50536,1,0,0:0:0:0:
112,300,50717,2,0,P|83:254|87:200,1,110,2|8,0:0|0:0,0:0:0:0:
140,104,51445,1,2,0:0:0:0:
236,160,51808,1,8,0:0:0:0:
316,84,52172,2,0,P|367:67|418:84,1,110,2|8,0:0|0:0,0:0:0:0:
504,156,52899,5,10,0:0:0:0:
504,156,53081,1,10,0:0:0:0:
436,244,53445,2,0,B|381:267|381:267|277:246,1,165,4|0,0:0|0:0,0:0:0:0:
168,240,54354,6,0,P|154:263|146:289,2,55,6|0|8,0:0|0:0|0:0,0:0:0:0:
226,147,55081,2,0,P|218:120|203:97,1,55,2|0,0:0|0:0,0:0:0:0:
156,68,55445,2,0,B|102:59,1,55,8|0,0:0|0:0,0:0:0:0:
52,80,55808,1,4,0:1:0:0:
52,80,55990,2,0,P|24:125|32:179,1,110,0|2,0:0|0:0,0:0:0:0:
124,244,56717,1,0,0:0:0:0:
124,244,56899,2,0,B|178:235,1,55,8|0,0:0|0:0,0:0:0:0:
232,224,57263,5,6,0:0:0:0:
335,260,57626,1,8,0:0:0:0:
417,188,57990,2,0,P|418:160|411:133,1,55,2|0,0:0|0:0,0:0:0:0:
420,80,58354,2,0,P|396:65|370:57,1,55,8|0,0:0|0:0,0:0:0:0:
316,48,58717,1,4,0:1:0:0:
316,48,58899,2,0,L|208:64,1,110,0|2,0:0|0:0,0:0:0:0:
156,160,59626,1,0,0:0:0:0:
156,160,59808,2,0,L|264:176,1,110,8|6,0:0|0:0,0:0:0:0:
335,260,60536,5,8,0:0:0:0:
264,344,60899,2,0,B|210:353,1,55,2|0,0:0|0:0,0:0:0:0:
156,364,61263,1,8,0:0:0:0:
156,364,61445,1,0,0:0:0:0:
60,308,61808,1,0,0:0:0:0:
60,308,61990,2,0,B|51:254,1,55,8|0,0:0|0:0,0:0:0:0:
64,200,62354,2,0,P|111:174|164:182,1,110,2|8,0:0|0:0,0:0:0:0:
264,232,63081,6,0,P|311:258|364:249,1,110,6|8,0:0|0:0,0:0:0:0:
452,180,63808,2,0,L|468:72,1,110,6|8,0:0|0:0,0:0:0:0:
364,32,64536,2,0,B|355:86,1,55,6|0,0:0|0:0,0:0:0:0:
320,128,64899,1,12,0:1:0:0:
320,128,65081,2,0,P|266:136|219:110,1,110,0|4,0:0|0:1,0:0:0:0:
180,72,65626,1,12,0:1:0:0:
76,112,65990,6,0,B|85:166,1,55,6|0,0:0|0:0,0:0:0:0:
128,200,66354,2,0,B|119:254,1,55,8|0,0:0|0:0,0:0:0:0:
108,308,66717,2,0,P|159:290|210:307,1,110,2|8,0:0|0:0,0:0:0:0:
260,332,67263,1,0,0:0:0:0:
260,332,67445,2,0,P|311:349|362:331,1,110,4|8,0:1|0:0,0:0:0:0:
404,296,67990,2,0,L|420:188,1,110,0|0,0:0|0:0,0:0:0:0:
428,132,68536,1,8,0:0:0:0:
336,72,68899,5,6,0:0:0:0:
238,121,69263,1,8,0:0:0:0:
146,60,69626,2,0,P|119:68|96:83,1,55,2|0,0:0|0:0,0:0:0:0:
67,130,69990,2,0,B|58:184,1,55,8|0,0:0|0:0,0:0:0:0:
88,232,70354,2,0,P|139:249|190:231,1,110,4|8,0:1|0:0,0:0:0:0:
240,208,70899,2,0,P|291:190|342:207,1,110,0|0,0:0|0:0,0:0:0:0:
388,240,71445,1,8,0:0:0:0:
336,336,71808,5,6,0:0:0:0:
336,336,71990,2,0,L|228:320,1,110
172,312,72536,2,0,B|163:258,1,55,2|0,0:0|0:0,0:0:0:0:
152,204,72899,1,8,0:0:0:0:
152,204,73081,1,0,0:0:0:0:
212,112,73445,2,0,P|263:94|314:111,1,110,2|0,0:0|0:0,0:0:0:0:
360,140,73990,1,2,0:0:0:0:
462,98,74354,1,8,0:0:0:0:
445,208,74717,6,0,L|429:316,1,110,6|8,0:0|0:0,0:0:0:0:
336,376,75445,1,6,0:0:0:0:
238,325,75808,1,8,0:0:0:0:
331,265,76172,2,0,L|347:157,1,110,6|8,0:0|0:0,0:0:0:0:
288,64,76899,2,0,P|236:46|185:64,1,110,2|8,0:0|0:0,0:0:0:0:
152,108,77445,1,0,0:0:0:0:
152,108,77626,6,0,L|168:216,1,110,6|8,0:0|0:0,0:0:0:0:
180,272,78172,1,0,0:0:0:0:
180,272,78354,1,2,0:0:0:0:
280,320,78717,1,8,0:0:0:0:
364,248,79081,2,0,P|381:196|363:145,1,110,2|8,0:0|0:0,0:0:0:0:
268,88,79808,2,0,L|160:72,1,110,2|8,0:0|0:0,0:0:0:0:
108,96,80354,1,0,0:0:0:0:
108,96,80536,6,0,P|81:143|89:196,1,110,6|8,0:0|0:0,0:0:0:0:
120,244,81081,1,0,0:0:0:0:
120,244,81263,1,2,0:0:0:0:
228,264,81626,2,0,P|256:263|282:255,1,55,8|0,0:0|0:0,0:0:0:0:
332,232,81990,1,2,0:0:0:0:
376,132,82353,1,8,0:0:0:0:
311,44,82717,1,2,0:0:0:0:
202,57,83080,1,8,0:0:0:0:
158,157,83445,6,0,L|174:265,1,110,6|8,0:0|0:0,0:0:0:0:
200,316,83990,1,0,0:0:0:0:
200,316,84172,2,0,P|250:333|302:316,1,110,2|8,0:0|0:0,0:0:0:0:
344,280,84717,1,0,0:0:0:0:
344,280,84899,1,2,0:0:0:0:
296,180,85263,1,8,0:0:0:0:
376,103,85626,1,2,0:0:0:0:
473,155,85990,1,8,0:0:0:0:
453,263,86354,1,6,0:0:0:0:
256,192,86445,12,4,87717,0:0:0:0:
