osu file format v14

[General]
AudioFilename: eromanga.mp3
AudioLeadIn: 0
PreviewTime: 54263
Countdown: 0
SampleSet: Soft
StackLeniency: 0.7
Mode: 0
LetterboxInBreaks: 0
WidescreenStoryboard: 1

[Editor]
DistanceSpacing: 1.6
BeatDivisor: 4
GridSize: 4
TimelineZoom: 1.5

[Metadata]
Title:Hitorigoto -TV MIX-
TitleUnicode:ヒトリゴト -TV MIX-
Artist:ClariS
ArtistUnicode:ClariS
Creator:Doormat
Version:Little's Insane
Source:エロマンガ先生
Tags:xxdeathx Little CloudSplash16 StarrStyx Kencho eromanga sensei ero manga eromanga-sensei eromangasensei opening tv size
BeatmapID:1264763
BeatmapSetID:596704

[Difficulty]
HPDrainRate:6
CircleSize:4
OverallDifficulty:8
ApproachRate:9
SliderMultiplier:1.8
SliderTickRate:1

[Events]
//Background and Video events
0,0,"eromanga.png",0,0
Video,-430,"eromanga opening.avi"
//Break Periods
//Storyboard Layer 0 (Background)
//Storyboard Layer 1 (Fail)
//Storyboard Layer 2 (Pass)
//Storyboard Layer 3 (Foreground)
//Storyboard Sound Samples

[TimingPoints]
536,363.636363636364,4,2,1,80,1,0
536,-125,4,2,1,80,0,0
12172,-111.111111111111,4,2,1,70,0,0
23808,-111.111111111111,4,2,1,60,0,0
35445,-142.857142857143,4,2,1,60,0,0
40536,-125,4,2,1,60,0,0
41263,-111.111111111111,4,2,1,60,0,0
44172,-111.111111111111,4,2,1,65,0,0
47081,-111.111111111111,4,2,1,70,0,0
49990,-111.111111111111,4,2,1,75,0,0
52899,-111.111111111111,4,2,1,80,0,0
54354,-100,4,2,1,85,0,1
65899,-100,4,2,1,85,0,0
65990,-100,4,2,1,85,0,1
86354,-100,4,2,1,80,0,0

[Colours]
Combo1 : 52,164,178
Combo2 : 254,194,206
Combo3 : 179,220,233
Combo4 : 235,142,173

[HitObjects]
24,232,536,5,10,0:0:0:0:
224,192,717,1,8,0:0:0:0:
224,192,1445,2,0,L|204:344,1,144,0|0,0:0|0:0,0:0:0:0:
116,284,1990,5,10,0:0:0:0:
316,244,2172,1,8,0:0:0:0:
316,244,2899,2,0,L|334:101,1,144,0|0,0:0|0:0,0:0:0:0:
424,152,3445,5,10,0:0:0:0:
224,192,3627,1,8,0:0:0:0:
224,192,4354,2,0,L|81:174,1,144,0|0,0:0|0:0,0:0:0:0:
272,250,4899,6,0,P|299:186|263:127,1,144,6|2,0:0|0:3,0:0:0:0:
96,200,5626,2,0,L|107:295,2,96,10|2|2,0:0|0:0|0:0,0:0:0:0:
152,104,6354,5,10,0:0:0:0:
272,250,6536,1,8,0:0:0:0:
272,250,7263,2,0,L|292:98,1,144,0|0,0:0|0:0,0:0:0:0:
180,196,7808,5,10,0:0:0:0:
380,156,7989,1,8,0:0:0:0:
380,156,8717,2,0,P|416:215|389:279,1,144,0|0,0:0|0:0,0:0:0:0:
300,342,9263,5,10,0:0:0:0:
180,196,9445,1,8,0:0:0:0:
180,196,10172,2,0,L|161:338,1,144,0|0,0:0|0:0,0:0:0:0:
238,146,10717,6,0,P|170:120|115:156,1,144,6|2,0:0|0:3,0:0:0:0:
188,323,11445,2,0,L|283:312,2,96,10|2|2,0:0|0:0|0:0,0:0:0:0:
12,248,12172,6,0,L|21:167,1,80.9999975280763,6|0,0:0|0:0,0:0:0:0:
190,106,12536,2,0,L|180:187,1,80.9999975280763,8|0,0:0|0:0,0:0:0:0:
283,311,12899,1,2,0:0:0:0:
352,168,13081,1,0,0:0:0:0:
200,208,13263,1,8,0:0:0:0:
368,264,13445,6,0,P|407:272|445:261,1,80.9999975280763,0|2,0:0|0:0,0:0:0:0:
388,92,13808,2,0,P|348:83|310:94,1,80.9999975280763,0|8,0:0|0:0,0:0:0:0:
200,208,14172,2,0,L|190:288,1,80.9999975280763,0|2,0:0|0:0,0:0:0:0:
316,208,14536,1,0,0:0:0:0:
200,96,14717,1,8,0:0:0:0:
68,192,14899,1,2,0:0:0:0:
68,192,14990,1,0,0:0:0:0:
68,192,15081,6,0,L|58:272,1,80.9999975280763,6|0,0:0|0:0,0:0:0:0:
228,368,15445,2,0,P|236:329|225:291,1,80.9999975280763,8|0,0:0|0:0,0:0:0:0:
68,192,15808,1,2,0:0:0:0:
200,96,15990,1,0,0:0:0:0:
36,80,16172,1,8,0:0:0:0:
172,195,16354,6,0,L|252:185,1,80.9999975280763,0|2,0:0|0:0,0:0:0:0:
432,284,16717,2,0,L|352:274,1,80.9999975280763,0|8,0:0|0:0,0:0:0:0:
228,368,17081,2,0,L|238:288,1,80.9999975280763,0|2,0:0|0:0,0:0:0:0:
364,160,17445,1,0,0:0:0:0:
432,284,17626,1,8,0:0:0:0:
252,185,17808,1,2,0:0:0:0:
252,185,17899,1,0,0:0:0:0:
252,185,17990,6,0,P|244:146|255:108,1,80.9999975280763,6|0,0:0|0:0,0:0:0:0:
440,40,18354,2,0,P|448:79|437:117,1,80.9999975280763,8|0,0:0|0:0,0:0:0:0:
328,292,18717,1,2,0:0:0:0:
328,148,18899,1,0,0:0:0:0:
436,240,19081,1,8,0:0:0:0:
264,220,19263,6,0,L|184:210,1,80.9999975280763,0|2,0:0|0:0,0:0:0:0:
72,88,19626,2,0,L|152:78,1,80.9999975280763,0|8,0:0|0:0,0:0:0:0:
304,73,19990,2,0,P|325:107|328:148,1,80.9999975280763,0|2,0:0|0:0,0:0:0:0:
200,300,20354,1,0,0:0:0:0:
245,134,20536,1,8,0:0:0:0:
76,232,20717,1,2,0:0:0:0:
76,232,20808,1,0,0:0:0:0:
76,232,20899,6,0,L|156:222,1,80.9999975280763,6|0,0:0|0:0,0:0:0:0:
320,324,21263,2,0,L|400:334,1,80.9999975280763,8|0,0:0|0:0,0:0:0:0:
432,172,21626,1,2,0:0:0:0:
320,324,21808,1,0,0:0:0:0:
500,268,21990,1,8,0:0:0:0:
316,204,22172,6,0,L|306:124,1,80.9999975280763,0|2,0:0|0:0,0:0:0:0:
152,68,22536,2,0,L|142:148,1,80.9999975280763,0|8,0:0|0:0,0:0:0:0:
44,286,22899,2,0,L|124:276,1,80.9999975280763,0|2,0:0|0:0,0:0:0:0:
316,204,23263,1,0,0:0:0:0:
156,264,23445,1,8,0:0:0:0:
357,271,23626,1,2,0:0:0:0:
357,271,23717,1,2,0:0:0:0:
357,271,23808,6,0,P|393:202|353:135,1,161.999995056153,6|8,0:0|0:0,0:0:0:0:
188,92,24354,1,0,0:0:0:0:
238,207,24536,2,0,P|277:215|316:204,1,80.9999975280763,2|0,0:0|0:0,0:0:0:0:
396,64,24899,2,0,P|357:52|318:60,1,80.9999975280763,8|0,0:0|0:0,0:0:0:0:
168,116,25263,6,0,P|128:123|90:112,1,80.9999975280763,2|0,0:0|0:0,0:0:0:0:
0,228,25626,2,0,L|10:308,1,80.9999975280763,8|0,0:0|0:0,0:0:0:0:
148,360,25990,2,0,L|158:280,1,80.9999975280763,2|0,0:0|0:0,0:0:0:0:
296,228,26354,2,0,L|306:308,1,80.9999975280763,8|0,0:0|0:0,0:0:0:0:
404,116,26717,5,2,0:0:0:0:
204,192,26899,1,0,0:0:0:0:
306,308,27081,1,8,0:0:0:0:
280,96,27263,1,0,0:0:0:0:
192,288,27445,1,2,0:0:0:0:
392,212,27627,1,0,0:0:0:0:
188,152,27808,1,8,0:0:0:0:
306,308,27990,1,0,0:0:0:0:
404,116,28172,5,2,0:0:0:0:
404,116,28354,2,0,L|394:36,1,80.9999975280763,0|8,0:0|0:0,0:0:0:0:
188,152,28717,2,0,L|178:232,1,80.9999975280763,0|2,0:0|0:0,0:0:0:0:
306,308,29081,1,0,0:0:0:0:
160,324,29263,1,8,0:0:0:0:
347,241,29444,1,2,0:0:0:0:
347,241,29535,1,2,0:0:0:0:
347,241,29626,6,0,P|383:310|343:377,1,161.999995056153,6|8,0:0|0:0,0:0:0:0:
160,324,30172,1,0,0:0:0:0:
224,200,30354,2,0,L|214:120,1,80.9999975280763,2|0,0:0|0:0,0:0:0:0:
72,64,30717,2,0,L|62:144,1,80.9999975280763,8|0,0:0|0:0,0:0:0:0:
85,299,31081,6,0,P|119:320|160:324,1,80.9999975280763,2|0,0:0|0:0,0:0:0:0:
364,348,31445,2,0,L|354:268,1,80.9999975280763,8|0,0:0|0:0,0:0:0:0:
224,200,31808,2,0,L|234:120,1,80.9999975280763,2|0,0:0|0:0,0:0:0:0:
384,56,32172,2,0,L|394:136,1,80.9999975280763,8|0,0:0|0:0,0:0:0:0:
252,308,32536,5,2,0:0:0:0:
234,119,32717,1,0,0:0:0:0:
384,264,32899,1,8,0:0:0:0:
184,232,33081,1,0,0:0:0:0:
368,148,33263,1,2,0:0:0:0:
252,308,33445,1,0,0:0:0:0:
234,119,33626,1,8,0:0:0:0:
384,264,33808,1,0,0:0:0:0:
208,324,33990,5,2,0:0:0:0:
208,324,34172,2,0,L|128:314,1,80.9999975280763,0|8,0:0|0:0,0:0:0:0:
28,172,34536,2,0,L|108:162,1,80.9999975280763,0|2,0:0|0:0,0:0:0:0:
280,192,34899,1,0,0:0:0:0:
140,168,35081,1,8,0:0:0:0:
325,257,35263,1,2,0:0:0:0:
325,257,35354,1,2,0:0:0:0:
325,257,35445,6,0,P|357:205|344:145,1,125.999996154785,6|2,0:0|0:3,0:0:0:0:
95,103,36172,2,0,P|63:155|76:215,1,125.999996154785,8|0,0:0|0:0,0:0:0:0:
203,176,36717,1,2,0:0:0:0:
203,176,36899,6,0,L|140:168,1,62.9999980773926,2|0,0:0|0:0,0:0:0:0:
104,328,37263,2,0,L|166:320,1,62.9999980773926,2|0,0:0|0:0,0:0:0:0:
336,344,37626,2,0,L|352:219,1,125.999996154785,8|2,0:0|0:0,0:0:0:0:
300,92,38172,1,2,0:0:0:0:
300,92,38354,6,0,P|239:78|187:110,1,125.999996154785,2|2,0:0|0:3,0:0:0:0:
184,320,39081,2,0,P|245:334|297:302,1,125.999996154785,8|0,0:0|0:0,0:0:0:0:
376,180,39626,1,2,0:0:0:0:
253,156,39808,6,0,L|261:219,1,62.9999980773926,2|0,0:0|0:0,0:0:0:0:
184,320,40172,2,0,L|192:383,1,62.9999980773926,2|0,0:0|0:0,0:0:0:0:
48,240,40536,6,0,P|25:232|1:230,2,48,8|2|2,0:0|0:0|0:0,0:0:0:0:
116,168,40899,2,0,P|139:166|162:158,2,48,2|2|2,0:0|0:0|0:0,0:0:0:0:
16,128,41263,2,0,P|5:89|13:50,1,80.9999975280763,6|0,0:0|0:0,0:0:0:0:
224,96,41626,5,8,0:0:0:0:
116,168,41808,1,0,0:0:0:0:
224,240,41990,2,0,L|304:230,1,80.9999975280763,2|0,0:0|0:0,0:0:0:0:
116,168,42354,5,8,0:0:0:0:
224,240,42536,1,0,0:0:0:0:
116,312,42717,2,0,L|36:302,1,80.9999975280763,2|0,0:0|0:0,0:0:0:0:
224,240,43081,5,8,0:0:0:0:
116,168,43263,1,0,0:0:0:0:
116,312,43445,1,2,0:0:0:0:
224,96,43626,1,0,0:0:0:0:
224,96,43990,5,0,0:0:0:0:
299,199,44172,2,0,P|310:238|302:277,1,80.9999975280763,2|0,0:0|0:0,0:0:0:0:
116,312,44536,5,8,0:0:0:0:
224,240,44718,1,0,0:0:0:0:
116,168,44900,2,0,L|36:178,1,80.9999975280763,2|0,0:0|0:0,0:0:0:0:
224,240,45263,5,8,0:0:0:0:
116,168,45445,1,0,0:0:0:0:
224,96,45627,2,0,L|304:106,1,80.9999975280763,2|0,0:0|0:0,0:0:0:0:
116,168,45990,5,8,0:0:0:0:
224,240,46172,1,0,0:0:0:0:
224,96,46354,1,2,0:0:0:0:
116,312,46535,1,0,0:0:0:0:
116,312,46899,5,2,0:0:0:0:
232,364,47081,2,0,L|312:354,1,80.9999975280763,6|0,0:0|0:0,0:0:0:0:
396,200,47445,1,8,0:0:0:0:
227,162,47626,1,0,0:0:0:0:
227,162,47808,6,0,P|216:201|224:240,1,80.9999975280763,2|0,0:0|0:0,0:0:0:0:
396,200,48172,2,0,P|407:161|399:122,1,80.9999975280763,8|0,0:0|0:0,0:0:0:0:
244,40,48536,2,0,L|164:30,1,80.9999975280763,2|0,0:0|0:0,0:0:0:0:
120,188,48899,5,8,0:0:0:0:
307,110,49081,1,0,0:0:0:0:
307,266,49263,5,2,0:0:0:0:
120,188,49445,1,0,0:0:0:0:
120,344,49626,5,8,0:0:0:0:
307,266,49808,1,2,0:0:0:0:
106,109,49990,6,0,P|46:158|56:235,1,161.999995056153,2|8,0:0|0:0,0:0:0:0:
212,304,50536,1,0,0:0:0:0:
316,204,50717,2,0,P|320:164|306:126,1,80.9999975280763,2|0,0:0|0:0,0:0:0:0:
120,188,51081,1,8,0:0:0:0:
212,304,51263,1,0,0:0:0:0:
212,304,51354,1,0,0:0:0:0:
212,304,51445,6,0,L|292:294,1,80.9999975280763,2|0,0:0|0:0,0:0:0:0:
432,196,51808,2,0,L|352:186,1,80.9999975280763,8|0,0:0|0:0,0:0:0:0:
198,88,52172,2,0,L|208:168,1,80.9999975280763,2|0,0:0|0:0,0:0:0:0:
292,294,52536,1,8,0:0:0:0:
396,104,52717,1,2,0:0:0:0:
396,104,52808,1,2,0:0:0:0:
396,104,52899,5,10,0:0:0:0:
240,180,53081,2,0,P|277:193|317:189,1,80.9999975280763,10|2,0:0|0:0,0:0:0:0:
476,296,53445,2,0,P|436:291|398:305,1,80.9999975280763,4|0,0:0|0:0,0:0:0:0:
256,336,53808,2,0,L|258:315,8,20.2499993820191,0|0|0|0|0|0|0|0|0,0:0|0:0|0:0|0:0|0:0|0:0|0:0|0:0|0:0,0:0:0:0:
394,217,54354,6,0,P|397:172|378:132,1,90,6|0,0:0|0:0,0:0:0:0:
240,64,54717,2,0,L|150:53,1,90,8|0,0:0|0:0,0:0:0:0:
44,176,55081,1,2,0:0:0:0:
168,160,55263,1,0,0:0:0:0:
19,299,55445,1,8,0:0:0:0:
222,274,55626,1,0,0:0:0:0:
131,362,55808,5,4,0:1:0:0:
131,362,55990,2,0,L|120:272,1,90,0|8,0:0|0:0,0:0:0:0:
288,218,56354,1,0,0:0:0:0:
288,218,56536,2,0,P|306:258|303:302,1,90,4|0,0:1|0:0,0:0:0:0:
120,272,56899,1,8,0:0:0:0:
288,218,57081,1,0,0:0:0:0:
152,156,57263,6,0,L|62:145,1,90,6|0,0:0|0:0,0:0:0:0:
83,351,57626,2,0,P|126:358|168:344,1,90,8|0,0:0|0:0,0:0:0:0:
288,218,57990,1,2,0:0:0:0:
304,342,58172,1,0,0:0:0:0:
402,164,58354,1,8,0:0:0:0:
427,367,58535,1,0,0:0:0:0:
490,255,58717,5,4,0:1:0:0:
490,255,58899,2,0,L|400:266,1,90,0|8,0:0|0:0,0:0:0:0:
240,192,59263,1,0,0:0:0:0:
394,77,59445,2,0,P|408:119|402:164,1,90,4|0,0:1|0:0,0:0:0:0:
284,272,59808,1,8,0:0:0:0:
160,148,59990,2,0,L|171:58,1,90,0|6,0:0|0:0,0:0:0:0:
323,127,60354,5,0,0:0:0:0:
180,252,60536,2,0,L|90:241,1,90,8|0,0:0|0:0,0:0:0:0:
256,360,60899,1,2,0:0:0:0:
332,208,61081,1,0,0:0:0:0:
180,252,61263,1,8,0:0:0:0:
360,336,61445,2,0,L|450:325,1,90,0|6,0:0|0:0,0:0:0:0:
432,108,61808,5,0,0:0:0:0:
336,240,61990,1,8,0:0:0:0:
492,220,62172,1,0,0:0:0:0:
323,127,62354,2,0,P|279:117|236:127,1,90,2|0,0:0|0:0,0:0:0:0:
152,336,62717,2,0,P|195:345|238:335,1,90,8|0,0:0|0:0,0:0:0:0:
335,240,63081,5,6,0:0:0:0:
132,128,63263,1,0,0:0:0:0:
354,212,63445,5,8,0:0:0:0:
108,166,63626,1,0,0:0:0:0:
364,179,63808,5,6,0:0:0:0:
104,210,63990,1,0,0:0:0:0:
361,146,64172,5,8,0:0:0:0:
118,252,64354,1,0,0:0:0:0:
349,115,64536,5,6,0:0:0:0:
427,224,64717,1,0,0:0:0:0:
293,237,64899,1,12,0:1:0:0:
280,103,65081,1,0,0:0:0:0:
414,90,65263,1,4,0:1:0:0:
467,213,65445,1,4,0:1:0:0:
366,301,65626,1,12,0:1:0:0:
251,232,65808,1,4,0:1:0:0:
128,288,65990,6,0,L|117:378,1,90,6|0,0:0|0:0,0:0:0:0:
251,232,66354,1,8,0:0:0:0:
92,164,66536,1,0,0:0:0:0:
196,80,66717,2,0,P|239:70|282:80,1,90,2|0,0:0|0:0,0:0:0:0:
424,172,67081,1,8,0:0:0:0:
396,36,67263,1,0,0:0:0:0:
312,176,67445,6,0,B|288:236|348:272|321:351,1,180,4|8,0:1|0:0,0:0:0:0:
168,336,67990,2,0,P|198:266|248:323,1,180,0|0,0:0|0:0,0:0:0:0:
84,336,68536,2,0,P|82:291|97:249,1,90,8|0,0:0|0:0,0:0:0:0:
248,323,68899,5,6,0:0:0:0:
388,204,69081,1,0,0:0:0:0:
252,64,69263,1,8,0:0:0:0:
308,252,69445,1,0,0:0:0:0:
376,88,69626,1,2,0:0:0:0:
168,148,69808,1,0,0:0:0:0:
308,252,69990,1,8,0:0:0:0:
252,64,70172,1,0,0:0:0:0:
95,168,70354,6,0,P|159:223|235:184,1,180,4|8,0:1|0:0,0:0:0:0:
376,88,70899,2,0,B|368:144|368:144|372:176|372:176|360:266,1,180,0|0,0:0|0:0,0:0:0:0:
260,320,71445,1,8,0:0:0:0:
168,148,71626,1,0,0:0:0:0:
88,264,71808,5,6,0:0:0:0:
88,264,71990,2,0,L|178:253,1,90,0|8,0:0|0:0,0:0:0:0:
376,160,72354,1,0,0:0:0:0:
292,320,72536,1,2,0:0:0:0:
248,168,72717,1,0,0:0:0:0:
380,264,72899,1,8,0:0:0:0:
496,152,73081,2,0,L|507:62,1,90,0|6,0:0|0:0,0:0:0:0:
248,168,73445,5,0,0:0:0:0:
380,264,73626,2,0,P|423:273|465:260,1,90,8|0,0:0|0:0,0:0:0:0:
288,96,73990,2,0,P|244:86|202:99,1,90,2|0,0:0|0:0,0:0:0:0:
128,280,74354,1,8,0:0:0:0:
248,168,74536,1,0,0:0:0:0:
380,264,74717,6,0,L|391:354,1,90,6|0,0:0|0:0,0:0:0:0:
128,280,75081,2,0,L|117:190,1,90,8|0,0:0|0:0,0:0:0:0:
288,96,75445,2,0,L|378:107,1,90,6|0,0:0|0:0,0:0:0:0:
218,291,75808,2,0,L|128:280,1,90,8|0,0:0|0:0,0:0:0:0:
65,122,76172,6,0,P|105:104|149:110,1,90,6|0,0:0|0:0,0:0:0:0:
366,191,76536,2,0,P|383:150|377:106,1,90,8|0,0:0|0:0,0:0:0:0:
184,208,76899,2,0,P|166:248|172:292,1,90,2|0,0:0|0:0,0:0:0:0:
376,296,77263,1,8,0:0:0:0:
248,260,77445,1,0,0:0:0:0:
391,375,77626,6,0,P|453:316|427:235,1,180,6|8,0:0|0:0,0:0:0:0:
248,260,78172,1,0,0:0:0:0:
376,296,78354,2,0,L|466:285,1,90,2|0,0:0|0:0,0:0:0:0:
384,108,78717,2,0,L|294:97,1,90,8|0,0:0|0:0,0:0:0:0:
120,184,79081,6,0,P|102:224|108:268,1,90,2|0,0:0|0:0,0:0:0:0:
308,352,79445,2,0,P|326:312|320:268,1,90,8|0,0:0|0:0,0:0:0:0:
223,135,79808,2,0,P|220:90|242:51,1,90,2|0,0:0|0:0,0:0:0:0:
388,120,80172,1,8,0:0:0:0:
388,120,80354,1,0,0:0:0:0:
240,224,80536,6,0,B|184:244|184:244|65:224,1,180,6|8,0:0|0:0,0:0:0:0:
32,88,81081,1,0,0:0:0:0:
156,60,81263,2,0,P|177:98|175:143,1,90,2|0,0:0|0:0,0:0:0:0:
40,244,81626,2,0,P|18:282|20:327,1,90,8|0,0:0|0:0,0:0:0:0:
164,380,81990,6,0,P|210:306|173:228,2,180,2|8|2,0:0|0:0|0:0,0:0:0:0:
60,196,82899,1,0,0:0:0:0:
120,301,83081,1,8,0:0:0:0:
192,136,83263,1,0,0:0:0:0:
284,244,83445,6,0,P|243:262|199:255,1,90,6|0,0:0|0:0,0:0:0:0:
8,128,83808,2,0,P|48:109|92:116,1,90,8|0,0:0|0:0,0:0:0:0:
284,244,84172,1,2,0:0:0:0:
212,112,84354,1,0,0:0:0:0:
104,240,84536,2,0,L|93:330,1,90,8|0,0:0|0:0,0:0:0:0:
344,296,84899,6,0,P|362:255|355:211,1,90,2|0,0:0|0:0,0:0:0:0:
212,112,85263,2,0,L|122:101,1,90,8|0,0:0|0:0,0:0:0:0:
124,288,85626,2,0,P|167:294|208:276,1,90,2|0,0:0|0:0,0:0:0:0:
304,132,85990,2,0,L|315:42,1,90,8|0,0:0|0:0,0:0:0:0:
60,196,86354,1,6,0:0:0:0:
256,192,86445,12,4,87717,0:0:0:0:
