osu file format v14

[General]
AudioFilename: eromanga.mp3
AudioLeadIn: 0
PreviewTime: 54263
Countdown: 0
SampleSet: Soft
StackLeniency: 0.7
Mode: 0
LetterboxInBreaks: 0
WidescreenStoryboard: 1

[Editor]
DistanceSpacing: 1
BeatDivisor: 4
GridSize: 4
TimelineZoom: 1.5

[Metadata]
Title:Hitorigoto -TV MIX-
TitleUnicode:ヒトリゴト -TV MIX-
Artist:ClariS
ArtistUnicode:ClariS
Creator:Doormat
Version:Little's Easy
Source:エロマンガ先生
Tags:xxdeathx Little CloudSplash16 StarrStyx Kencho eromanga sensei ero manga eromanga-sensei eromangasensei opening tv size
BeatmapID:1262271
BeatmapSetID:596704

[Difficulty]
HPDrainRate:2
CircleSize:3
OverallDifficulty:2
ApproachRate:3
SliderMultiplier:0.9
SliderTickRate:1

[Events]
//Background and Video events
0,0,"eromanga.png",0,0
Video,-430,"eromanga opening.avi"
//Break Periods
//Storyboard Layer 0 (Background)
//Storyboard Layer 1 (Fail)
//Storyboard Layer 2 (Pass)
//Storyboard Layer 3 (Foreground)
//Storyboard Sound Samples

[TimingPoints]
536,363.636363636364,4,2,1,80,1,0
12172,-100,4,2,1,70,0,0
23808,-100,4,2,1,60,0,0
44172,-100,4,2,1,65,0,0
47081,-100,4,2,1,70,0,0
49990,-100,4,2,1,75,0,0
52899,-100,4,2,1,80,0,0
54354,-100,4,2,1,85,0,1
65899,-100,4,2,1,85,0,0
65990,-100,4,2,1,85,0,1
86354,-100,4,2,1,80,0,0

[Colours]
Combo1 : 52,164,178
Combo2 : 254,194,206
Combo3 : 179,220,233
Combo4 : 235,142,173

[HitObjects]
284,204,536,5,10,0:0:0:0:
204,244,899,2,0,L|112:236,2,90
279,294,1990,2,0,P|302:332|313:375,1,90,10|0,0:0|0:0,0:0:0:0:
396,340,2717,2,0,P|407:296|430:258,1,90,0|0,0:0|0:0,0:0:0:0:
490,190,3445,5,10,0:0:0:0:
210,122,4899,2,0,P|168:197|212:270,2,180,6|10|10,0:0|0:0|0:0,0:0:0:0:
296,96,6717,6,0,L|304:4,2,90,0|0|0,0:0|0:0|0:0,0:0:0:0:
368,152,7808,2,0,P|406:175|449:186,1,90,10|0,0:0|0:0,0:0:0:0:
414,270,8535,2,0,P|370:281|332:304,1,90,0|0,0:0|0:0,0:0:0:0:
264,364,9263,5,10,0:0:0:0:
64,156,10717,2,0,L|72:64,2,90,6|2|10,0:0|0:3|0:0,0:0:0:0:
128,220,11808,1,0,0:0:0:0:
212,188,12172,6,0,P|255:176|300:178,1,90,6|8,0:0|0:0,0:0:0:0:
388,200,12899,2,0,P|416:259|393:320,1,135,2|2,0:0|0:1,0:0:0:0:
316,368,13808,1,2,0:1:0:0:
232,336,14172,1,2,0:1:0:0:
144,359,14536,2,0,P|78:366|28:323,1,135,2|6,0:1|0:0,0:0:0:0:
4,236,15445,5,8,0:0:0:0:
56,164,15808,2,0,B|120:144|120:144|184:164,1,135,2|2,0:0|0:1,0:0:0:0:
268,196,16717,1,2,0:1:0:0:
352,164,17081,2,0,L|360:72,2,90,2|2|2,0:1|0:1|0:0,0:0:0:0:
448,260,18354,5,8,0:0:0:0:
408,340,18717,2,0,P|349:368|288:345,1,135,2|2,0:0|0:1,0:0:0:0:
224,280,19626,1,2,0:1:0:0:
260,196,19990,1,2,0:1:0:0:
196,132,20354,2,0,L|61:117,1,135,2|6,0:1|0:0,0:0:0:0:
0,184,21263,5,8,0:0:0:0:
64,248,21626,2,0,P|125:271|184:243,1,135,2|2,0:0|0:1,0:0:0:0:
260,196,22535,1,2,0:1:0:0:
344,228,22899,2,0,L|352:320,2,90,2|2|2,0:1|0:1|0:0,0:0:0:0:
292,104,24172,6,0,L|300:12,2,90,8|2|8,0:0|0:0|0:0,0:0:0:0:
232,172,25263,2,0,P|189:183|145:173,1,90,2|8,0:0|0:0,0:0:0:0:
68,216,25990,2,0,L|60:308,1,90,2|8,0:0|0:0,0:0:0:0:
124,368,26717,5,2,0:0:0:0:
195,312,27081,2,0,B|263:284|303:340|371:312,1,180,8|8,0:0|0:0,0:0:0:0:
429,242,28172,2,0,P|460:301|444:365,2,135,2|0|8,0:0|0:0|0:0,0:0:0:0:
348,204,29626,5,6,0:0:0:0:
280,264,29990,2,0,L|272:356,2,90,8|2|8,0:0|0:0|0:0,0:0:0:0:
348,204,31081,2,0,L|340:112,1,90,2|8,0:0|0:0,0:0:0:0:
272,56,31808,2,0,P|229:45|185:55,1,90,2|8,0:0|0:0,0:0:0:0:
112,108,32536,5,2,0:0:0:0:
188,156,32899,2,0,B|220:224|156:264|188:332,1,180,8|8,0:0|0:0,0:0:0:0:
269,292,33990,2,0,P|332:274|390:305,2,135,2|0|8,0:0|0:0|0:0,0:0:0:0:
188,331,35445,6,0,L|100:315,1,90,6|2,0:0|0:3,0:0:0:0:
99,225,36172,2,0,L|187:209,1,90,8|0,0:0|0:0,0:0:0:0:
268,168,36899,2,0,P|291:130|302:87,1,90,2|2,0:0|0:0,0:0:0:0:
392,86,37626,2,0,P|402:129|426:167,1,90,8|2,0:0|0:0,0:0:0:0:
426,258,38354,6,0,P|402:296|391:339,1,90,2|2,0:0|0:3,0:0:0:0:
304,364,39081,2,0,P|260:351|216:352,1,90,8|0,0:0|0:0,0:0:0:0:
128,360,39808,2,0,P|64:302|88:220,1,180,2|8,0:0|0:0,0:0:0:0:
168,176,40899,1,0,0:0:0:0:
256,196,41263,6,0,P|300:196|343:184,1,90,6|8,0:0|0:0,0:0:0:0:
344,93,41990,2,0,P|300:80|256:81,1,90,2|8,0:0|0:0,0:0:0:0:
186,138,42717,2,0,P|142:149|97:148,1,90,2|8,0:0|0:0,0:0:0:0:
34,213,43445,2,0,P|81:262|106:325,1,135,2|0,0:0|0:0,0:0:0:0:
236,360,44536,5,8,0:0:0:0:
316,320,44899,2,0,P|356:312|416:320,1,90,2|8,0:0|0:0,0:0:0:0:
488,284,45626,2,0,P|496:240|492:180,1,90,2|8,0:0|0:0,0:0:0:0:
460,112,46354,2,0,P|401:82|338:101,1,135,2|2,0:0|0:0,0:0:0:0:
236,192,47445,5,8,0:0:0:0:
148,184,47808,2,0,L|58:176,1,90,2|8,0:0|0:0,0:0:0:0:
4,248,48536,1,2,0:0:0:0:
52,324,48899,2,0,P|95:333|138:322,1,90,8|2,0:0|0:0,0:0:0:0:
216,276,49626,1,8,0:0:0:0:
216,276,49990,6,0,B|308:228|384:324|478:276,1,270,2|8,0:0|0:0,0:0:0:0:
256,192,51445,12,10,52899,0:0:0:0:
448,128,54354,5,6,0:0:0:0:
384,192,54717,2,0,P|339:196|296:184,1,90,8|2,0:0|0:0,0:0:0:0:
220,136,55445,1,8,0:0:0:0:
144,184,55808,2,0,P|124:248|121:315,2,135,4|0|8,0:1|0:0|0:0,0:0:0:0:
220,136,57263,5,6,0:0:0:0:
296,184,57626,2,0,P|308:227|303:271,1,90,8|2,0:0|0:0,0:0:0:0:
247,342,58354,1,8,0:0:0:0:
336,356,58717,2,0,L|480:336,2,135,4|0|8,0:1|0:0|0:0,0:0:0:0:
247,342,60172,6,0,P|203:330|158:328,1,90,6|8,0:0|0:0,0:0:0:0:
75,295,60899,2,0,P|60:253|60:209,1,90,2|8,0:0|0:0,0:0:0:0:
111,135,61626,1,6,0:0:0:0:
195,103,61990,2,0,L|203:13,2,90,8|2|8,0:0|0:0|0:0,0:0:0:0:
256,172,63081,6,0,P|299:183|342:174,1,90,6|8,0:0|0:0,0:0:0:0:
428,204,63808,2,0,L|436:294,1,90,6|8,0:0|0:0,0:0:0:0:
364,348,64536,2,0,P|288:304|200:328,1,180,6|4,0:0|0:1,0:0:0:0:
120,360,65626,1,12,0:1:0:0:
64,288,65990,6,0,L|56:198,1,90,6|8,0:0|0:0,0:0:0:0:
108,124,66717,2,0,P|151:112|194:121,1,90,2|8,0:0|0:0,0:0:0:0:
284,136,67445,2,0,P|315:77|297:13,2,135,4|0|8,0:1|0:0|0:0,0:0:0:0:
227,206,68899,6,0,P|215:249|224:292,1,90,6|8,0:0|0:0,0:0:0:0:
302,338,69626,2,0,L|392:330,1,90,2|8,0:0|0:0,0:0:0:0:
430,249,70354,2,0,P|475:297|474:364,2,135,4|0|8,0:1|0:0|0:0,0:0:0:0:
359,193,71808,6,0,P|336:155|325:112,1,90,6|8,0:0|0:0,0:0:0:0:
234,111,72536,2,0,P|223:154|199:192,1,90,2|8,0:0|0:0,0:0:0:0:
128,248,73263,1,6,0:0:0:0:
44,216,73626,2,0,L|36:126,2,90,8|2|8,0:0|0:0|0:0,0:0:0:0:
60,304,74717,6,0,P|156:332|208:284,1,180,6|2,0:0|0:0,0:0:0:0:
312,136,76172,2,0,L|332:224,1,90,6|8,0:0|0:0,0:0:0:0:
422,223,76899,2,0,L|442:135,1,90,2|8,0:0|0:0,0:0:0:0:
377,71,77626,6,0,P|295:45|228:99,1,180,6|2,0:0|0:0,0:0:0:0:
92,216,79081,2,0,P|54:239|11:250,1,90,2|8,0:0|0:0,0:0:0:0:
46,334,79808,2,0,P|90:345|128:368,1,90,2|8,0:0|0:0,0:0:0:0:
216,352,80536,6,0,B|223:308|223:308|219:263|219:263|235:174,1,180,6|2,0:0|0:0,0:0:0:0:
304,116,81626,1,8,0:0:0:0:
392,135,81990,2,0,P|430:213|389:290,1,180,2|2,0:0|0:0,0:0:0:0:
305,320,83081,1,8,0:0:0:0:
216,304,83445,6,0,L|38:272,1,180,6|2,0:0|0:0,0:0:0:0:
120,112,84899,2,0,P|163:101|207:111,1,90,2|8,0:0|0:0,0:0:0:0:
292,140,85626,2,0,P|335:149|378:138,1,90,2|8,0:0|0:0,0:0:0:0:
256,192,86354,12,6,87717,0:0:0:0:
