osu file format v14

[General]
AudioFilename: eromanga.mp3
AudioLeadIn: 0
PreviewTime: 54263
Countdown: 0
SampleSet: Soft
StackLeniency: 0.7
Mode: 0
LetterboxInBreaks: 0
WidescreenStoryboard: 1

[Editor]
DistanceSpacing: 1.5
BeatDivisor: 4
GridSize: 4
TimelineZoom: 1.5

[Metadata]
Title:Hitorigoto -TV MIX-
TitleUnicode:ヒトリゴト -TV MIX-
Artist:ClariS
ArtistUnicode:ClariS
Creator:Doormat
Version:Little's Hard
Source:エロマンガ先生
Tags:xxdeathx Little CloudSplash16 StarrStyx Kencho eromanga sensei ero manga eromanga-sensei eromangasensei opening tv size
BeatmapID:1263036
BeatmapSetID:596704

[Difficulty]
HPDrainRate:5
CircleSize:4
OverallDifficulty:6
ApproachRate:8
SliderMultiplier:1.4
SliderTickRate:1

[Events]
//Background and Video events
0,0,"eromanga.png",0,0
Video,-430,"eromanga opening.avi"
//Break Periods
//Storyboard Layer 0 (Background)
//Storyboard Layer 1 (Fail)
//Storyboard Layer 2 (Pass)
//Storyboard Layer 3 (Foreground)
//Storyboard Sound Samples

[TimingPoints]
536,363.636363636364,4,2,1,80,1,0
536,-125,4,2,1,80,0,0
11445,-111.111111111111,4,2,1,80,0,0
12172,-100,4,2,1,70,0,0
23808,-100,4,2,1,60,0,0
35445,-125,4,2,1,60,0,0
40536,-111.111111111111,4,2,1,60,0,0
41263,-100,4,2,1,60,0,0
44172,-100,4,2,1,65,0,0
47081,-100,4,2,1,70,0,0
49990,-100,4,2,1,75,0,0
52899,-100,4,2,1,80,0,0
54354,-100,4,2,1,85,0,1
65899,-100,4,2,1,85,0,0
65990,-100,4,2,1,85,0,1
86354,-100,4,2,1,80,0,0

[Colours]
Combo1 : 52,164,178
Combo2 : 254,194,206
Combo3 : 179,220,233
Combo4 : 235,142,173

[HitObjects]
352,68,536,5,10,0:0:0:0:
352,68,717,1,8,0:0:0:0:
256,124,899,2,0,P|248:179|246:235,2,112,0|0|0,0:0|0:0|0:0,0:0:0:0:
368,212,1990,5,10,0:0:0:0:
368,212,2172,1,8,0:0:0:0:
293,296,2354,2,0,P|240:312|191:289,1,112,0|0,0:0|0:0,0:0:0:0:
100,180,3081,1,0,0:0:0:0:
256,124,3445,5,10,0:0:0:0:
256,124,3626,1,8,0:0:0:0:
156,92,3808,2,0,L|146:36,1,56
307,69,4172,2,0,P|330:118|314:170,1,112
214,220,4717,1,0,0:0:0:0:
304,288,4899,6,0,P|360:280|440:276,1,112,6|0,0:0|0:0,0:0:0:0:
456,144,5626,2,0,L|382:132,2,74.6666666666667,10|2|2,0:0|0:0|0:0,0:0:0:0:
320,200,6354,5,10,0:0:0:0:
320,200,6536,1,8,0:0:0:0:
212,168,6717,2,0,P|204:112|202:56,2,112,0|0|0,0:0|0:0|0:0,0:0:0:0:
84,228,7808,5,10,0:0:0:0:
84,228,7990,1,8,0:0:0:0:
168,304,8172,2,0,L|279:292,1,112,0|0,0:0|0:0,0:0:0:0:
420,280,8899,1,0,0:0:0:0:
332,168,9263,5,10,0:0:0:0:
332,168,9445,1,8,0:0:0:0:
372,56,9626,2,0,L|440:48,1,56,0|0,0:0|0:0,0:0:0:0:
508,112,9990,2,0,L|500:180,1,56,0|0,0:0|0:0,0:0:0:0:
440,248,10354,2,0,L|372:256,1,56,0|0,0:0|0:0,0:0:0:0:
287,295,10717,6,0,P|235:277|179:278,1,112,6|2,0:0|0:3,0:0:0:0:
60,272,11445,2,0,L|70:355,2,83.9999974365235,10|2|2,0:0|0:0|0:0,0:0:0:0:
128,196,12172,6,0,L|135:126,1,70,6|0,0:0|0:0,0:0:0:0:
240,84,12536,2,0,L|232:153,1,70,8|0,0:0|0:0,0:0:0:0:
292,236,12899,1,2,0:0:0:0:
384,200,13081,1,0,0:0:0:0:
461,261,13263,1,8,0:0:0:0:
384,200,13445,6,0,P|376:166|380:131,1,70,0|2,0:0|0:0,0:0:0:0:
292,236,13808,2,0,P|295:270|288:304,1,70,0|8,0:0|0:0,0:0:0:0:
204,360,14172,2,0,P|169:363|135:356,1,70,0|2,0:0|0:0,0:0:0:0:
64,288,14536,2,0,L|48:148,1,140,0|2,0:0|0:0,0:0:0:0:
148,56,15081,5,6,0:0:0:0:
48,52,15263,1,0,0:0:0:0:
144,154,15445,2,0,P|178:149|208:132,1,70,8|0,0:0|0:0,0:0:0:0:
292,68,15808,1,2,0:0:0:0:
316,164,15990,1,0,0:0:0:0:
436,120,16172,1,8,0:0:0:0:
412,216,16354,6,0,L|395:283,1,70,0|2,0:0|0:0,0:0:0:0:
296,340,16717,2,0,L|279:272,1,70,0|8,0:0|0:0,0:0:0:0:
207,199,17081,2,0,P|175:188|140:185,1,70,0|2,0:0|0:0,0:0:0:0:
72,92,17445,2,0,P|106:89|139:78,1,70,0|8,0:0|0:0,0:0:0:0:
236,28,17808,1,2,0:0:0:0:
312,104,17990,6,0,L|296:244,1,140,6|8,0:0|0:0,0:0:0:0:
216,312,18536,1,0,0:0:0:0:
123,271,18717,2,0,P|89:271|56:283,1,70,2|0,0:0|0:0,0:0:0:0:
4,172,19081,1,8,0:0:0:0:
4,172,19263,6,0,P|36:183|71:183,1,70,0|2,0:0|0:0,0:0:0:0:
172,136,19626,2,0,L|179:66,1,70,0|8,0:0|0:0,0:0:0:0:
268,176,19990,2,0,L|275:246,1,70,0|2,0:0|0:0,0:0:0:0:
344,104,20354,2,0,P|407:79|465:113,1,140,0|2,0:0|0:0,0:0:0:0:
488,216,20899,5,6,0:0:0:0:
401,158,21081,1,0,0:0:0:0:
388,256,21263,2,0,L|381:326,1,70,8|0,0:0|0:0,0:0:0:0:
275,246,21626,1,2,0:0:0:0:
188,300,21808,1,0,0:0:0:0:
275,246,21990,1,8,0:0:0:0:
184,192,22172,6,0,P|150:184|115:188,1,70,0|2,0:0|0:0,0:0:0:0:
56,80,22536,2,0,P|90:83|124:76,1,70,0|8,0:0|0:0,0:0:0:0:
232,96,22899,2,0,P|248:65|253:30,1,70,0|2,0:0|0:0,0:0:0:0:
376,60,23263,2,0,L|392:200,1,140,0|2,0:0|0:0,0:0:0:0:
344,292,23808,6,0,P|311:303|276:300,1,70,6|0,0:0|0:0,0:0:0:0:
176,332,24172,2,0,P|143:321|108:324,1,70,8|0,0:0|0:0,0:0:0:0:
16,272,24536,1,2,0:0:0:0:
16,272,24717,1,0,0:0:0:0:
108,220,24899,2,0,P|118:187|116:152,1,70,8|0,0:0|0:0,0:0:0:0:
52,68,25263,6,0,P|107:107|172:90,1,140,2|8,0:0|0:0,0:0:0:0:
260,32,25808,1,0,0:0:0:0:
364,52,25990,2,0,L|432:64,1,70,2|0,0:0|0:0,0:0:0:0:
316,140,26354,2,0,L|248:152,1,70,8|0,0:0|0:0,0:0:0:0:
364,228,26717,6,0,L|432:240,1,70,2|0,0:0|0:0,0:0:0:0:
367,336,27081,2,0,P|304:361|242:333,1,140,8|2,0:0|0:0,0:0:0:0:
156,272,27626,1,0,0:0:0:0:
56,308,27808,2,0,P|45:340|47:375,1,70,8|0,0:0|0:0,0:0:0:0:
156,272,28172,5,2,0:0:0:0:
156,272,28354,2,0,P|158:237|147:204,1,70,0|8,0:0|0:0,0:0:0:0:
56,152,28717,2,0,P|53:117|64:84,1,70,0|2,0:0|0:0,0:0:0:0:
156,32,29081,1,0,0:0:0:0:
248,84,29263,2,0,P|281:91|316:85,1,70,8|2,0:0|0:0,0:0:0:0:
416,116,29626,6,0,P|426:148|424:183,1,70,6|0,0:0|0:0,0:0:0:0:
360,268,29990,2,0,P|327:278|292:276,1,70,8|0,0:0|0:0,0:0:0:0:
192,240,30354,1,2,0:0:0:0:
192,240,30536,1,0,0:0:0:0:
112,308,30717,2,0,L|100:376,1,70,8|0,0:0|0:0,0:0:0:0:
16,312,31081,6,0,L|0:172,1,140,2|8,0:0|0:0,0:0:0:0:
68,92,31626,1,0,0:0:0:0:
160,144,31808,2,0,P|194:146|227:135,1,70,2|0,0:0|0:0,0:0:0:0:
312,72,32172,2,0,P|346:69|379:80,1,70,8|0,0:0|0:0,0:0:0:0:
432,172,32536,6,0,L|420:240,1,70,2|0,0:0|0:0,0:0:0:0:
340,308,32899,2,0,P|276:282|214:310,1,140,8|2,0:0|0:0,0:0:0:0:
112,284,33445,1,0,0:0:0:0:
184,208,33626,2,0,P|186:173|175:140,1,70,8|0,0:0|0:0,0:0:0:0:
268,84,33990,5,2,0:0:0:0:
268,84,34172,2,0,P|296:103|330:110,1,70,0|8,0:0|0:0,0:0:0:0:
436,108,34536,2,0,L|504:96,1,70,0|2,0:0|0:0,0:0:0:0:
428,224,34899,1,0,0:0:0:0:
428,224,35081,2,0,L|360:212,1,70,8|2,0:0|0:0,0:0:0:0:
255,228,35445,6,0,P|219:269|221:323,1,112,6|2,0:0|0:3,0:0:0:0:
368,267,36172,2,0,L|350:156,1,112,8|0,0:0|0:0,0:0:0:0:
336,72,36717,1,2,0:0:0:0:
336,72,36899,1,2,0:0:0:0:
160,120,37263,2,0,L|104:116,1,56,2|0,0:0|0:0,0:0:0:0:
36,204,37626,2,0,P|67:248|120:258,1,112,8|2,0:0|0:0,0:0:0:0:
216,232,38172,1,2,0:0:0:0:
216,232,38354,6,0,P|270:218|326:214,1,112,2|2,0:0|0:3,0:0:0:0:
480,272,39081,2,0,L|493:160,1,112,8|0,0:0|0:0,0:0:0:0:
504,80,39626,1,2,0:0:0:0:
504,80,39808,1,2,0:0:0:0:
340,40,40172,1,2,0:0:0:0:
280,192,40536,6,0,L|288:236,2,41.9999987182618,8|2|2,0:0|0:0|0:0,0:0:0:0:
220,132,40899,2,0,L|228:88,2,41.9999987182618,2|2|2,0:0|0:0|0:0,0:0:0:0:
156,200,41263,6,0,P|120:204|76:188,1,70,6|0,0:0|0:0,0:0:0:0:
16,272,41626,1,8,0:0:0:0:
16,272,41808,1,0,0:0:0:0:
100,336,41990,2,0,L|176:328,1,70,2|0,0:0|0:0,0:0:0:0:
256,256,42354,1,8,0:0:0:0:
256,256,42536,1,0,0:0:0:0:
356,288,42717,6,0,L|363:357,1,70,2|0,0:0|0:0,0:0:0:0:
436,220,43081,1,8,0:0:0:0:
352,156,43263,1,0,0:0:0:0:
449,115,43445,1,2,0:0:0:0:
352,156,43626,2,0,P|317:157|284:145,1,70,0|8,0:0|0:0,0:0:0:0:
196,84,43990,1,0,0:0:0:0:
108,144,44172,6,0,L|100:213,1,70,2|0,0:0|0:0,0:0:0:0:
168,304,44536,1,8,0:0:0:0:
168,304,44717,1,0,0:0:0:0:
255,248,44899,2,0,P|290:243|325:247,1,70,2|0,0:0|0:0,0:0:0:0:
428,292,45263,1,8,0:0:0:0:
428,292,45445,1,0,0:0:0:0:
492,208,45626,6,0,L|484:138,1,70,2|0,0:0|0:0,0:0:0:0:
464,36,45990,1,8,0:0:0:0:
368,80,46172,1,0,0:0:0:0:
284,16,46354,1,2,0:0:0:0:
368,80,46536,2,0,P|371:114|361:148,1,70,0|8,0:0|0:0,0:0:0:0:
264,184,46899,1,2,0:0:0:0:
344,252,47081,6,0,P|384:248|428:256,1,70,6|0,0:0|0:0,0:0:0:0:
500,312,47445,1,8,0:0:0:0:
500,312,47626,1,0,0:0:0:0:
416,376,47808,2,0,P|376:380|332:372,1,70,2|0,0:0|0:0,0:0:0:0:
254,326,48172,1,8,0:0:0:0:
254,326,48354,1,0,0:0:0:0:
340,268,48536,6,0,L|348:184,1,70,2|0,0:0|0:0,0:0:0:0:
254,154,48899,2,0,L|247:223,1,70,8|0,0:0|0:0,0:0:0:0:
191,356,49263,2,0,L|254:326,1,70,2|0,0:0|0:0,0:0:0:0:
397,308,49626,2,0,L|339:267,1,70,8|2,0:0|0:0,0:0:0:0:
148,272,49990,6,0,L|132:132,1,140,2|8,0:0|0:0,0:0:0:0:
216,56,50536,1,0,0:0:0:0:
216,56,50717,2,0,P|265:101|260:169,1,140,2|8,0:0|0:0,0:0:0:0:
196,260,51263,1,0,0:0:0:0:
300,296,51445,6,0,L|384:288,1,70,2|0,0:0|0:0,0:0:0:0:
476,320,51808,2,0,L|469:250,1,70,8|0,0:0|0:0,0:0:0:0:
500,144,52172,2,0,L|430:150,1,70,2|0,0:0|0:0,0:0:0:0:
324,120,52536,2,0,L|330:189,1,70,8|2,0:0|0:0,0:0:0:0:
300,296,52899,5,10,0:0:0:0:
300,296,53081,2,0,L|384:288,1,70,10|2,0:0|0:0,0:0:0:0:
255,234,53445,2,0,P|223:295|252:356,2,140,4|0|0,0:0|0:0|0:0,0:0:0:0:
348,164,54354,6,0,L|354:94,1,70,6|0,0:0|0:0,0:0:0:0:
252,52,54717,2,0,L|245:121,1,70,8|0,0:0|0:0,0:0:0:0:
148,176,55081,1,2,0:0:0:0:
44,132,55263,1,0,0:0:0:0:
56,244,55445,2,0,L|62:313,1,70,8|0,0:0|0:0,0:0:0:0:
164,360,55808,5,4,0:1:0:0:
164,360,55990,2,0,P|204:364|248:356,1,70,0|8,0:0|0:0,0:0:0:0:
348,320,56354,1,0,0:0:0:0:
348,320,56536,2,0,P|381:365|323:368,1,140,4|8,0:1|0:0,0:0:0:0:
300,244,57081,1,0,0:0:0:0:
300,244,57263,6,0,L|293:174,1,70,6|0,0:0|0:0,0:0:0:0:
392,116,57626,2,0,L|398:185,1,70,8|0,0:0|0:0,0:0:0:0:
396,300,57990,1,2,0:0:0:0:
396,300,58172,1,0,0:0:0:0:
300,244,58354,1,8,0:0:0:0:
300,244,58536,1,0,0:0:0:0:
220,324,58717,5,4,0:1:0:0:
220,324,58899,2,0,P|180:328|136:320,1,70,0|8,0:0|0:0,0:0:0:0:
48,276,59263,1,0,0:0:0:0:
48,276,59445,2,0,L|42:206,1,70,4|0,0:1|0:0,0:0:0:0:
93,106,59808,2,0,P|124:97|159:104,1,70,8|0,0:0|0:0,0:0:0:0:
257,165,60172,5,6,0:0:0:0:
356,112,60354,2,0,P|390:105|424:113,1,70,0|8,0:0|0:0,0:0:0:0:
500,196,60717,1,0,0:0:0:0:
500,196,60899,2,0,L|494:266,1,70,2|0,0:0|0:0,0:0:0:0:
412,344,61263,1,8,0:0:0:0:
412,344,61445,6,0,B|363:339|363:339|335:346|335:346|273:341,1,140
164,318,61990,1,8,0:0:0:0:
164,318,62172,1,0,0:0:0:0:
188,208,62354,2,0,L|194:138,1,70,2|0,0:0|0:0,0:0:0:0:
295,188,62717,2,0,L|301:258,1,70,8|0,0:0|0:0,0:0:0:0:
412,240,63081,6,0,P|419:206|415:171,1,70,6|0,0:0|0:0,0:0:0:0:
456,84,63445,2,0,P|422:76|387:80,1,70,8|0,0:0|0:0,0:0:0:0:
300,40,63808,2,0,P|292:73|296:108,1,70,6|0,0:0|0:0,0:0:0:0:
256,196,64172,2,0,P|289:203|324:199,1,70,8|0,0:0|0:0,0:0:0:0:
200,116,64536,6,0,P|166:108|131:112,1,70,6|0,0:0|0:0,0:0:0:0:
32,164,64899,1,12,0:1:0:0:
100,252,65081,2,0,P|108:296|108:336,2,70,0|4|4,0:0|0:1|0:1,0:0:0:0:
191,185,65626,2,0,P|193:150|200:116,1,70,12|4,0:1|0:1,0:0:0:0:
296,56,65990,6,0,L|366:50,1,70,6|0,0:0|0:0,0:0:0:0:
428,144,66354,2,0,L|358:150,1,70,8|0,0:0|0:0,0:0:0:0:
248,160,66717,1,2,0:0:0:0:
312,252,66899,1,0,0:0:0:0:
202,262,67081,2,0,L|132:268,1,70,8|0,0:0|0:0,0:0:0:0:
44,196,67445,6,0,P|74:135|140:123,1,140,4|8,0:1|0:0,0:0:0:0:
248,160,67990,2,0,B|296:176|296:176|382:155,1,140,0|0,0:0|0:0,0:0:0:0:
492,128,68536,1,8,0:0:0:0:
492,128,68717,1,0,0:0:0:0:
484,240,68899,6,0,L|478:310,1,70,6|0,0:0|0:0,0:0:0:0:
368,336,69263,2,0,L|374:266,1,70,8|0,0:0|0:0,0:0:0:0:
382,155,69626,1,2,0:0:0:0:
492,128,69808,1,0,0:0:0:0:
382,155,69990,2,0,L|312:149,1,70,8|0,0:0|0:0,0:0:0:0:
235,282,70354,6,0,L|375:266,1,140,4|8,0:1|0:0,0:0:0:0:
235,183,70899,2,0,P|228:148|236:115,1,70,0|4,0:0|0:1,0:0:0:0:
383,87,71263,1,0,0:0:0:0:
383,87,71445,2,0,P|389:121|381:154,1,70,8|0,0:0|0:0,0:0:0:0:
305,274,71808,5,6,0:0:0:0:
305,274,71990,2,0,L|311:344,1,70,0|8,0:0|0:0,0:0:0:0:
200,328,72354,1,0,0:0:0:0:
200,328,72536,2,0,L|194:258,1,70,2|0,0:0|0:0,0:0:0:0:
264,172,72899,1,8,0:0:0:0:
264,172,73081,6,0,L|124:156,1,140,0|0,0:0|0:0,0:0:0:0:
52,240,73626,2,0,P|75:291|105:243,2,140,8|2|8,0:0|0:0|0:0,0:0:0:0:
264,172,74717,6,0,L|331:150,1,70,6|0,0:0|0:0,0:0:0:0:
413,229,75081,2,0,L|346:251,1,70,8|0,0:0|0:0,0:0:0:0:
264,172,75445,2,0,L|197:149,1,70,6|0,0:0|0:0,0:0:0:0:
115,228,75809,2,0,L|181:250,1,70,8|0,0:0|0:0,0:0:0:0:
264,172,76172,6,0,L|264:312,2,140,6|8|2,0:0|0:0|0:0,0:0:0:0:
60,84,77263,1,8,0:0:0:0:
60,84,77445,1,0,0:0:0:0:
44,196,77626,6,0,P|96:238|162:222,1,140,6|8,0:0|0:0,0:0:0:0:
264,172,78172,1,0,0:0:0:0:
264,172,78354,2,0,B|312:156|312:156|398:177,1,140,2|8,0:0|0:0,0:0:0:0:
464,268,78899,1,0,0:0:0:0:
384,348,79081,6,0,P|349:355|316:347,1,70,2|0,0:0|0:0,0:0:0:0:
216,296,79445,2,0,P|181:289|148:297,1,70,8|0,0:0|0:0,0:0:0:0:
52,236,79808,2,0,P|44:202|51:168,1,70,2|0,0:0|0:0,0:0:0:0:
128,84,80172,1,8,0:0:0:0:
128,84,80354,1,0,0:0:0:0:
240,96,80536,6,0,P|282:148|266:214,1,140,6|8,0:0|0:0,0:0:0:0:
172,272,81081,1,0,0:0:0:0:
172,272,81263,2,0,L|102:266,1,70,2|0,0:0|0:0,0:0:0:0:
138,160,81626,2,0,L|208:166,1,70,8|0,0:0|0:0,0:0:0:0:
308,216,81990,6,0,L|448:200,2,140,2|8|2,0:0|0:0|0:0,0:0:0:0:
208,268,82899,1,0,0:0:0:0:
208,268,83081,2,0,P|191:298|189:333,1,70,8|0,0:0|0:0,0:0:0:0:
84,372,83445,6,0,L|68:232,1,140,6|8,0:0|0:0,0:0:0:0:
116,132,83990,1,0,0:0:0:0:
116,132,84172,2,0,P|175:99|237:126,1,140,2|8,0:0|0:0,0:0:0:0:
328,192,84717,1,0,0:0:0:0:
328,192,84899,6,0,L|398:186,1,70,2|0,0:0|0:0,0:0:0:0:
452,284,85263,2,0,L|382:290,1,70,8|0,0:0|0:0,0:0:0:0:
230,246,85626,2,0,L|224:176,1,70,2|0,0:0|0:0,0:0:0:0:
322,122,85990,2,0,L|328:192,1,70,8|0,0:0|0:0,0:0:0:0:
287,338,86354,1,6,0:0:0:0:
256,192,86445,12,4,87717,0:0:0:0:
