osu file format v14

[General]
AudioFilename: eromanga.mp3
AudioLeadIn: 0
PreviewTime: 54263
Countdown: 0
SampleSet: Soft
StackLeniency: 0.7
Mode: 0
LetterboxInBreaks: 0
WidescreenStoryboard: 1

[Editor]
Bookmarks: 536,6354,12172,17990,23808,29626,35445,41263,47081,52899,54354,60172,65990,71808,77626,83445
DistanceSpacing: 2.9
BeatDivisor: 4
GridSize: 32
TimelineZoom: 1.65

[Metadata]
Title:Hitorigoto -TV MIX-
TitleUnicode:ヒトリゴト -TV MIX-
Artist:ClariS
ArtistUnicode:ClariS
Creator:Doormat
Version:Kencho's Insane
Source:エロマンガ先生
Tags:xxdeathx Little CloudSplash16 StarrStyx Kencho eromanga sensei ero manga eromanga-sensei eromangasensei opening tv size
BeatmapID:1264972
BeatmapSetID:596704

[Difficulty]
HPDrainRate:5.4
CircleSize:3.6
OverallDifficulty:8
ApproachRate:9
SliderMultiplier:1.6
SliderTickRate:1

[Events]
//Background and Video events
0,0,"eromanga.png",0,0
Video,-430,"eromanga opening.avi"
//Break Periods
//Storyboard Layer 0 (Background)
//Storyboard Layer 1 (Fail)
//Storyboard Layer 2 (Pass)
//Storyboard Layer 3 (Foreground)
//Storyboard Sound Samples

[TimingPoints]
536,363.636363636364,4,2,1,80,1,0
1808,-100,4,2,1,40,0,0
1990,-100,4,2,1,80,0,0
3263,-100,4,2,1,40,0,0
3445,-100,4,2,1,80,0,0
4717,-100,4,2,1,40,0,0
4899,-100,4,2,1,80,0,0
7626,-100,4,2,1,40,0,0
7808,-100,4,2,1,80,0,0
9081,-100,4,2,1,40,0,0
9263,-100,4,2,1,80,0,0
10536,-100,4,2,1,40,0,0
10717,-100,4,2,1,80,0,0
23808,-100,4,2,1,60,0,0
35445,-166.666666666667,4,2,1,50,0,0
40536,-125,4,2,1,50,0,0
41263,-100,4,2,1,60,0,0
52899,-83.3333333333333,4,2,1,60,0,0
53717,-83.3333333333333,4,2,1,5,0,0
53808,-71.4285714285714,4,2,1,60,0,0
54263,-71.4285714285714,4,2,1,5,0,0
54354,-83.3333333333333,4,2,1,80,0,1
65899,-83.3333333333333,4,2,1,80,0,0
65990,-83.3333333333333,4,2,1,80,0,1
86354,-100,4,2,1,70,0,0

[Colours]
Combo1 : 52,164,178
Combo2 : 254,194,206
Combo3 : 179,220,233
Combo4 : 235,142,173

[HitObjects]
185,262,536,5,4,1:2:0:0:
327,122,717,1,0,1:0:0:0:
327,122,1445,2,0,L|341:281,1,160,0|0,0:0|0:0,0:0:0:0:
350,377,1990,5,0,1:0:0:0:
114,332,2172,1,0,1:0:0:0:
114,332,2899,2,0,L|273:318,1,160,0|0,0:0|0:0,0:0:0:0:
350,377,3445,5,0,1:0:0:0:
401,103,3626,1,0,1:0:0:0:
401,103,4354,2,0,L|242:117,1,160,0|0,0:0|0:0,0:0:0:0:
157,71,4899,5,4,1:2:0:0:
82,131,5081,2,0,L|241:117,1,160,0|0,0:0|0:0,0:0:0:0:
298,60,5626,2,0,P|289:112|307:162,2,106.666666666667,4|4|4,3:0|3:0|3:0,0:0:0:0:
401,103,6354,5,4,1:2:0:0:
365,300,6536,1,0,1:0:0:0:
365,300,7263,2,0,P|288:285|228:334,1,160,0|0,0:0|0:0,0:0:0:0:
312,380,7808,5,0,1:0:0:0:
254,147,7990,1,0,1:0:0:0:
254,147,8717,2,0,P|331:132|391:181,1,160,0|0,0:0|0:0,0:0:0:0:
407,275,9263,5,0,1:0:0:0:
127,290,9445,1,0,1:0:0:0:
127,290,10172,2,0,L|286:304,1,160,0|0,0:0|0:0,0:0:0:0:
371,258,10717,5,4,1:2:0:0:
446,318,10899,2,0,L|287:304,1,160,0|0,0:0|0:0,0:0:0:0:
230,247,11445,2,0,P|239:299|221:349,2,106.666666666667,4|4|4,3:0|3:0|3:0,0:0:0:0:
127,290,12172,6,0,P|87:295|50:283,1,80,4|0,0:0|0:0,0:0:0:0:
199,159,12536,2,0,P|239:154|276:166,1,80,8|0,0:0|0:0,0:0:0:0:
379,278,12899,1,2,0:0:0:0:
230,247,13081,1,0,0:0:0:0:
368,185,13263,1,8,0:0:0:0:
293,317,13445,6,0,P|258:337|219:341,1,80,0|2,0:0|0:0,0:0:0:0:
173,194,13808,2,0,P|207:214|230:246,1,80,0|8,0:0|0:0,0:0:0:0:
126,361,14172,2,0,P|126:320|142:284,1,80,0|2,0:0|0:0,0:0:0:0:
293,317,14536,2,0,P|371:311|416:248,1,160,0|0,0:0|0:0,0:0:0:0:
316,146,15081,6,0,P|317:186|323:226,1,80,4|0,0:0|0:0,0:0:0:0:
509,272,15445,2,0,P|508:232|502:192,1,80,8|0,0:0|0:0,0:0:0:0:
402,88,15808,1,2,0:0:0:0:
416,248,15990,1,0,0:0:0:0:
495,112,16172,1,8,0:0:0:0:
316,146,16354,6,0,P|310:186|309:225,1,80,0|2,0:0|0:0,0:0:0:0:
423,327,16717,2,0,P|422:287|416:247,1,80,0|8,0:0|0:0,0:0:0:0:
226,193,17081,2,0,P|227:233|233:273,1,80,0|2,0:0|0:0,0:0:0:0:
333,373,17445,1,0,0:0:0:0:
333,373,17536,1,0,0:0:0:0:
333,373,17626,2,0,P|339:333|340:294,1,80,8|0,0:0|0:0,0:0:0:0:
316,146,17990,6,0,L|237:153,1,80,4|0,0:0|0:0,0:0:0:0:
389,59,18354,2,0,L|468:66,1,80,8|0,0:0|0:0,0:0:0:0:
323,226,18717,1,2,0:0:0:0:
309,66,18899,1,0,0:0:0:0:
396,139,19081,1,8,0:0:0:0:
236,153,19263,6,0,P|196:148|162:128,1,80,0|2,0:0|0:0,0:0:0:0:
309,66,19626,2,0,P|315:106|316:145,1,80,0|8,0:0|0:0,0:0:0:0:
169,208,19990,2,0,P|163:168|162:129,1,80,0|2,0:0|0:0,0:0:0:0:
386,20,20354,2,0,P|398:100|400:178,1,160,0|0,0:0|0:0,0:0:0:0:
370,275,20899,6,0,P|410:280|447:268,1,80,4|0,0:0|0:0,0:0:0:0:
302,202,21263,2,0,P|277:234|269:272,1,80,8|0,0:0|0:0,0:0:0:0:
400,179,21626,1,2,0:0:0:0:
332,106,21808,1,0,0:0:0:0:
370,275,21990,1,8,0:0:0:0:
477,172,22172,6,0,P|437:167|400:179,1,80,0|4,0:0|0:0,0:0:0:0:
293,282,22536,2,0,P|333:287|370:275,1,80,0|8,0:0|0:0,0:0:0:0:
248,193,22899,2,0,P|208:188|171:200,1,80,0|4,0:0|0:0,0:0:0:0:
64,303,23263,1,0,0:0:0:0:
64,303,23354,1,0,0:0:0:0:
64,303,23445,2,0,L|105:306,1,40,10|2,0:0|0:0,0:0:0:0:
221,317,23626,1,2,0:0:0:0:
171,200,23808,6,0,P|158:162|163:122,1,80,4|0,0:0|0:0,0:0:0:0:
324,147,24172,6,0,L|245:154,1,80,8|0,0:0|0:0,0:0:0:0:
91,207,24536,2,0,L|170:200,1,80,2|0,0:0|0:0,0:0:0:0:
327,233,24899,2,0,L|248:240,1,80,8|0,0:0|0:0,0:0:0:0:
237,77,25263,6,0,P|249:114|244:154,1,80,2|0,0:0|0:0,0:0:0:0:
168,277,25626,2,0,P|160:238|171:200,1,80,8|0,0:0|0:0,0:0:0:0:
237,77,25990,2,0,L|316:84,1,80,2|0,0:0|0:0,0:0:0:0:
171,200,26354,2,0,L|92:193,1,80,8|0,0:0|0:0,0:0:0:0:
259,209,26717,5,2,0:0:0:0:
223,289,26899,5,0,0:0:0:0:
240,122,27081,1,8,0:0:0:0:
324,268,27263,1,0,0:0:0:0:
171,200,27445,1,2,0:0:0:0:
335,164,27626,1,0,0:0:0:0:
168,223,27808,1,8,0:0:0:0:
338,141,27990,1,0,0:0:0:0:
223,289,28172,5,2,0:0:0:0:
307,60,28354,2,0,P|347:55|384:67,1,80,0|8,0:0|0:0,0:0:0:0:
435,224,28717,2,0,L|356:217,1,80,0|2,0:0|0:0,0:0:0:0:
409,137,29081,1,0,0:0:0:0:
397,303,29263,1,8,0:0:0:0:
259,209,29445,1,8,0:0:0:0:
259,209,29536,1,8,0:0:0:0:
259,209,29626,6,0,L|252:288,1,80,4|0,0:0|0:0,0:0:0:0:
313,136,29990,6,0,P|318:96|306:59,1,80,8|0,0:0|0:0,0:0:0:0:
189,177,30354,2,0,P|221:201|259:209,1,80,2|0,0:0|0:0,0:0:0:0:
215,49,30717,2,0,P|177:64|151:93,1,80,8|0,0:0|0:0,0:0:0:0:
252,288,31081,6,0,P|258:248|259:209,1,80,2|0,0:0|0:0,0:0:0:0:
151,92,31445,2,0,P|145:132|144:171,1,80,8|0,0:0|0:0,0:0:0:0:
313,136,31808,2,0,P|312:96|306:56,1,80,2|0,0:0|0:0,0:0:0:0:
90,245,32172,2,0,P|91:285|97:325,1,80,8|0,0:0|0:0,0:0:0:0:
171,210,32536,5,2,0:0:0:0:
112,145,32717,5,0,0:0:0:0:
179,298,32899,1,8,0:0:0:0:
214,133,33081,1,0,0:0:0:0:
90,245,33263,1,2,0:0:0:0:
257,229,33445,1,0,0:0:0:0:
81,224,33626,1,8,0:0:0:0:
266,250,33808,1,0,0:0:0:0:
112,145,33990,5,2,0:0:0:0:
235,331,34172,2,0,P|275:336|312:324,1,80,0|8,0:0|0:0,0:0:0:0:
390,118,34536,2,0,L|311:125,1,80,0|2,0:0|0:0,0:0:0:0:
364,205,34899,1,0,0:0:0:0:
352,39,35081,1,8,0:0:0:0:
214,133,35263,1,8,0:0:0:0:
214,133,35354,1,8,0:0:0:0:
214,133,35445,6,0,L|310:125,1,95.9999970703126,4|0,0:0|0:0,0:0:0:0:
128,188,36172,2,0,L|32:180,1,95.9999970703126,8|0,0:0|0:0,0:0:0:0:
124,87,36717,1,0,0:0:0:0:
214,133,36899,6,0,P|228:178|222:225,1,95.9999970703126,2|2,0:0|0:0,0:0:0:0:
95,370,37626,1,8,0:0:0:0:
287,366,37990,1,0,0:0:0:0:
285,282,38172,1,0,0:0:0:0:
222,226,38354,6,0,P|174:219|129:233,1,95.9999970703126,6|0,0:0|0:0,0:0:0:0:
287,366,39081,2,0,P|334:372|379:358,1,95.9999970703126,8|0,0:0|0:0,0:0:0:0:
422,285,39626,1,8,0:0:0:0:
379,212,39808,5,2,0:0:0:0:
380,358,39990,1,8,0:0:0:0:
506,284,40172,1,2,0:0:0:0:
506,284,40536,6,0,L|461:288,2,42.6666666666667,8|8|8,3:2|3:0|3:0,0:0:0:0:
380,358,40899,2,0,L|335:354,2,42.6666666666667,8|8|8,3:0|3:0|3:0,0:0:0:0:
237,313,41263,6,0,P|197:319|158:320,1,80,4|0,0:0|0:0,0:0:0:0:
77,206,41626,5,8,0:0:0:0:
150,240,41808,1,0,0:0:0:0:
19,332,41990,2,0,P|13:292|12:253,1,80,2|0,0:0|0:0,0:0:0:0:
157,320,42354,5,8,0:0:0:0:
92,367,42536,1,0,0:0:0:0:
77,206,42717,2,0,L|70:127,1,80,2|0,0:0|0:0,0:0:0:0:
167,230,43081,5,8,0:0:0:0:
84,286,43263,1,0,0:0:0:0:
184,220,43445,1,2,0:0:0:0:
92,367,43626,2,0,P|52:366|12:360,1,80,0|8,0:0|0:0,0:0:0:0:
201,210,43990,6,0,B|253:200|253:200|303:220|303:220|355:210,1,160,0|0,0:0|0:0,0:0:0:0:
435,96,44536,5,8,0:0:0:0:
362,130,44717,1,0,0:0:0:0:
493,223,44899,2,0,P|499:183|500:144,1,80,2|0,0:0|0:0,0:0:0:0:
355,210,45263,5,8,0:0:0:0:
420,257,45445,1,0,0:0:0:0:
435,96,45626,2,0,L|442:17,1,80,2|0,0:0|0:0,0:0:0:0:
345,120,45990,5,8,0:0:0:0:
428,176,46172,1,0,0:0:0:0:
328,110,46354,1,2,0:0:0:0:
420,257,46536,2,0,P|460:256|500:250,1,80,0|8,0:0|0:0,0:0:0:0:
311,100,46899,6,0,B|259:90|259:90|209:110|209:110|157:100,1,160,0|0,0:0|0:0,0:0:0:0:
200,23,47445,5,8,0:0:0:0:
268,177,47626,1,0,0:0:0:0:
100,158,47808,2,0,P|79:123|77:85,1,80,2|0,0:0|0:0,0:0:0:0:
234,100,48172,5,8,0:0:0:0:
218,246,48354,1,0,0:0:0:0:
100,158,48536,2,0,P|140:159|180:165,1,80,2|0,0:0|0:0,0:0:0:0:
53,237,48899,5,8,0:0:0:0:
147,79,49081,1,0,0:0:0:0:
133,244,49263,1,2,0:0:0:0:
67,72,49445,2,0,P|107:73|147:79,1,80,0|8,0:0|0:0,0:0:0:0:
53,237,49808,6,0,P|132:234|211:223,1,160,0|0,0:0|0:0,0:0:0:0:
340,109,50354,1,8,0:0:0:0:
222,126,50536,1,0,0:0:0:0:
326,263,50717,2,0,P|350:187|340:109,1,160,2|8,0:0|0:0,0:0:0:0:
242,178,51263,1,0,0:0:0:0:
340,109,51445,5,2,0:0:0:0:
231,58,51626,1,0,0:0:0:0:
253,298,51808,1,8,0:0:0:0:
351,229,51990,1,0,0:0:0:0:
133,127,52172,1,2,0:0:0:0:
144,247,52354,1,0,0:0:0:0:
242,178,52536,1,8,0:0:0:0:
122,7,52717,1,8,0:0:0:0:
122,7,52808,1,8,0:0:0:0:
122,7,52899,5,2,0:1:0:0:
38,136,53081,2,0,P|86:135|134:127,1,95.9999970703126,2|0,0:1|0:0,0:0:0:0:
253,79,53445,6,0,P|223:144|230:215,1,143.999995605469,2|0,0:1|0:0,0:0:0:0:
263,291,53808,6,0,P|169:309|265:314,1,279.999991455078,0|0,0:0|0:0,0:0:0:0:
323,239,54354,5,4,0:0:0:0:
230,214,54536,5,0,0:0:0:0:
392,172,54717,1,8,0:0:0:0:
348,333,54899,1,0,0:0:0:0:
291,116,55081,5,2,0:0:0:0:
446,273,55263,1,0,0:0:0:0:
230,214,55445,5,8,0:0:0:0:
443,158,55626,1,0,0:0:0:0:
313,337,55808,5,4,0:1:0:0:
396,57,55990,2,0,P|444:46|488:56,1,95.9999970703126,0|8,0:0|0:0,0:0:0:0:
332,148,56354,2,0,P|298:111|285:68,1,95.9999970703126,0|4,0:0|0:1,0:0:0:0:
443,158,56717,1,0,0:0:0:0:
379,249,56899,1,8,0:0:0:0:
396,57,57081,1,0,0:0:0:0:
485,161,57263,5,4,0:0:0:0:
290,145,57445,5,0,0:0:0:0:
379,249,57626,1,8,0:0:0:0:
396,57,57808,1,0,0:0:0:0:
194,136,57990,5,2,0:0:0:0:
443,158,58172,1,0,0:0:0:0:
276,18,58354,5,8,0:0:0:0:
254,267,58536,1,0,0:0:0:0:
383,27,58717,5,4,0:1:0:0:
194,136,58899,2,0,P|243:144|289:145,1,95.9999970703126,0|8,0:0|0:0,0:0:0:0:
479,36,59263,2,0,P|430:28|384:27,1,95.9999970703126,0|4,0:0|0:1,0:0:0:0:
299,228,59626,1,0,0:0:0:0:
443,158,59808,1,8,0:0:0:0:
276,18,59990,1,0,0:0:0:0:
232,278,60172,5,4,0:0:0:0:
290,145,60354,6,0,P|339:137|385:136,1,95.9999970703126,0|8,0:0|0:0,0:0:0:0:
223,195,60717,1,0,0:0:0:0:
281,62,60899,2,0,P|330:54|376:53,1,95.9999970703126,2|0,0:0|0:0,0:0:0:0:
146,161,61263,2,0,P|98:160|50:152,1,95.9999970703126,8|0,0:0|0:0,0:0:0:0:
213,111,61626,5,4,0:0:0:0:
223,195,61808,5,0,0:0:0:0:
136,77,61990,1,8,0:0:0:0:
290,145,62172,1,0,0:0:0:0:
161,252,62354,2,0,P|141:208|146:162,1,95.9999970703126,2|0,0:0|0:0,0:0:0:0:
275,54,62717,2,0,P|295:98|290:144,1,95.9999970703126,8|0,0:0|0:0,0:0:0:0:
251,248,63081,6,0,L|346:257,1,95.9999970703126,4|0,0:0|0:0,0:0:0:0:
146,161,63445,2,0,L|51:170,1,95.9999970703126,8|0,0:0|0:0,0:0:0:0:
242,343,63808,2,0,P|250:294|251:248,1,95.9999970703126,4|0,0:0|0:0,0:0:0:0:
137,65,64172,2,0,P|138:113|146:161,1,95.9999970703126,8|0,0:0|0:0,0:0:0:0:
233,56,64536,5,4,0:1:0:0:
51,170,64717,1,0,0:0:0:0:
242,152,64899,1,12,0:1:0:0:
42,74,65081,1,0,0:0:0:0:
60,266,65263,5,4,0:1:0:0:
233,56,65445,1,4,0:1:0:0:
42,74,65626,1,12,0:1:0:0:
251,248,65808,1,4,0:1:0:0:
146,161,65990,5,4,0:0:0:0:
106,248,66172,5,0,0:0:0:0:
91,83,66354,1,8,0:0:0:0:
242,152,66536,1,0,0:0:0:0:
51,170,66717,5,2,0:0:0:0:
282,65,66899,1,0,0:0:0:0:
161,326,67081,5,8,0:0:0:0:
91,83,67263,1,0,0:0:0:0:
369,105,67445,5,4,0:1:0:0:
213,216,67626,1,0,0:0:0:0:
282,65,67808,1,8,0:0:0:0:
300,256,67990,2,0,L|309:351,1,95.9999970703126,0|4,0:0|0:1,0:0:0:0:
213,216,68354,1,0,0:0:0:0:
387,296,68536,1,8,0:0:0:0:
144,368,68717,1,0,0:0:0:0:
291,160,68899,5,4,0:0:0:0:
300,256,69081,5,0,0:0:0:0:
369,105,69263,1,8,0:0:0:0:
204,120,69445,1,0,0:0:0:0:
378,201,69626,5,2,0:0:0:0:
195,24,69808,1,0,0:0:0:0:
222,312,69990,5,8,0:0:0:0:
369,105,70172,1,0,0:0:0:0:
99,160,70354,5,4,0:1:0:0:
264,175,70536,1,0,0:0:0:0:
195,24,70717,1,8,0:0:0:0:
177,215,70899,2,0,L|168:310,1,95.9999970703126,0|4,0:0|0:1,0:0:0:0:
264,175,71263,1,0,0:0:0:0:
90,255,71445,1,8,0:0:0:0:
333,326,71626,1,0,0:0:0:0:
186,119,71808,5,4,0:0:0:0:
149,210,71990,6,0,P|196:216|242:200,1,95.9999970703126,0|8,0:0|0:0,0:0:0:0:
333,122,72354,1,0,0:0:0:0:
261,290,72536,1,2,0:0:0:0:
221,111,72717,1,0,0:0:0:0:
358,232,72899,1,8,0:0:0:0:
177,215,73081,1,0,0:0:0:0:
441,156,73263,5,4,0:0:0:0:
369,324,73445,6,0,P|353:276|358:231,1,95.9999970703126,0|8,0:0|0:0,0:0:0:0:
465,265,73808,1,0,0:0:0:0:
261,290,73990,2,0,L|252:195,1,95.9999970703126,0|0,0:0|0:0,0:0:0:0:
340,40,74354,2,0,L|349:135,1,95.9999970703126,8|0,0:0|0:0,0:0:0:0:
469,236,74717,6,0,P|421:237|373:245,1,95.9999970703126,4|0,0:1|0:0,0:0:0:0:
166,281,75081,2,0,P|215:289|261:290,1,95.9999970703126,8|0,0:0|0:0,0:0:0:0:
261,99,75445,2,0,P|253:148|252:194,1,95.9999970703126,4|0,0:1|0:0,0:0:0:0:
381,341,75808,1,8,0:0:0:0:
349,135,75990,1,0,0:0:0:0:
166,281,76172,5,4,0:1:0:0:
168,301,76536,1,8,0:0:0:0:
170,321,76899,2,0,L|217:317,2,47.9999985351563,2|2|2,0:0|0:0|0:0,0:0:0:0:
231,190,77263,1,8,0:0:0:0:
314,308,77445,1,0,0:0:0:0:
129,235,77626,6,0,P|92:148|111:55,1,191.999994140625,4|8,0:0|0:0,0:0:0:0:
220,79,78172,1,0,0:0:0:0:
54,151,78354,2,0,P|18:118|1:75,1,95.9999970703126,2|0,0:0|0:0,0:0:0:0:
231,190,78717,1,8,0:0:0:0:
108,323,78899,1,0,0:0:0:0:
111,55,79081,5,2,0:0:0:0:
131,53,79445,1,8,0:0:0:0:
151,51,79808,2,0,P|152:99|160:147,1,95.9999970703126,2|0,0:0|0:0,0:0:0:0:
264,234,80172,1,8,0:0:0:0:
251,90,80354,1,0,0:0:0:0:
173,291,80536,6,0,B|364:272,1,191.999994140625,4|8,0:0|0:0,0:0:0:0:
251,90,81081,1,0,0:0:0:0:
264,234,81263,2,0,L|273:329,1,95.9999970703126,2|0,0:0|0:0,0:0:0:0:
330,156,81626,1,8,0:0:0:0:
186,169,81808,1,0,0:0:0:0:
264,234,81990,5,2,0:0:0:0:
204,69,82172,1,0,0:0:0:0:
168,269,82354,1,8,0:0:0:0:
282,134,82536,1,0,0:0:0:0:
90,204,82717,2,0,P|70:247|70:294,1,95.9999970703126,2|0,0:0|0:0,0:0:0:0:
186,169,83081,2,0,P|158:130|118:106,1,95.9999970703126,8|0,0:0|0:0,0:0:0:0:
168,269,83445,6,0,L|358:252,1,191.999994140625,4|8,0:0|0:0,0:0:0:0:
203,360,83990,1,0,0:0:0:0:
186,169,84172,2,0,L|281:160,1,95.9999970703126,2|0,0:0|0:0,0:0:0:0:
168,269,84536,1,8,0:0:0:0:
151,78,84717,1,0,0:0:0:0:
359,252,84899,5,2,0:0:0:0:
357,272,85263,1,8,0:0:0:0:
355,292,85626,2,0,L|308:288,3,47.9999985351563,8|0|0|0,3:2|3:0|3:0|3:0,0:0:0:0:
442,252,85990,2,0,L|489:248,1,47.9999985351563,8|0,3:2|3:0,0:0:0:0:
346,196,86172,2,0,L|299:192,1,47.9999985351563,0|0,3:0|3:0,0:0:0:0:
433,156,86354,6,0,P|448:79|420:5,1,160,4|0,0:0|0:0,0:0:0:0:
312,6,86899,1,0,0:0:0:0:
269,105,87081,2,0,P|363:87|267:82,1,279.999991455078,0|4,0:0|1:2,0:0:0:0:
