osu file format v14

[General]
AudioFilename: eromanga.mp3
AudioLeadIn: 0
PreviewTime: 54263
Countdown: 0
SampleSet: Soft
StackLeniency: 0.7
Mode: 0
LetterboxInBreaks: 0
WidescreenStoryboard: 1

[Editor]
DistanceSpacing: 1
BeatDivisor: 4
GridSize: 4
TimelineZoom: 1.5

[Metadata]
Title:Hitorigoto -TV MIX-
TitleUnicode:ヒトリゴト -TV MIX-
Artist:ClariS
ArtistUnicode:ClariS
Creator:Doormat
Version:Insane
Source:エロマンガ先生
Tags:xxdeathx Little CloudSplash16 StarrStyx Kencho eromanga sensei ero manga eromanga-sensei eromangasensei opening tv size
BeatmapID:1264070
BeatmapSetID:596704

[Difficulty]
HPDrainRate:5.5
CircleSize:4
OverallDifficulty:7.5
ApproachRate:8.5
SliderMultiplier:1.6
SliderTickRate:1

[Events]
//Background and Video events
0,0,"eromanga.png",0,0
Video,-430,"eromanga opening.avi"
//Break Periods
//Storyboard Layer 0 (Background)
//Storyboard Layer 1 (Fail)
//Storyboard Layer 2 (Pass)
//Storyboard Layer 3 (Foreground)
//Storyboard Sound Samples

[TimingPoints]
536,363.636363636364,4,2,1,80,1,0
536,-166.666666666667,4,2,1,80,0,0
12172,-125,4,2,1,80,0,0
23808,-125,4,2,1,60,0,0
35445,-166.666666666667,4,2,1,50,0,0
41263,-125,4,2,1,60,0,0
54354,-100,4,2,1,80,0,1
65899,-100,4,2,1,80,0,0
65990,-100,4,2,1,80,0,1
86354,-100,4,2,1,70,0,0

[Colours]
Combo1 : 52,164,178
Combo2 : 254,194,206
Combo3 : 179,220,233
Combo4 : 235,142,173

[HitObjects]
112,120,536,5,4,1:2:0:0:
296,96,717,1,0,1:0:0:0:
372,140,899,6,0,L|384:203,1,47.9999985351563,0|0,0:0|0:0,0:0:0:0:
295,183,1263,2,0,L|291:233,1,47.9999985351563,0|0,0:0|0:0,0:0:0:0:
218,137,1626,2,0,L|202:182,1,47.9999985351563,0|0,0:0|0:0,0:0:0:0:
136,272,1990,5,0,1:0:0:0:
312,336,2172,1,0,1:0:0:0:
380,280,2354,6,0,P|388:244|384:216,1,47.9999985351563,0|0,0:0|0:0,0:0:0:0:
427,162,2717,2,0,P|443:179|463:191,1,47.9999985351563,0|0,0:0|0:0,0:0:0:0:
505,261,3081,2,0,P|481:266|460:277,1,47.9999985351563,0|0,0:0|0:0,0:0:0:0:
392,364,3445,5,0,1:0:0:0:
320,192,3626,1,0,1:0:0:0:
244,240,3808,6,0,L|196:237,1,47.9999985351563,0|0,0:0|0:0,0:0:0:0:
240,328,4172,2,0,L|287:330,1,47.9999985351563,0|0,0:0|0:0,0:0:0:0:
372,276,4536,1,0,0:0:0:0:
320,192,4717,1,0,0:0:0:0:
448,220,4899,5,4,1:2:0:0:
448,220,5081,2,0,P|465:263|458:310,1,95.9999970703126,0|0,0:0|0:0,0:0:0:0:
310,293,5626,2,0,L|372:276,2,63.9999980468751,4|4|4,3:0|3:0|3:0,0:0:0:0:
224,356,6354,5,4,1:2:0:0:
60,264,6536,1,0,1:0:0:0:
24,184,6717,6,0,L|18:136,1,47.9999985351563,0|0,0:0|0:0,0:0:0:0:
108,144,7081,2,0,L|113:191,1,47.9999985351563,0|0,0:0|0:0,0:0:0:0:
196,156,7445,2,0,L|190:108,1,47.9999985351563,0|0,0:0|0:0,0:0:0:0:
144,8,7808,5,0,1:0:0:0:
328,40,7990,1,0,1:0:0:0:
304,124,8172,6,0,P|297:147|295:170,1,47.9999985351563,0|0,0:0|0:0,0:0:0:0:
255,247,8536,2,0,P|238:229|218:216,1,47.9999985351563,0|0,0:0|0:0,0:0:0:0:
171,142,8899,2,0,P|194:136|215:125,1,47.9999985351563,0|0,0:0|0:0,0:0:0:0:
148,36,9263,5,0,1:0:0:0:
76,208,9445,1,0,1:0:0:0:
144,264,9626,6,0,L|200:264,1,47.9999985351563,0|0,0:0|0:0,0:0:0:0:
292,264,9990,2,0,L|292:320,1,47.9999985351563,0|0,0:0|0:0,0:0:0:0:
372,372,10354,1,0,0:0:0:0:
432,292,10536,1,0,0:0:0:0:
340,184,10717,5,4,1:2:0:0:
340,184,10899,2,0,P|274:171|236:188,1,95.9999970703126,0|0,0:0|0:0,0:0:0:0:
272,325,11445,2,0,L|292:264,2,63.9999980468751,4|4|4,3:0|3:0|3:0,0:0:0:0:
167,371,12172,6,0,P|138:359|107:352,1,64,4|0,0:0|0:0,0:0:0:0:
36,260,12536,2,0,P|67:253|96:240,1,64,8|0,0:0|0:0,0:0:0:0:
172,168,12899,1,2,0:0:0:0:
197,270,13081,1,0,0:0:0:0:
96,240,13263,1,8,0:0:0:0:
124,80,13445,6,0,L|188:80,1,64,0|2,0:0|0:0,0:0:0:0:
236,168,13808,2,0,L|172:168,1,64,0|8,0:0|0:0,0:0:0:0:
292,92,14172,2,0,L|356:92,1,64,0|2,0:0|0:0,0:0:0:0:
404,180,14535,2,0,L|340:180,1,64,0|8,0:0|0:0,0:0:0:0:
460,104,14899,1,0,0:0:0:0:
512,236,15081,6,0,P|512:267|507:299,1,64,4|0,0:0|0:0,0:0:0:0:
379,343,15445,2,0,P|373:311|374:279,1,64,8|0,0:0|0:0,0:0:0:0:
404,180,15808,1,2,0:0:0:0:
303,204,15990,1,0,0:0:0:0:
374,279,16172,1,8,0:0:0:0:
336,120,16354,6,0,L|272:120,1,64,0|2,0:0|0:0,0:0:0:0:
224,32,16717,2,0,L|288:32,1,64,0|8,0:0|0:0,0:0:0:0:
176,116,17081,2,0,L|176:180,1,64,0|2,0:0|0:0,0:0:0:0:
88,228,17444,2,0,L|88:164,1,64,0|8,0:0|0:0,0:0:0:0:
0,248,17808,1,0,0:0:0:0:
116,340,17990,6,0,P|147:337|179:331,1,64,4|0,0:0|0:0,0:0:0:0:
252,208,18354,2,0,P|220:202|188:198,1,64,8|0,0:0|0:0,0:0:0:0:
88,228,18717,1,2,0:0:0:0:
58,127,18899,1,0,0:0:0:0:
158,97,19081,1,8,0:0:0:0:
252,208,19263,6,0,L|244:292,1,64,0|2,0:0|0:0,0:0:0:0:
344,284,19626,2,0,L|352:200,1,64,0|8,0:0|0:0,0:0:0:0:
204,144,19990,2,0,P|183:168|173:198,1,64,0|2,0:0|0:0,0:0:0:0:
328,104,20354,2,0,P|316:74|296:49,1,64,0|8,0:0|0:0,0:0:0:0:
252,208,20717,1,0,0:0:0:0:
372,296,20899,6,0,L|435:288,1,64,4|0,0:0|0:0,0:0:0:0:
508,156,21263,2,0,L|444:148,1,64,8|0,0:0|0:0,0:0:0:0:
340,132,21626,1,2,0:0:0:0:
356,27,21807,1,0,0:0:0:0:
460,43,21989,1,8,0:0:0:0:
263,167,22172,6,0,P|259:136|264:104,1,64,0|4,0:0|0:0,0:0:0:0:
408,188,22536,2,0,P|412:219|407:251,1,64,0|8,0:0|0:0,0:0:0:0:
324,332,22899,1,0,0:0:0:0:
324,332,22990,1,0,0:0:0:0:
324,332,23081,1,4,0:0:0:0:
224,272,23263,1,0,0:0:0:0:
224,272,23354,1,0,0:0:0:0:
224,272,23445,2,0,L|164:280,3,32,10|2|2|2,0:0|0:0|0:0|0:0,0:0:0:0:
160,303,23808,6,0,P|161:272|156:240,1,64,4|0,0:0|0:0,0:0:0:0:
20,288,24172,2,0,P|18:319|23:351,1,64,8|0,0:0|0:0,0:0:0:0:
64,176,24536,2,0,L|-4:168,1,64,2|0,0:0|0:0,0:0:0:0:
160,204,24899,2,0,L|223:196,1,64,8|0,0:0|0:0,0:0:0:0:
344,316,25263,6,0,L|336:253,1,64,2|0,0:0|0:0,0:0:0:0:
460,280,25626,2,0,L|468:343,1,64,8|0,0:0|0:0,0:0:0:0:
471,187,25990,2,0,P|440:189|409:199,1,64,2|0,0:0|0:0,0:0:0:0:
288,124,26354,2,0,P|319:122|350:112,1,64,8|0,0:0|0:0,0:0:0:0:
224,64,26717,5,2,0:0:0:0:
236,192,26899,1,0,0:0:0:0:
56,172,27081,1,8,0:0:0:0:
180,136,27263,1,0,0:0:0:0:
188,316,27445,1,2,0:0:0:0:
132,200,27626,1,0,0:0:0:0:
308,160,27808,1,8,0:0:0:0:
204,236,27990,1,0,0:0:0:0:
224,56,28172,5,2,0:0:0:0:
132,200,28354,2,0,L|121:137,1,64,0|8,0:0|0:0,0:0:0:0:
73,270,28717,2,0,P|126:293|196:267,1,128,0|0,0:0|0:0,0:0:0:0:
248,152,29263,1,8,0:0:0:0:
380,220,29445,1,8,0:0:0:0:
380,220,29536,1,8,0:0:0:0:
380,220,29626,6,0,L|316:226,1,64,4|0,0:0|0:0,0:0:0:0:
380,352,29990,2,0,L|443:345,1,64,8|0,0:0|0:0,0:0:0:0:
292,320,30354,2,0,P|283:350|288:382,1,64,2|0,0:0|0:0,0:0:0:0:
460,252,30717,2,0,P|468:221|463:189,1,64,8|0,0:0|0:0,0:0:0:0:
356,60,31081,6,0,L|419:66,1,64,2|0,0:0|0:0,0:0:0:0:
304,156,31445,2,0,L|240:162,1,64,8|0,0:0|0:0,0:0:0:0:
152,48,31808,2,0,L|215:54,1,64,2|0,0:0|0:0,0:0:0:0:
100,144,32172,2,0,L|36:150,1,64,8|0,0:0|0:0,0:0:0:0:
172,252,32536,5,2,0:0:0:0:
220,132,32717,1,0,0:0:0:0:
372,228,32899,1,8,0:0:0:0:
244,212,33080,1,0,0:0:0:0:
332,52,33263,1,2,0:0:0:0:
312,180,33445,1,0,0:0:0:0:
152,92,33626,1,8,0:0:0:0:
280,108,33808,1,0,0:0:0:0:
176,260,33990,5,2,0:0:0:0:
311,179,34172,2,0,L|320:257,1,64,0|8,0:0|0:0,0:0:0:0:
356,98,34536,2,0,P|286:89|242:120,1,128,0|0,0:0|0:0,0:0:0:0:
172,232,35081,1,8,0:0:0:0:
322,275,35263,1,8,0:0:0:0:
322,275,35354,1,8,0:0:0:0:
322,275,35445,6,0,L|310:163,1,95.9999970703126,4|0,0:0|0:0,0:0:0:0:
496,208,36172,2,0,L|484:320,1,95.9999970703126,8|0,0:0|0:0,0:0:0:0:
428,376,36717,1,0,0:0:0:0:
344,336,36899,6,0,P|340:300|348:272,1,47.9999985351563,2|0,0:0|0:0,0:0:0:0:
400,216,37263,2,0,P|360:196|296:208,2,95.9999970703126,2|8|0,0:0|0:0|0:0,0:0:0:0:
476,268,38172,1,0,0:0:0:0:
492,168,38354,6,0,L|485:120,1,47.9999985351563,6|0,0:0|0:0,0:0:0:0:
396,92,38717,2,0,L|389:139,1,47.9999985351563,0|0,0:0|0:0,0:0:0:0:
455,38,39081,2,0,P|415:13|368:16,1,95.9999970703126,8|0,0:0|0:0,0:0:0:0:
280,44,39626,1,8,0:0:0:0:
307,131,39808,6,0,P|330:134|354:130,1,47.9999985351563,2|8,0:0|0:0,0:0:0:0:
280,44,40172,1,2,0:0:0:0:
96,148,40536,6,0,L|84:100,2,31.9999990234375,8|8|8,3:2|3:0|3:0,0:0:0:0:
96,236,40899,2,0,L|88:267,2,31.9999990234375,8|8|8,3:0|3:0|3:0,0:0:0:0:
168,190,41263,6,0,P|228:170|291:178,1,128,4|8,0:0|0:0,0:0:0:0:
384,220,41808,1,0,0:0:0:0:
456,136,41990,2,0,L|444:48,1,64,2|0,0:0|0:0,0:0:0:0:
332,36,42354,2,0,L|323:99,1,64,8|0,0:0|0:0,0:0:0:0:
212,188,42717,6,0,L|193:61,1,128,2|8,0:0|0:0,0:0:0:0:
100,20,43263,1,0,0:0:0:0:
24,96,43445,1,2,0:0:0:0:
24,96,43626,2,0,P|20:136|28:172,1,64,0|8,0:0|0:0,0:0:0:0:
92,236,43990,1,0,0:0:0:0:
222,142,44172,6,0,P|165:116|103:126,1,128,2|8,0:0|0:0,0:0:0:0:
20,188,44717,1,0,0:0:0:0:
104,260,44899,2,0,L|168:252,1,64,2|0,0:0|0:0,0:0:0:0:
272,340,45263,2,0,L|208:348,1,64,8|0,0:0|0:0,0:0:0:0:
288,220,45626,6,0,L|414:237,1,128,2|8,0:0|0:0,0:0:0:0:
504,188,46172,1,0,0:0:0:0:
432,108,46354,1,2,0:0:0:0:
432,108,46535,2,0,P|388:100|356:108,1,64,0|8,0:0|0:0,0:0:0:0:
280,152,46899,1,0,0:0:0:0:
358,301,47081,6,0,P|399:254|396:192,1,128,4|8,0:0|0:0,0:0:0:0:
348,100,47626,1,0,0:0:0:0:
264,168,47808,2,0,L|268:240,1,64,2|0,0:0|0:0,0:0:0:0:
156,208,48172,2,0,L|152:136,1,64,8|0,0:0|0:0,0:0:0:0:
40,208,48536,6,0,L|47:347,1,128,2|8,0:0|0:0,0:0:0:0:
140,376,49081,1,0,0:0:0:0:
232,316,49263,2,0,P|210:292|181:278,1,64,2|0,0:0|0:0,0:0:0:0:
116,184,49626,2,0,P|147:176|173:159,1,64,8|0,0:0|0:0,0:0:0:0:
23,160,49990,6,0,P|28:222|70:269,1,128,2|8,0:0|0:0,0:0:0:0:
160,316,50536,1,0,0:0:0:0:
236,232,50717,2,0,P|297:219|354:246,1,128,2|8,0:0|0:0,0:0:0:0:
420,324,51263,1,0,0:0:0:0:
488,232,51445,6,0,L|480:168,1,64,2|0,0:0|0:0,0:0:0:0:
368,104,51808,2,0,L|360:167,1,64,8|0,0:0|0:0,0:0:0:0:
508,208,52172,2,0,L|500:144,1,64,2|0,0:0|0:0,0:0:0:0:
348,80,52536,2,0,L|340:144,1,64,8|8,0:0|0:0,0:0:0:0:
332,160,52808,1,8,0:0:0:0:
324,176,52899,5,2,0:1:0:0:
188,120,53081,2,0,P|218:113|250:115,1,64,2|0,0:1|0:0,0:0:0:0:
268,248,53445,2,0,P|237:255|205:253,1,64,2|0,0:1|0:0,0:0:0:0:
316,168,53808,6,0,P|348:200|336:316,1,160,0|0,0:0|0:0,0:0:0:0:
320,336,54354,6,0,L|399:332,1,80,4|0,0:0|0:0,0:0:0:0:
268,248,54717,2,0,L|188:251,1,80,8|0,0:0|0:0,0:0:0:0:
12,260,55081,1,2,0:0:0:0:
148,328,55263,1,0,0:0:0:0:
176,156,55445,1,8,0:0:0:0:
96,256,55626,1,0,0:0:0:0:
280,328,55808,5,4,0:1:0:0:
175,156,55990,2,0,P|175:195|185:234,1,80,0|8,0:0|0:0,0:0:0:0:
360,204,56354,2,0,P|360:164|350:125,1,80,0|4,0:0|0:1,0:0:0:0:
252,8,56717,1,0,0:0:0:0:
204,196,56899,1,8,0:0:0:0:
360,88,57081,1,0,0:0:0:0:
152,64,57263,6,0,L|72:74,1,80,4|0,0:0|0:0,0:0:0:0:
204,196,57626,2,0,L|283:186,1,80,8|0,0:0|0:0,0:0:0:0:
436,228,57990,1,2,0:0:0:0:
360,120,58172,1,0,0:0:0:0:
280,304,58354,1,8,0:0:0:0:
204,196,58536,1,0,0:0:0:0:
404,216,58717,5,4,0:1:0:0:
280,84,58899,2,0,L|292:180,1,80,0|8,0:0|0:0,0:0:0:0:
453,104,59263,2,0,L|444:24,1,80,0|4,0:0|0:1,0:0:0:0:
280,84,59626,1,0,0:0:0:0:
404,216,59808,1,8,0:0:0:0:
352,24,59990,1,0,0:0:0:0:
203,148,60172,6,0,P|164:155|124:154,1,80,4|0,0:0|0:0,0:0:0:0:
240,280,60536,2,0,P|279:272|319:273,1,80,8|0,0:0|0:0,0:0:0:0:
476,332,60899,1,2,0:0:0:0:
292,372,61081,1,0,0:0:0:0:
424,240,61263,1,8,0:0:0:0:
392,384,61445,1,0,0:0:0:0:
240,232,61626,6,0,L|236:312,1,80,4|0,0:0|0:0,0:0:0:0:
424,240,61990,2,0,L|428:160,1,80,8|0,0:0|0:0,0:0:0:0:
495,300,62354,2,0,P|425:335|354:301,1,160,2|8,0:0|0:0,0:0:0:0:
292,204,62899,1,0,0:0:0:0:
152,317,63081,6,0,L|232:308,1,80,4|0,0:0|0:0,0:0:0:0:
160,176,63445,2,0,L|80:185,1,80,8|0,0:0|0:0,0:0:0:0:
176,340,63808,2,0,L|255:330,1,80,4|0,0:0|0:0,0:0:0:0:
136,153,64172,2,0,L|56:162,1,80,8|0,0:0|0:0,0:0:0:0:
200,252,64536,5,4,0:1:0:0:
300,112,64717,1,0,0:0:0:0:
304,264,64899,1,12,0:1:0:0:
204,100,65081,1,0,0:0:0:0:
104,276,65263,5,4,0:1:0:0:
244,172,65445,1,4,0:1:0:0:
52,144,65626,1,12,0:1:0:0:
204,276,65808,1,4,0:1:0:0:
240,60,65990,6,0,L|160:70,1,80,4|0,0:0|0:0,0:0:0:0:
272,192,66354,2,0,L|351:181,1,80,8|0,0:0|0:0,0:0:0:0:
508,104,66717,1,2,0:0:0:0:
432,220,66899,1,0,0:0:0:0:
324,60,67081,1,8,0:0:0:0:
436,140,67262,1,0,0:0:0:0:
248,208,67445,5,4,0:1:0:0:
416,240,67626,1,0,0:0:0:0:
280,132,67808,1,8,0:0:0:0:
184,300,67990,2,0,L|264:292,1,80,0|4,0:0|0:1,0:0:0:0:
140,200,68354,1,0,0:0:0:0:
96,384,68536,1,8,0:0:0:0:
16,208,68717,1,0,0:0:0:0:
184,300,68899,6,0,P|146:309|107:303,1,80,4|0,0:0|0:0,0:0:0:0:
136,168,69263,2,0,P|173:158|212:164,1,80,8|0,0:0|0:0,0:0:0:0:
328,260,69626,1,2,0:0:0:0:
184,300,69808,1,0,0:0:0:0:
328,164,69990,1,8,0:0:0:0:
328,356,70172,1,0,0:0:0:0:
228,188,70354,5,4,0:1:0:0:
412,228,70536,1,0,0:0:0:0:
216,316,70717,1,8,0:0:0:0:
320,140,70899,2,0,L|312:228,1,80,0|4,0:0|0:1,0:0:0:0:
200,112,71263,1,0,0:0:0:0:
384,56,71445,1,8,0:0:0:0:
200,0,71626,1,0,0:0:0:0:
224,192,71808,6,0,P|228:231|221:270,1,80,4|0,0:0|0:0,0:0:0:0:
76,224,72172,2,0,P|71:184|78:145,1,80,8|0,0:0|0:0,0:0:0:0:
176,52,72536,1,2,0:0:0:0:
4,112,72717,1,0,0:0:0:0:
184,188,72899,1,8,0:0:0:0:
72,32,73081,1,0,0:0:0:0:
43,216,73263,5,4,0:0:0:0:
204,96,73445,2,0,L|124:108,1,80,0|8,0:0|0:0,0:0:0:0:
244,8,73808,2,0,P|291:58|284:149,1,160,0|0,0:0|0:0,0:0:0:0:
216,252,74354,2,0,L|296:264,1,80,8|0,0:0|0:0,0:0:0:0:
196,360,74717,6,0,L|37:383,1,160,4|8,0:1|0:0,0:0:0:0:
8,244,75263,1,0,0:0:0:0:
8,244,75444,2,0,L|166:220,1,160,4|8,0:1|0:0,0:0:0:0:
264,256,75990,1,0,0:0:0:0:
336,124,76172,6,0,P|340:84|329:46,1,80,4|0,0:1|0:0,0:0:0:0:
160,64,76536,2,0,P|156:104|167:142,1,80,8|0,0:0|0:0,0:0:0:0:
264,256,76899,1,2,0:0:0:0:
264,256,76990,1,2,0:0:0:0:
264,256,77081,1,2,0:0:0:0:
248,96,77263,1,8,0:0:0:0:
388,176,77445,1,0,0:0:0:0:
319,333,77626,6,0,P|243:349|182:301,1,160,4|8,0:0|0:0,0:0:0:0:
132,204,78172,1,0,0:0:0:0:
248,96,78354,2,0,L|264:256,1,160,2|8,0:0|0:0,0:0:0:0:
368,292,78899,1,0,0:0:0:0:
440,179,79081,6,0,P|447:140|440:101,1,80,2|0,0:0|0:0,0:0:0:0:
355,246,79445,2,0,P|385:271|422:285,1,80,8|0,0:0|0:0,0:0:0:0:
340,140,79808,2,0,P|302:153|271:178,1,80,2|0,0:0|0:0,0:0:0:0:
440,179,80172,1,8,0:0:0:0:
440,179,80354,1,0,0:0:0:0:
360,52,80536,6,0,L|196:64,1,160,4|8,0:0|0:0,0:0:0:0:
120,128,81081,1,0,0:0:0:0:
217,242,81263,2,0,P|225:203|214:165,1,80,2|0,0:0|0:0,0:0:0:0:
65,215,81626,2,0,P|56:253|66:292,1,80,8|0,0:0|0:0,0:0:0:0:
192,356,81990,6,0,L|270:341,1,80,2|0,0:0|0:0,0:0:0:0:
384,224,82354,2,0,L|305:238,1,80,8|0,0:0|0:0,0:0:0:0:
464,275,82717,2,0,P|473:196|415:135,1,160,2|8,0:0|0:0,0:0:0:0:
320,96,83263,1,0,0:0:0:0:
248,200,83445,6,0,P|177:232|105:203,1,160,4|8,0:0|0:0,0:0:0:0:
175,138,83990,1,0,0:0:0:0:
336,172,84172,2,0,L|320:348,1,160,2|8,0:0|0:0,0:0:0:0:
228,380,84717,1,0,0:0:0:0:
104,308,84899,6,0,L|182:293,1,80,2|0,0:0|0:0,0:0:0:0:
120,168,85263,2,0,L|41:182,1,80,8|0,0:0|0:0,0:0:0:0:
122,48,85626,2,0,L|161:55,3,40,8|0|0|0,3:2|3:0|3:0|3:0,0:0:0:0:
252,92,85990,2,0,L|291:84,3,40,8|0|0|0,3:2|3:0|3:0|3:0,0:0:0:0:
364,20,86354,5,4,0:0:0:0:
256,192,86445,12,4,87717,1:2:0:0:
