osu file format v14

[General]
AudioFilename: eromanga.mp3
AudioLeadIn: 0
PreviewTime: 54263
Countdown: 0
SampleSet: Soft
StackLeniency: 0.7
Mode: 0
LetterboxInBreaks: 0
WidescreenStoryboard: 1

[Editor]
DistanceSpacing: 1
BeatDivisor: 4
GridSize: 4
TimelineZoom: 1.5

[Metadata]
Title:Hitorigoto -TV MIX-
TitleUnicode:ヒトリゴト -TV MIX-
Artist:ClariS
ArtistUnicode:ClariS
Creator:Doormat
Version:Hard
Source:エロマンガ先生
Tags:xxdeathx Little CloudSplash16 StarrStyx Kencho eromanga sensei ero manga eromanga-sensei eromangasensei opening tv size
BeatmapID:1262009
BeatmapSetID:596704

[Difficulty]
HPDrainRate:5
CircleSize:4
OverallDifficulty:6.5
ApproachRate:8
SliderMultiplier:1.4
SliderTickRate:1

[Events]
//Background and Video events
0,0,"eromanga.png",0,0
Video,-430,"eromanga opening.avi"
//Break Periods
//Storyboard Layer 0 (Background)
//Storyboard Layer 1 (Fail)
//Storyboard Layer 2 (Pass)
//Storyboard Layer 3 (Foreground)
//Storyboard Sound Samples

[TimingPoints]
536,363.636363636364,4,2,1,80,1,0
23808,-100,4,2,1,60,0,0
35445,-125,4,2,1,50,0,0
41263,-100,4,2,1,60,0,0
54354,-90.9090909090909,4,2,1,80,0,1
65899,-90.9090909090909,4,2,1,80,0,0
65990,-90.9090909090909,4,2,1,80,0,1
86354,-100,4,2,1,70,0,0

[Colours]
Combo1 : 52,164,178
Combo2 : 254,194,206
Combo3 : 179,220,233
Combo4 : 235,142,173

[HitObjects]
404,100,536,5,4,1:2:0:0:
404,100,717,1,0,1:0:0:0:
340,156,899,2,0,L|347:225,1,70,0|0,0:0|0:0,0:0:0:0:
256,136,1263,2,0,L|263:205,1,70,0|0,0:0|0:0,0:0:0:0:
172,116,1626,2,0,L|179:185,1,70,0|0,0:0|0:0,0:0:0:0:
212,300,1990,5,0,1:0:0:0:
212,300,2172,1,0,1:0:0:0:
280,352,2354,2,0,L|348:336,1,70,0|0,0:0|0:0,0:0:0:0:
388,260,2717,2,0,L|319:244,1,70,0|0,0:0|0:0,0:0:0:0:
280,168,3081,2,0,L|348:152,1,70,0|0,0:0|0:0,0:0:0:0:
436,72,3445,5,0,1:0:0:0:
436,72,3626,1,0,1:0:0:0:
500,128,3808,2,0,P|505:162|504:197,1,70,0|0,0:0|0:0,0:0:0:0:
440,252,4172,2,0,P|439:286|444:321,1,70,0|0,0:0|0:0,0:0:0:0:
360,324,4536,2,0,P|334:300|303:283,1,70,0|0,0:0|0:0,0:0:0:0:
196,236,4899,5,4,1:2:0:0:
132,175,5081,2,0,P|110:221|143:307,1,140,0|0,0:0|0:0,0:0:0:0:
204,356,5626,2,0,L|296:346,2,93.3333333333333,4|4|4,3:0|3:0|3:0,0:0:0:0:
84,384,6354,5,4,1:2:0:0:
84,384,6536,1,0,1:0:0:0:
128,312,6717,2,0,L|116:240,1,70,0|0,0:0|0:0,0:0:0:0:
203,269,7081,2,0,L|210:199,1,70,0|0,0:0|0:0,0:0:0:0:
287,247,7445,2,0,L|311:181,1,70,0|0,0:0|0:0,0:0:0:0:
428,196,7808,5,0,1:0:0:0:
428,196,7990,1,0,1:0:0:0:
372,260,8172,2,0,L|381:329,1,70,0|0,0:0|0:0,0:0:0:0:
286,247,8536,2,0,L|278:316,1,70,0|0,0:0|0:0,0:0:0:0:
207,212,8899,2,0,L|180:276,1,70,0|0,0:0|0:0,0:0:0:0:
60,272,9263,5,0,1:0:0:0:
60,272,9445,1,0,1:0:0:0:
119,215,9626,2,0,P|124:180|117:146,1,70,0|0,0:0|0:0,0:0:0:0:
74,74,9990,2,0,P|67:39|73:5,1,70,0|0,0:0|0:0,0:0:0:0:
160,4,10354,2,0,P|166:38|160:72,1,70,0|0,0:0|0:0,0:0:0:0:
116,184,10717,5,4,1:2:0:0:
164,256,10899,2,0,L|312:228,1,140,0|0,0:0|0:0,0:0:0:0:
384,248,11445,2,0,P|381:201|355:163,2,93.3333333333333,4|4|4,3:0|3:0|3:0,0:0:0:0:
272,336,12172,6,0,L|192:328,1,70,4|0,0:0|0:0,0:0:0:0:
124,296,12536,2,0,L|54:302,1,70,8|0,0:0|0:0,0:0:0:0:
0,236,12899,1,2,0:0:0:0:
66,181,13081,1,0,0:0:0:0:
11,114,13263,1,8,0:0:0:0:
96,52,13445,6,0,L|180:64,1,70,0|2,0:0|0:0,0:0:0:0:
248,44,13808,2,0,L|236:128,1,70,0|8,0:0|0:0,0:0:0:0:
256,196,14172,2,0,L|172:184,1,70,0|2,0:0|0:0,0:0:0:0:
196,272,14536,1,0,0:0:0:0:
196,272,14717,2,0,L|265:281,1,70,8|0,0:0|0:0,0:0:0:0:
371,336,15081,6,0,P|383:303|381:268,1,70,4|0,0:0|0:0,0:0:0:0:
336,196,15445,2,0,P|324:163|326:128,1,70,8|0,0:0|0:0,0:0:0:0:
372,56,15808,1,2,0:0:0:0:
299,9,15990,1,0,0:0:0:0:
252,81,16172,1,8,0:0:0:0:
148,59,16354,6,0,P|113:53|81:39,1,70,0|2,0:0|0:0,0:0:0:0:
68,124,16717,2,0,P|79:156|83:191,1,70,0|8,0:0|0:0,0:0:0:0:
163,161,17081,2,0,P|185:134|213:113,1,70,0|2,0:0|0:0,0:0:0:0:
298,114,17445,2,0,P|326:134|348:161,1,70,0|8,0:0|0:0,0:0:0:0:
384,240,17808,1,0,0:0:0:0:
472,160,17990,6,0,L|468:90,1,70,4|0,0:0|0:0,0:0:0:0:
476,4,18354,2,0,L|406:7,1,70,8|0,0:0|0:0,0:0:0:0:
316,12,18716,1,2,0:0:0:0:
292,99,18898,1,0,0:0:0:0:
324,183,19081,1,8,0:0:0:0:
240,248,19263,6,0,L|160:232,1,70,0|2,0:0|0:0,0:0:0:0:
180,320,19626,2,0,L|260:336,1,70,0|8,0:0|0:0,0:0:0:0:
320,285,19990,2,0,L|314:214,1,70,0|2,0:0|0:0,0:0:0:0:
396,184,20354,1,0,0:0:0:0:
396,184,20536,2,0,L|400:253,1,70,8|0,0:0|0:0,0:0:0:0:
511,212,20899,6,0,P|515:177|510:142,1,70,4|0,0:0|0:0,0:0:0:0:
488,60,21263,2,0,P|455:73|421:78,1,70,8|0,0:0|0:0,0:0:0:0:
340,52,21626,1,2,0:0:0:0:
276,109,21807,1,0,0:0:0:0:
194,82,21989,1,8,0:0:0:0:
132,168,22172,6,0,L|140:244,1,70,0|4,0:0|0:0,0:0:0:0:
220,272,22536,2,0,L|227:202,1,70,0|8,0:0|0:0,0:0:0:0:
284,140,22899,2,0,L|284:100,2,35,0|0|4,0:0|0:0|0:0,0:0:0:0:
360,180,23263,1,0,0:0:0:0:
360,180,23354,1,0,0:0:0:0:
360,180,23445,2,0,L|400:161,3,35,10|2|2|2,0:0|0:0|0:0|0:0,0:0:0:0:
416,184,23808,6,0,L|419:254,1,70,4|0,0:0|0:0,0:0:0:0:
500,224,24172,2,0,L|496:155,1,70,8|0,0:0|0:0,0:0:0:0:
448,84,24536,2,0,P|404:100|316:48,1,140,2|8,0:0|0:0,0:0:0:0:
264,0,25081,1,0,0:0:0:0:
196,80,25263,6,0,P|192:115|199:149,1,70,2|0,0:0|0:0,0:0:0:0:
224,232,25626,2,0,P|189:228|155:235,1,70,8|0,0:0|0:0,0:0:0:0:
72,260,25990,2,0,P|76:225|69:191,1,70,2|0,0:0|0:0,0:0:0:0:
44,108,26354,2,0,P|79:112|113:105,1,70,8|0,0:0|0:0,0:0:0:0:
188,32,26717,5,2,0:0:0:0:
248,92,26899,1,0,0:0:0:0:
323,53,27081,1,8,0:0:0:0:
383,113,27263,1,0,0:0:0:0:
344,187,27445,2,0,P|336:221|339:256,1,70,2|0,0:0|0:0,0:0:0:0:
272,308,27808,2,0,P|246:284|214:270,1,70,8|0,0:0|0:0,0:0:0:0:
116,308,28172,5,2,0:0:0:0:
56,248,28354,2,0,L|69:179,1,70,0|8,0:0|0:0,0:0:0:0:
24,108,28717,2,0,P|64:96|148:152,1,140,0|0,0:0|0:0,0:0:0:0:
184,220,29263,1,8,0:0:0:0:
260,148,29445,1,8,0:0:0:0:
260,148,29536,1,8,0:0:0:0:
260,148,29626,6,0,L|256:60,1,70,4|0,0:0|0:0,0:0:0:0:
336,112,29990,2,0,L|340:200,1,70,8|0,0:0|0:0,0:0:0:0:
304,260,30354,2,0,P|272:240|172:272,1,140,2|8,0:0|0:0,0:0:0:0:
120,328,30899,1,0,0:0:0:0:
44,256,31081,6,0,L|57:115,1,140,2|8,0:0|0:0,0:0:0:0:
64,32,31626,1,0,0:0:0:0:
132,80,31808,2,0,P|167:84|199:71,1,70,2|0,0:0|0:0,0:0:0:0:
276,32,32172,2,0,P|310:27|342:40,1,70,8|0,0:0|0:0,0:0:0:0:
408,124,32536,5,2,0:0:0:0:
368,200,32717,1,0,0:0:0:0:
292,160,32899,1,8,0:0:0:0:
252,236,33081,1,0,0:0:0:0:
175,195,33263,2,0,P|171:161|176:126,1,70,2|0,0:0|0:0,0:0:0:0:
92,124,33626,2,0,P|96:158|91:193,1,70,8|0,0:0|0:0,0:0:0:0:
28,280,33990,5,2,0:0:0:0:
84,344,34172,2,0,L|160:332,1,70,0|8,0:0|0:0,0:0:0:0:
228,288,34536,2,0,L|366:309,1,140,0|0,0:0|0:0,0:0:0:0:
452,324,35081,1,8,0:0:0:0:
427,219,35263,1,8,0:0:0:0:
427,219,35354,1,8,0:0:0:0:
427,219,35445,6,0,P|419:164|422:109,1,112,4|0,0:0|0:0,0:0:0:0:
236,52,36172,2,0,P|244:107|241:162,1,112,8|0,0:0|0:0,0:0:0:0:
180,228,36717,1,0,0:0:0:0:
244,288,36899,2,0,L|360:268,1,112,2|2,0:0|0:0,0:0:0:0:
280,92,37626,2,0,L|164:72,1,112,8|0,0:0|0:0,0:0:0:0:
84,56,38172,1,0,0:0:0:0:
26,121,38354,6,0,L|44:256,1,112,6|0,0:0|0:0,0:0:0:0:
204,328,39081,2,0,L|207:272,1,56,8|0,0:0|0:0,0:0:0:0:
272,212,39445,2,0,L|318:242,1,56,0|8,0:0|0:0,0:0:0:0:
338,328,39808,2,0,L|287:352,1,56,2|8,0:0|0:0,0:0:0:0:
204,328,40172,1,2,0:0:0:0:
248,140,40536,6,0,L|240:88,2,37.3333333333333,8|8|8,3:2|3:0|3:0,0:0:0:0:
296,204,40899,2,0,L|302:240,2,37.3333333333333,8|8|8,3:0|3:0|3:0,0:0:0:0:
327,130,41263,6,0,P|364:112|456:136,1,140,4|8,0:0|0:0,0:0:0:0:
504,208,41808,1,0,0:0:0:0:
436,288,41990,2,0,L|360:272,1,70,2|0,0:0|0:0,0:0:0:0:
288,240,42354,1,8,0:0:0:0:
219,292,42536,1,0,0:0:0:0:
148,214,42717,6,0,L|150:74,1,140,2|8,0:0|0:0,0:0:0:0:
200,4,43263,1,0,0:0:0:0:
270,53,43445,1,2,0:0:0:0:
270,53,43626,2,0,P|308:56|348:44,1,70,0|8,0:0|0:0,0:0:0:0:
424,32,43990,1,0,0:0:0:0:
400,136,44172,6,0,P|388:180|408:280,1,140,2|8,0:0|0:0,0:0:0:0:
448,344,44717,1,0,0:0:0:0:
344,356,44899,2,0,L|267:343,1,70,2|0,0:0|0:0,0:0:0:0:
207,291,45263,1,8,0:0:0:0:
260,223,45445,1,0,0:0:0:0:
220,128,45626,6,0,L|48:144,1,140,2|8,0:0|0:0,0:0:0:0:
32,212,46172,1,0,0:0:0:0:
104,260,46354,1,2,0:0:0:0:
104,260,46536,2,0,P|140:292|156:324,1,70,0|8,0:0|0:0,0:0:0:0:
196,384,46899,1,0,0:0:0:0:
276,316,47081,6,0,P|320:296|424:332,1,140,4|8,0:0|0:0,0:0:0:0:
464,380,47626,1,0,0:0:0:0:
512,288,47808,2,0,L|502:213,1,70,2|0,0:0|0:0,0:0:0:0:
482,137,48172,1,8,0:0:0:0:
421,195,48354,1,0,0:0:0:0:
356,112,48536,6,0,L|215:105,1,140,2|8,0:0|0:0,0:0:0:0:
140,148,49081,1,0,0:0:0:0:
182,223,49263,1,2,0:0:0:0:
138,297,49445,1,0,0:0:0:0:
181,373,49626,2,0,P|220:376|264:368,1,70,8|0,0:0|0:0,0:0:0:0:
352,336,49990,6,0,P|313:278|317:210,1,140,2|8,0:0|0:0,0:0:0:0:
400,184,50536,1,0,0:0:0:0:
400,184,50717,2,0,P|438:241|434:309,1,140,2|8,0:0|0:0,0:0:0:0:
352,336,51263,1,0,0:0:0:0:
256,292,51445,6,0,L|188:309,1,70,2|0,0:0|0:0,0:0:0:0:
184,224,51808,2,0,L|251:206,1,70,8|0,0:0|0:0,0:0:0:0:
328,248,52172,2,0,L|334:317,1,70,2|0,0:0|0:0,0:0:0:0:
419,326,52536,2,0,L|411:257,1,70,8|8,0:0|0:0,0:0:0:0:
416,240,52808,1,8,0:0:0:0:
420,223,52899,5,2,0:1:0:0:
328,248,53081,2,0,L|248:236,1,70,2|0,0:1|0:0,0:0:0:0:
148,172,53444,2,0,L|228:160,1,70,2|0,0:1|0:0,0:0:0:0:
76,120,53808,2,0,P|60:160|108:252,1,140,0|0,0:0|0:0,0:0:0:0:
217,161,54354,6,0,L|216:72,1,77.0000023498536,4|0,0:0|0:0,0:0:0:0:
308,120,54717,2,0,L|309:273,1,154.000004699707,8|2,0:0|0:0,0:0:0:0:
248,352,55263,1,0,0:0:0:0:
248,352,55445,2,0,P|208:328|160:328,1,77.0000023498536,8|0,0:0|0:0,0:0:0:0:
72,260,55808,5,4,0:1:0:0:
72,260,55990,2,0,P|106:243|130:213,1,77.0000023498536,0|8,0:0|0:0,0:0:0:0:
180,128,56354,1,0,0:0:0:0:
268,176,56536,2,0,L|348:168,1,77.0000023498536,4|0,0:1|0:0,0:0:0:0:
444,160,56899,1,8,0:0:0:0:
444,160,57081,1,0,0:0:0:0:
400,276,57263,6,0,P|392:316|400:360,1,77.0000023498536,4|0,0:0|0:0,0:0:0:0:
494,319,57626,2,0,P|502:279|494:235,1,77.0000023498536,8|0,0:0|0:0,0:0:0:0:
444,160,57990,1,2,0:0:0:0:
343,165,58172,1,0,0:0:0:0:
297,254,58354,1,8,0:0:0:0:
351,338,58536,1,0,0:0:0:0:
472,260,58717,5,4,0:1:0:0:
472,260,58899,2,0,L|395:248,1,77.0000023498536,0|8,0:0|0:0,0:0:0:0:
343,165,59263,2,0,L|524:136,1,154.000004699707,0|0,0:0|0:0,0:0:0:0:
448,52,59807,1,8,0:0:0:0:
348,40,59989,1,0,0:0:0:0:
343,165,60172,6,0,P|345:204|332:239,1,77.0000023498536,4|0,0:0|0:0,0:0:0:0:
272,320,60536,2,0,P|201:294|127:313,1,154.000004699707,8|2,0:0|0:0,0:0:0:0:
56,384,61081,1,0,0:0:0:0:
0,300,61263,1,8,0:0:0:0:
71,229,61445,1,0,0:0:0:0:
172,300,61626,6,0,L|168:380,1,77.0000023498536,4|0,0:0|0:0,0:0:0:0:
264,348,61990,2,0,L|267:271,1,77.0000023498536,8|0,0:0|0:0,0:0:0:0:
340,200,62354,2,0,P|272:170|197:201,1,154.000004699707,2|8,0:0|0:0,0:0:0:0:
136,272,62899,1,0,0:0:0:0:
84,160,63081,6,0,P|57:89|87:21,1,154.000004699707,4|8,0:0|0:0,0:0:0:0:
184,4,63626,1,0,0:0:0:0:
247,79,63808,2,0,L|240:160,1,77.0000023498536,4|0,0:0|0:0,0:0:0:0:
340,148,64172,2,0,L|347:67,1,77.0000023498536,8|0,0:0|0:0,0:0:0:0:
456,12,64536,5,4,0:1:0:0:
504,100,64717,1,0,0:0:0:0:
435,172,64899,1,12,0:1:0:0:
483,260,65081,1,0,0:0:0:0:
414,332,65263,2,0,L|332:320,1,77.0000023498536,4|4,0:1|0:1,0:0:0:0:
284,236,65626,2,0,L|361:225,1,77.0000023498536,12|4,0:1|0:1,0:0:0:0:
193,192,65990,6,0,P|182:228|188:266,1,77.0000023498536,4|0,0:0|0:0,0:0:0:0:
284,236,66354,2,0,P|294:199|288:161,1,77.0000023498536,8|0,0:0|0:0,0:0:0:0:
232,76,66717,1,2,0:0:0:0:
232,76,66899,1,0,0:0:0:0:
317,19,67081,1,8,0:0:0:0:
317,19,67263,1,0,0:0:0:0:
423,79,67445,6,0,L|504:68,1,77.0000023498536,4|0,0:1|0:0,0:0:0:0:
480,168,67808,1,8,0:0:0:0:
388,212,67990,1,0,0:0:0:0:
303,156,68172,2,0,P|265:147|227:151,1,77.0000023498536,4|0,0:1|0:0,0:0:0:0:
128,176,68536,1,8,0:0:0:0:
128,176,68717,1,0,0:0:0:0:
160,296,68899,6,0,L|163:372,1,77.0000023498536,4|0,0:0|0:0,0:0:0:0:
263,373,69263,2,0,L|267:297,1,77.0000023498536,8|0,0:0|0:0,0:0:0:0:
312,207,69626,1,2,0:0:0:0:
413,200,69807,1,0,0:0:0:0:
468,284,69989,1,8,0:0:0:0:
422,374,70171,1,0,0:0:0:0:
290,299,70354,6,0,L|367:289,1,77.0000023498536,4|0,0:1|0:0,0:0:0:0:
413,200,70717,1,8,0:0:0:0:
356,116,70899,2,0,P|280:105|212:139,1,154.000004699707,0|0,0:0|0:0,0:0:0:0:
144,216,71445,1,8,0:0:0:0:
49,174,71627,1,0,0:0:0:0:
92,60,71808,6,0,L|176:64,1,77.0000023498536,4|0,0:0|0:0,0:0:0:0:
260,20,72172,2,0,L|344:24,1,77.0000023498536,8|0,0:0|0:0,0:0:0:0:
412,92,72536,1,2,0:0:0:0:
370,184,72717,1,0,0:0:0:0:
269,172,72899,2,0,P|224:160|188:136,1,77.0000023498536,8|0,0:0|0:0,0:0:0:0:
92,80,73263,6,0,P|87:156|60:228,1,154.000004699707,4|8,0:0|0:0,0:0:0:0:
4,312,73808,2,0,P|41:318|77:333,1,77.0000023498536,0|0,0:0|0:0,0:0:0:0:
172,372,74172,1,0,0:0:0:0:
172,372,74354,2,0,P|209:366|245:351,1,77.0000023498536,8|0,0:0|0:0,0:0:0:0:
256,228,74717,6,0,L|88:212,1,154.000004699707,4|8,0:1|0:0,0:0:0:0:
172,140,75263,1,0,0:0:0:0:
172,140,75444,2,0,L|340:124,1,154.000004699707,4|8,0:1|0:0,0:0:0:0:
428,132,75990,1,0,0:0:0:0:
368,239,76172,6,0,P|356:276|354:315,1,77.0000023498536,4|0,0:1|0:0,0:0:0:0:
268,364,76536,2,0,P|256:327|235:295,1,77.0000023498536,8|0,0:0|0:0,0:0:0:0:
152,240,76899,2,0,L|113:240,2,38.5000011749268,2|2|2,0:0|0:0|0:0,0:0:0:0:
200,152,77263,1,8,0:0:0:0:
300,140,77445,1,0,0:0:0:0:
239,35,77626,6,0,P|164:33|104:79,1,154.000004699707,4|8,0:0|0:0,0:0:0:0:
52,164,78172,1,0,0:0:0:0:
115,239,78354,2,0,P|165:295|163:371,1,154.000004699707,2|8,0:0|0:0,0:0:0:0:
68,332,78899,1,0,0:0:0:0:
20,216,79081,6,0,L|22:139,1,77.0000023498536,2|0,0:0|0:0,0:0:0:0:
48,40,79445,2,0,L|113:81,1,77.0000023498536,8|0,0:0|0:0,0:0:0:0:
186,152,79808,2,0,L|117:187,1,77.0000023498536,2|0,0:0|0:0,0:0:0:0:
20,216,80172,1,8,0:0:0:0:
93,286,80354,1,0,0:0:0:0:
212,252,80536,6,0,P|256:232|364:252,1,154.000004699707,4|8,0:0|0:0,0:0:0:0:
440,304,81081,1,0,0:0:0:0:
496,221,81263,2,0,L|484:136,1,77.0000023498536,2|0,0:0|0:0,0:0:0:0:
396,96,81626,2,0,L|385:172,1,77.0000023498536,8|0,0:0|0:0,0:0:0:0:
260,172,81990,6,0,P|241:138|212:113,1,77.0000023498536,2|0,0:0|0:0,0:0:0:0:
164,200,82354,2,0,P|182:233|211:258,1,77.0000023498536,8|0,0:0|0:0,0:0:0:0:
304,296,82717,2,0,P|371:262|447:272,1,154.000004699707,2|8,0:0|0:0,0:0:0:0:
512,348,83263,1,0,0:0:0:0:
392,384,83445,6,0,L|212:376,1,154.000004699707,4|8,0:0|0:0,0:0:0:0:
136,384,83990,1,0,0:0:0:0:
181,292,84172,2,0,P|196:248|172:140,1,154.000004699707,2|8,0:0|0:0,0:0:0:0:
112,68,84717,1,0,0:0:0:0:
232,32,84899,6,0,P|272:44|320:44,1,77.0000023498536,2|0,0:0|0:0,0:0:0:0:
400,88,85263,2,0,P|369:116|345:158,1,77.0000023498536,8|0,0:0|0:0,0:0:0:0:
267,205,85626,2,0,P|257:164|233:122,1,77.0000023498536,8|0,3:2|3:0,0:0:0:0:
168,204,85990,2,0,L|160:248,3,38.5000011749268,8|0|0|0,3:2|3:0|3:0|3:0,0:0:0:0:
184,264,86354,5,4,0:0:0:0:
256,192,86445,12,4,87717,1:2:0:0:
