osu file format v14

[General]
AudioFilename: audio.mp3
AudioLeadIn: 0
PreviewTime: 53990
Countdown: 0
SampleSet: Normal
StackLeniency: 0.7
Mode: 1
LetterboxInBreaks: 0
WidescreenStoryboard: 0

[Editor]
DistanceSpacing: 6
BeatDivisor: 4
GridSize: 4
TimelineZoom: 1.9

[Metadata]
Title:Hitorigoto -TV MIX-
TitleUnicode:ヒトリゴト -TV MIX-
Artist:ClariS
ArtistUnicode:ClariS
Creator:Dellvangel
Version:Oni
Source:エロマンガ先生
Tags:eromanga sensei ero manga eromanga-sensei eromangasensei opening tv size siscon brocon
BeatmapID:1270713
BeatmapSetID:601505

[Difficulty]
HPDrainRate:5
CircleSize:5
OverallDifficulty:5
ApproachRate:5
SliderMultiplier:1.4
SliderTickRate:1

[Events]
//Background and Video events
0,0,"BG.jpg",0,50
//Break Periods
//Storyboard Layer 0 (Background)
//Storyboard Layer 1 (Fail)
//Storyboard Layer 2 (Pass)
//Storyboard Layer 3 (Foreground)
//Storyboard Sound Samples

[TimingPoints]
536,363.636363636364,4,1,0,70,1,0
12536,-100,4,1,0,80,0,0
24172,-100,4,1,0,70,0,0
35445,-100,4,1,0,60,0,0
41626,-100,4,1,0,80,0,0
54354,-100,4,1,0,90,0,1
86354,-100,4,1,0,80,0,0
87717,-100,4,1,0,100,0,0

[HitObjects]
256,188,536,5,4,0:0:0:0:
256,188,717,1,4,0:0:0:0:
256,188,1445,1,0,0:0:0:0:
256,188,1626,1,8,0:0:0:0:
256,188,1990,1,4,0:0:0:0:
256,188,2172,1,4,0:0:0:0:
256,188,2899,1,0,0:0:0:0:
256,188,3081,1,8,0:0:0:0:
256,188,3445,1,4,0:0:0:0:
256,188,3626,1,4,0:0:0:0:
256,188,4354,1,0,0:0:0:0:
256,188,4536,1,8,0:0:0:0:
256,188,4899,1,12,0:0:0:0:
256,188,5626,1,0,0:0:0:0:
256,188,5869,1,0,0:0:0:0:
256,188,6111,1,0,0:0:0:0:
256,188,6354,1,4,0:0:0:0:
256,188,6536,1,4,0:0:0:0:
256,188,7263,1,0,0:0:0:0:
256,188,7445,1,8,0:0:0:0:
256,188,7808,1,4,0:0:0:0:
256,188,7990,1,4,0:0:0:0:
256,188,8717,1,0,0:0:0:0:
256,188,8899,1,8,0:0:0:0:
256,188,9263,1,4,0:0:0:0:
256,188,9445,1,4,0:0:0:0:
256,188,10172,1,0,0:0:0:0:
256,188,10354,1,8,0:0:0:0:
256,188,10717,1,12,0:0:0:0:
248,188,11445,1,0,0:0:0:0:
248,188,11687,1,0,0:0:0:0:
248,188,11808,1,0,0:0:0:0:
248,188,11929,1,0,0:0:0:0:
248,188,12051,1,0,0:0:0:0:
248,188,12172,1,8,0:0:0:0:
248,188,12354,1,0,0:0:0:0:
248,188,12536,1,8,0:0:0:0:
248,188,12899,1,0,0:0:0:0:
248,188,13081,1,0,0:0:0:0:
248,188,13172,1,0,0:0:0:0:
248,188,13263,1,8,0:0:0:0:
248,188,13445,1,0,0:0:0:0:
248,188,13808,1,0,0:0:0:0:
248,188,13990,1,8,0:0:0:0:
248,188,14172,1,8,0:0:0:0:
248,188,14354,1,0,0:0:0:0:
248,188,14536,1,0,0:0:0:0:
248,188,14717,1,8,0:0:0:0:
248,188,14899,1,8,0:0:0:0:
248,188,15081,1,0,0:0:0:0:
248,188,15263,1,0,0:0:0:0:
248,188,15445,1,8,0:0:0:0:
248,188,15808,1,0,0:0:0:0:
248,188,15990,1,0,0:0:0:0:
248,188,16081,1,0,0:0:0:0:
248,188,16172,1,8,0:0:0:0:
248,188,16354,1,8,0:0:0:0:
248,188,16717,1,0,0:0:0:0:
248,188,16899,1,8,0:0:0:0:
248,188,17081,1,8,0:0:0:0:
248,188,17263,1,0,0:0:0:0:
248,188,17445,1,8,0:0:0:0:
248,188,17626,1,0,0:0:0:0:
248,188,17808,1,8,0:0:0:0:
248,188,17990,1,0,0:0:0:0:
248,188,18172,1,0,0:0:0:0:
248,188,18354,1,8,0:0:0:0:
248,188,18717,1,0,0:0:0:0:
248,188,18899,1,0,0:0:0:0:
248,188,18990,1,0,0:0:0:0:
248,188,19081,1,8,0:0:0:0:
248,188,19263,1,0,0:0:0:0:
248,188,19626,1,0,0:0:0:0:
248,188,19808,1,8,0:0:0:0:
248,188,19990,1,8,0:0:0:0:
248,188,20172,1,0,0:0:0:0:
248,188,20354,1,0,0:0:0:0:
248,188,20536,1,8,0:0:0:0:
248,188,20717,1,8,0:0:0:0:
248,188,20899,1,0,0:0:0:0:
248,188,21081,1,0,0:0:0:0:
248,188,21263,1,8,0:0:0:0:
248,188,21626,1,0,0:0:0:0:
248,188,21808,1,0,0:0:0:0:
248,188,21899,1,0,0:0:0:0:
248,188,21990,1,8,0:0:0:0:
248,188,22172,1,8,0:0:0:0:
248,188,22536,1,0,0:0:0:0:
248,188,22717,1,8,0:0:0:0:
248,188,22899,1,8,0:0:0:0:
248,188,23081,1,0,0:0:0:0:
248,188,23263,1,8,0:0:0:0:
248,188,23445,1,0,0:0:0:0:
248,188,23626,1,8,0:0:0:0:
248,188,23717,1,8,0:0:0:0:
248,188,23808,1,0,0:0:0:0:
248,188,23990,1,0,0:0:0:0:
248,188,24172,1,0,0:0:0:0:
248,188,24536,1,8,0:0:0:0:
248,188,24717,1,0,0:0:0:0:
248,188,24899,1,8,0:0:0:0:
248,188,25081,1,0,0:0:0:0:
248,188,25172,1,0,0:0:0:0:
248,188,25263,1,8,0:0:0:0:
248,188,25445,1,0,0:0:0:0:
248,188,25626,1,8,0:0:0:0:
248,188,25990,1,0,0:0:0:0:
248,188,26172,1,0,0:0:0:0:
248,188,26354,1,8,0:0:0:0:
248,188,26717,1,0,0:0:0:0:
248,188,26899,1,0,0:0:0:0:
248,188,27081,1,8,0:0:0:0:
248,188,27263,1,0,0:0:0:0:
248,188,27445,1,0,0:0:0:0:
248,188,27626,1,8,0:0:0:0:
248,188,27808,1,0,0:0:0:0:
248,188,27990,1,8,0:0:0:0:
248,188,28172,1,0,0:0:0:0:
248,188,28354,1,8,0:0:0:0:
248,188,28445,1,0,0:0:0:0:
248,188,28536,1,0,0:0:0:0:
248,188,28717,1,8,0:0:0:0:
248,188,29081,1,0,0:0:0:0:
248,188,29263,1,8,0:0:0:0:
248,188,29445,1,8,0:0:0:0:
248,188,29536,1,8,0:0:0:0:
248,188,29626,1,0,0:0:0:0:
248,188,29808,1,0,0:0:0:0:
248,188,29990,1,0,0:0:0:0:
248,188,30354,1,8,0:0:0:0:
248,188,30535,1,0,0:0:0:0:
248,188,30717,1,8,0:0:0:0:
248,188,30899,1,0,0:0:0:0:
248,188,30990,1,0,0:0:0:0:
248,188,31081,1,8,0:0:0:0:
248,188,31263,1,0,0:0:0:0:
248,188,31444,1,8,0:0:0:0:
248,188,31808,1,0,0:0:0:0:
248,188,31990,1,0,0:0:0:0:
248,188,32172,1,8,0:0:0:0:
248,188,32535,1,0,0:0:0:0:
248,188,32717,1,0,0:0:0:0:
248,188,32899,1,8,0:0:0:0:
248,188,33081,1,0,0:0:0:0:
248,188,33263,1,0,0:0:0:0:
248,188,33444,1,8,0:0:0:0:
248,188,33626,1,0,0:0:0:0:
248,188,33808,1,8,0:0:0:0:
248,188,33990,1,0,0:0:0:0:
248,188,34172,1,8,0:0:0:0:
248,188,34263,1,0,0:0:0:0:
248,188,34354,1,0,0:0:0:0:
248,188,34535,1,8,0:0:0:0:
248,188,34899,1,0,0:0:0:0:
248,188,35081,1,8,0:0:0:0:
248,188,35263,1,8,0:0:0:0:
248,188,35354,1,8,0:0:0:0:
248,188,35445,1,0,0:0:0:0:
248,188,35808,1,0,0:0:0:0:
248,188,36172,1,8,0:0:0:0:
248,188,36536,1,0,0:0:0:0:
248,188,36717,1,0,0:0:0:0:
248,188,36899,1,8,0:0:0:0:
248,188,37263,1,0,0:0:0:0:
248,188,37626,1,8,0:0:0:0:
248,188,37990,1,0,0:0:0:0:
248,188,38172,1,8,0:0:0:0:
248,188,38354,1,0,0:0:0:0:
248,188,38717,1,0,0:0:0:0:
248,188,39081,1,8,0:0:0:0:
248,188,39445,1,0,0:0:0:0:
248,188,39626,1,0,0:0:0:0:
248,188,39808,1,8,0:0:0:0:
248,188,39990,1,8,0:0:0:0:
248,188,40172,1,0,0:0:0:0:
248,188,40536,1,0,0:0:0:0:
248,188,40657,1,0,0:0:0:0:
248,188,40778,1,8,0:0:0:0:
248,188,40899,1,8,0:0:0:0:
248,188,41020,1,0,0:0:0:0:
248,188,41142,1,0,0:0:0:0:
248,188,41263,1,0,0:0:0:0:
248,188,41626,1,0,0:0:0:0:
248,188,41808,1,0,0:0:0:0:
248,188,41899,1,0,0:0:0:0:
248,188,41990,1,8,0:0:0:0:
248,188,42172,1,8,0:0:0:0:
248,188,42354,1,0,0:0:0:0:
248,188,42536,1,8,0:0:0:0:
248,188,42717,1,0,0:0:0:0:
248,188,42899,1,0,0:0:0:0:
248,188,43081,1,8,0:0:0:0:
248,188,43263,1,0,0:0:0:0:
248,188,43445,1,8,0:0:0:0:
248,188,43536,1,0,0:0:0:0:
248,188,43626,1,0,0:0:0:0:
248,188,43808,1,8,0:0:0:0:
248,188,43990,1,8,0:0:0:0:
248,188,44081,1,8,0:0:0:0:
248,188,44172,1,0,0:0:0:0:
248,188,44536,1,0,0:0:0:0:
248,188,44718,1,0,0:0:0:0:
248,188,44809,1,0,0:0:0:0:
248,188,44900,1,8,0:0:0:0:
248,188,45082,1,8,0:0:0:0:
248,188,45264,1,0,0:0:0:0:
248,188,45446,1,8,0:0:0:0:
248,188,45627,1,8,0:0:0:0:
248,188,45808,1,0,0:0:0:0:
248,188,45991,1,8,0:0:0:0:
248,188,46173,1,0,0:0:0:0:
248,188,46355,1,8,0:0:0:0:
248,188,46446,1,0,0:0:0:0:
248,188,46536,1,0,0:0:0:0:
248,188,46718,1,8,0:0:0:0:
248,188,46900,1,8,0:0:0:0:
248,188,46991,1,8,0:0:0:0:
248,188,47082,1,0,0:0:0:0:
248,188,47445,1,0,0:0:0:0:
248,188,47627,1,0,0:0:0:0:
248,188,47718,1,0,0:0:0:0:
248,188,47809,1,8,0:0:0:0:
248,188,47991,1,8,0:0:0:0:
248,188,48173,1,0,0:0:0:0:
248,188,48355,1,8,0:0:0:0:
248,188,48536,1,0,0:0:0:0:
248,188,48717,1,0,0:0:0:0:
248,188,48900,1,8,0:0:0:0:
248,188,49082,1,0,0:0:0:0:
248,188,49264,1,8,0:0:0:0:
248,188,49355,1,0,0:0:0:0:
248,188,49445,1,0,0:0:0:0:
248,188,49627,1,8,0:0:0:0:
248,188,49809,1,8,0:0:0:0:
248,188,49899,1,8,0:0:0:0:
248,188,49991,1,0,0:0:0:0:
248,188,50354,1,8,0:0:0:0:
248,188,50536,1,0,0:0:0:0:
248,188,50626,1,0,0:0:0:0:
248,188,50717,1,8,0:0:0:0:
248,188,50899,1,0,0:0:0:0:
248,188,51081,1,8,0:0:0:0:
248,188,51263,1,0,0:0:0:0:
248,188,51445,1,8,0:0:0:0:
248,188,51626,1,0,0:0:0:0:
248,188,51717,1,0,0:0:0:0:
248,188,51808,1,8,0:0:0:0:
248,188,51990,1,0,0:0:0:0:
248,188,52172,1,8,0:0:0:0:
248,188,52354,1,8,0:0:0:0:
248,188,52536,1,0,0:0:0:0:
248,188,52717,1,0,0:0:0:0:
248,188,52808,1,0,0:0:0:0:
248,188,52899,1,0,0:0:0:0:
248,188,53081,1,12,0:0:0:0:
248,188,53445,1,4,0:0:0:0:
248,188,53808,1,8,0:0:0:0:
248,188,53899,1,8,0:0:0:0:
248,188,53990,1,0,0:0:0:0:
248,188,54081,1,0,0:0:0:0:
248,188,54172,1,0,0:0:0:0:
248,188,54354,1,4,0:0:0:0:
248,188,54717,1,8,0:0:0:0:
248,188,54899,1,0,0:0:0:0:
248,188,55081,1,8,0:0:0:0:
248,188,55172,1,0,0:0:0:0:
248,188,55263,1,0,0:0:0:0:
248,188,55445,1,0,0:0:0:0:
248,188,55626,1,8,0:0:0:0:
248,188,55808,1,0,0:0:0:0:
248,188,55990,1,8,0:0:0:0:
248,188,56081,1,8,0:0:0:0:
248,188,56172,1,0,0:0:0:0:
248,188,56354,1,8,0:0:0:0:
248,188,56536,1,0,0:0:0:0:
248,188,56717,1,0,0:0:0:0:
248,188,56808,1,0,0:0:0:0:
248,188,56899,1,8,0:0:0:0:
248,188,56990,1,0,0:0:0:0:
248,188,57081,1,8,0:0:0:0:
248,188,57263,1,4,0:0:0:0:
248,188,57626,1,8,0:0:0:0:
248,188,57808,1,8,0:0:0:0:
248,188,57990,1,8,0:0:0:0:
248,188,58081,1,0,0:0:0:0:
248,188,58172,1,0,0:0:0:0:
248,188,58354,1,0,0:0:0:0:
248,188,58535,1,8,0:0:0:0:
248,188,58717,1,0,0:0:0:0:
248,188,58899,1,8,0:0:0:0:
248,188,58990,1,8,0:0:0:0:
248,188,59081,1,0,0:0:0:0:
248,188,59263,1,8,0:0:0:0:
248,188,59445,1,0,0:0:0:0:
248,188,59626,1,8,0:0:0:0:
248,188,59717,1,8,0:0:0:0:
248,188,59808,1,0,0:0:0:0:
248,188,59899,1,0,0:0:0:0:
248,188,59990,1,8,0:0:0:0:
248,188,60172,1,4,0:0:0:0:
248,188,60536,1,8,0:0:0:0:
248,188,60717,1,0,0:0:0:0:
248,188,60899,1,0,0:0:0:0:
248,188,60990,1,0,0:0:0:0:
248,188,61081,1,0,0:0:0:0:
248,188,61263,1,8,0:0:0:0:
248,188,61445,1,8,0:0:0:0:
248,188,61626,1,0,0:0:0:0:
248,188,61808,1,8,0:0:0:0:
248,188,61990,1,8,0:0:0:0:
248,188,62172,1,0,0:0:0:0:
248,188,62354,1,0,0:0:0:0:
248,188,62445,1,0,0:0:0:0:
248,188,62536,1,0,0:0:0:0:
248,188,62626,1,0,0:0:0:0:
248,188,62717,1,8,0:0:0:0:
248,188,63081,1,0,0:0:0:0:
248,188,63263,1,0,0:0:0:0:
248,188,63445,1,12,0:0:0:0:
248,188,63626,1,0,0:0:0:0:
248,188,63808,1,0,0:0:0:0:
248,188,63990,1,0,0:0:0:0:
248,188,64172,1,12,0:0:0:0:
248,188,64536,1,0,0:0:0:0:
248,188,64717,1,0,0:0:0:0:
248,188,64808,1,0,0:0:0:0:
248,188,64899,1,8,0:0:0:0:
248,188,65081,1,0,0:0:0:0:
248,188,65263,1,0,0:0:0:0:
248,188,65445,1,0,0:0:0:0:
248,188,65626,1,8,0:0:0:0:
248,188,65717,1,8,0:0:0:0:
248,188,65808,1,8,0:0:0:0:
248,188,65899,1,8,0:0:0:0:
248,188,65990,1,0,0:0:0:0:
248,188,66354,1,8,0:0:0:0:
248,188,66536,1,0,0:0:0:0:
248,188,66718,1,8,0:0:0:0:
248,188,66809,1,0,0:0:0:0:
248,188,66900,1,0,0:0:0:0:
248,188,67082,1,0,0:0:0:0:
248,188,67263,1,8,0:0:0:0:
248,188,67445,1,8,0:0:0:0:
248,188,67626,1,0,0:0:0:0:
248,188,67716,1,0,0:0:0:0:
248,188,67809,1,8,0:0:0:0:
248,188,67991,1,0,0:0:0:0:
248,188,68173,1,0,0:0:0:0:
248,188,68354,1,0,0:0:0:0:
248,188,68445,1,0,0:0:0:0:
248,188,68536,1,8,0:0:0:0:
248,188,68626,1,0,0:0:0:0:
248,188,68718,1,8,0:0:0:0:
248,188,68899,1,4,0:0:0:0:
248,188,69263,1,8,0:0:0:0:
248,188,69445,1,8,0:0:0:0:
248,188,69627,1,8,0:0:0:0:
248,188,69718,1,0,0:0:0:0:
248,188,69809,1,0,0:0:0:0:
248,188,69991,1,0,0:0:0:0:
248,188,70172,1,8,0:0:0:0:
248,188,70354,1,8,0:0:0:0:
248,188,70536,1,0,0:0:0:0:
248,188,70626,1,0,0:0:0:0:
248,188,70717,1,8,0:0:0:0:
248,188,70900,1,0,0:0:0:0:
248,188,71082,1,0,0:0:0:0:
248,188,71263,1,8,0:0:0:0:
248,188,71354,1,8,0:0:0:0:
248,188,71445,1,0,0:0:0:0:
248,188,71536,1,0,0:0:0:0:
248,188,71627,1,8,0:0:0:0:
248,188,71809,1,4,0:0:0:0:
248,188,72173,1,8,0:0:0:0:
248,188,72354,1,0,0:0:0:0:
248,188,72536,1,0,0:0:0:0:
248,188,72627,1,0,0:0:0:0:
248,188,72718,1,0,0:0:0:0:
248,188,72900,1,8,0:0:0:0:
248,188,73082,1,8,0:0:0:0:
248,188,73263,1,0,0:0:0:0:
248,188,73445,1,8,0:0:0:0:
248,188,73627,1,8,0:0:0:0:
248,188,73808,1,8,0:0:0:0:
248,188,73991,1,0,0:0:0:0:
248,188,74082,1,0,0:0:0:0:
248,188,74173,1,0,0:0:0:0:
248,188,74263,1,0,0:0:0:0:
248,188,74354,1,8,0:0:0:0:
248,188,74718,1,0,0:0:0:0:
248,188,74899,1,0,0:0:0:0:
248,188,74990,1,0,0:0:0:0:
248,188,75081,1,8,0:0:0:0:
248,188,75263,1,0,0:0:0:0:
248,188,75445,1,8,0:0:0:0:
248,188,75626,1,8,0:0:0:0:
248,188,75717,1,8,0:0:0:0:
248,188,75808,1,0,0:0:0:0:
248,188,75990,1,0,0:0:0:0:
248,188,76172,1,12,0:0:0:0:
248,188,76536,1,12,0:0:0:0:
248,188,76899,1,12,0:0:0:0:
248,188,77263,1,8,0:0:0:0:
248,188,77445,1,8,0:0:0:0:
248,188,77536,1,8,0:0:0:0:
248,188,77626,1,0,0:0:0:0:
248,188,77808,1,0,0:0:0:0:
248,188,77990,1,8,0:0:0:0:
248,188,78172,1,8,0:0:0:0:
248,188,78263,1,0,0:0:0:0:
248,188,78354,1,8,0:0:0:0:
248,188,78536,1,0,0:0:0:0:
248,188,78717,1,8,0:0:0:0:
248,188,78899,1,0,0:0:0:0:
248,188,79081,1,12,0:0:0:0:
248,188,79445,1,12,0:0:0:0:
248,188,79808,1,12,0:0:0:0:
248,188,80172,1,8,0:0:0:0:
248,188,80354,1,8,0:0:0:0:
248,188,80445,1,8,0:0:0:0:
248,188,80535,1,0,0:0:0:0:
248,188,80717,1,0,0:0:0:0:
248,188,80899,1,8,0:0:0:0:
248,188,81081,1,8,0:0:0:0:
248,188,81172,1,0,0:0:0:0:
248,188,81263,1,0,0:0:0:0:
248,188,81445,1,0,0:0:0:0:
248,188,81626,1,8,0:0:0:0:
248,188,81808,1,8,0:0:0:0:
248,188,81899,1,8,0:0:0:0:
248,188,81990,1,0,0:0:0:0:
248,188,82172,1,0,0:0:0:0:
248,188,82354,1,8,0:0:0:0:
248,188,82445,1,0,0:0:0:0:
248,188,82536,1,0,0:0:0:0:
248,188,82717,1,12,0:0:0:0:
248,188,83081,1,4,0:0:0:0:
248,188,83445,1,0,0:0:0:0:
248,188,83626,1,0,0:0:0:0:
248,188,83808,1,8,0:0:0:0:
248,188,83990,1,8,0:0:0:0:
248,188,84081,1,0,0:0:0:0:
248,188,84172,1,8,0:0:0:0:
248,188,84354,1,0,0:0:0:0:
248,188,84536,1,8,0:0:0:0:
248,188,84717,1,0,0:0:0:0:
248,188,84899,1,12,0:0:0:0:
248,188,85263,1,12,0:0:0:0:
248,188,85626,1,0,0:0:0:0:
248,188,85748,1,0,0:0:0:0:
248,188,85869,1,8,0:0:0:0:
248,188,85990,1,8,0:0:0:0:
248,188,86111,1,0,0:0:0:0:
248,188,86232,1,0,0:0:0:0:
248,188,86354,1,8,0:0:0:0:
248,188,86899,1,0,0:0:0:0:
248,188,87081,1,8,0:0:0:0:
248,188,87717,1,12,0:0:0:0:
