osu file format v14

[General]
AudioFilename: Hitorigoto -TV MIX-.mp3
AudioLeadIn: 1500
PreviewTime: 54545
Countdown: 0
SampleSet: Soft
StackLeniency: 0.3
Mode: 0
LetterboxInBreaks: 0
WidescreenStoryboard: 1

[Editor]
DistanceSpacing: 1
BeatDivisor: 4
GridSize: 4
TimelineZoom: 1.5

[Metadata]
Title:Hitorigoto -TV MIX-
TitleUnicode:ヒトリゴト -TV MIX-
Artist:ClariS
ArtistUnicode:ClariS
Creator:DJPop
Version:Normal
Source:エロマンガ先生
Tags:eromanga sensei ero manga eromanga-sensei eromangasensei op opening tv size
BeatmapID:1535349
BeatmapSetID:727251

[Difficulty]
HPDrainRate:4
CircleSize:4
OverallDifficulty:4
ApproachRate:4
SliderMultiplier:1.28
SliderTickRate:0.5

[Events]
//Background and Video events
0,0,"Hitorigoto -TV MIX-.jpg",0,0
Video,0,"Hitorigoto -TV MIX-.avi"
//Break Periods
//Storyboard Layer 0 (Background)
//Storyboard Layer 1 (Fail)
//Storyboard Layer 2 (Pass)
//Storyboard Layer 3 (Foreground)
//Storyboard Sound Samples

[TimingPoints]
727,363.636363636364,4,2,2,80,1,0
727,-131.578947368421,4,2,2,80,0,0
12363,-100,4,2,1,80,0,0
12545,-100,4,3,1,80,0,0
15272,-100,4,2,1,80,0,0
15454,-100,4,3,1,80,0,0
18181,-100,4,2,1,80,0,0
18363,-100,4,3,1,80,0,0
21090,-100,4,2,1,80,0,0
21272,-100,4,3,1,80,0,0
22545,-98.0392156862745,4,2,1,80,0,0
24363,-102.040816326531,4,3,1,80,0,0
25090,-97.0873786407767,4,3,1,80,0,0
25817,-100,4,3,1,80,0,0
26908,-102.040816326531,4,3,1,80,0,0
28363,-100,4,3,1,80,0,0
29636,-100,4,2,2,80,0,0
29817,-100,4,2,1,80,0,0
29999,-100,4,3,1,80,0,0
30181,-102.040816326531,4,3,1,80,0,0
31636,-100,4,3,1,80,0,0
35454,-100,4,2,2,80,0,0
35636,-100,4,2,1,80,0,0
35817,-128.205128205128,4,3,1,80,0,0
41454,-100,4,2,1,80,0,0
41636,-100,4,3,1,80,0,0
43272,-99.009900990099,4,3,1,80,0,0
43636,-99.009900990099,4,2,3,80,0,0
44727,-100,4,3,1,80,0,0
46545,-100,4,2,3,80,0,0
47636,-100,4,3,1,80,0,0
49999,-105.263157894737,4,3,1,80,0,0
50908,-102.040816326531,4,3,1,80,0,0
51636,-100,4,3,1,80,0,0
53090,-100,4,2,2,80,0,0
53636,-133.333333333333,4,2,2,80,0,0
54545,-97.0873786407767,4,2,1,80,0,1
54727,-97.0873786407767,4,3,2,80,0,1
56908,-97.0873786407767,4,2,3,80,0,1
57454,-97.0873786407767,4,2,2,80,0,1
57636,-97.0873786407767,4,3,2,80,0,1
59817,-97.0873786407767,4,2,3,80,0,1
60363,-97.0873786407767,4,2,2,80,0,1
60545,-97.0873786407767,4,3,2,80,0,1
62545,-100,4,3,2,80,0,1
63272,-97.0873786407767,4,2,2,80,0,1
63454,-97.0873786407767,4,3,2,80,0,1
64727,-103.092783505155,4,3,2,80,0,1
64908,-103.092783505155,4,2,2,80,0,1
66181,-97.0873786407767,4,2,2,80,0,1
66363,-97.0873786407767,4,3,2,80,0,1
68545,-97.0873786407767,4,2,3,80,0,1
69090,-100,4,2,2,80,0,1
69272,-97.0873786407767,4,3,2,80,0,1
71454,-97.0873786407767,4,2,3,80,0,1
71999,-97.0873786407767,4,2,2,80,0,1
72181,-97.0873786407767,4,3,2,80,0,1
73454,-97.0873786407767,4,2,2,80,0,1
73636,-102.040816326531,4,3,2,80,0,1
74908,-94.3396226415094,4,2,2,80,0,1
75090,-94.3396226415094,4,3,2,80,0,1
76181,-97.0873786407767,4,3,2,80,0,1
77454,-100,4,2,2,80,0,1
77817,-104.166666666667,4,2,2,80,0,1
77999,-105.263157894737,4,3,2,80,0,1
79090,-97.0873786407767,4,3,2,80,0,1
80727,-97.0873786407767,4,2,2,80,0,1
80908,-97.0873786407767,4,3,2,80,0,1
81999,-102.040816326531,4,3,2,80,0,1
82181,-102.040816326531,4,2,2,80,0,1
83272,-102.040816326531,4,3,2,80,0,1
83636,-98.0392156862745,4,2,2,80,0,1
83817,-98.0392156862745,4,3,2,80,0,1
84727,-97.0873786407767,4,3,2,80,0,1
86181,-97.0873786407767,4,2,2,80,0,1
86545,-97.0873786407767,4,2,2,5,0,1
87908,-97.0873786407767,4,2,2,80,0,1
88181,-97.0873786407767,4,2,1,80,0,0

[Colours]
Combo1 : 186,180,214
Combo2 : 220,221,40
Combo3 : 249,201,219
Combo4 : 255,206,28

[HitObjects]
96,320,727,5,8,0:0:0:0:
96,320,908,1,8,0:0:0:0:
32,192,2181,5,8,0:0:0:0:
32,192,2363,1,8,0:0:0:0:
96,64,3636,5,8,0:0:0:0:
96,64,3817,1,8,0:0:0:0:
304,112,5090,6,0,P|256:192|304:272,1,194.559997625,4|4,0:0|0:0,0:0:0:0:
416,320,6545,5,8,0:0:0:0:
416,320,6726,1,8,0:0:0:0:
480,192,7999,5,8,0:0:0:0:
480,192,8181,1,8,0:0:0:0:
416,64,9454,5,8,0:0:0:0:
416,64,9635,1,8,0:0:0:0:
208,112,10908,6,0,P|256:192|208:272,1,194.559997625,4|4,0:0|0:0,0:0:0:0:
96,320,12363,5,4,0:0:0:0:
32,224,12727,1,8,0:0:0:0:
96,128,13090,2,0,P|168:64|256:32,1,192,2|0,0:0|0:0,0:0:0:0:
368,64,13999,1,0,0:0:0:0:
432,160,14363,1,0,0:0:0:0:
448,272,14727,2,0,P|395:346|304:336,1,192,0|4,0:0|0:0,0:0:0:0:
208,272,15636,5,8,0:0:0:0:
272,176,15999,2,0,P|295:89|224:32,1,192,2|0,0:0|0:0,0:0:0:0:
112,64,16908,1,0,0:0:0:0:
80,176,17272,1,0,0:0:0:0:
112,288,17636,1,0,0:0:0:0:
224,320,17999,2,0,L|288:320,1,64,0|4,0:0|0:0,0:0:0:0:
400,288,18545,5,8,0:0:0:0:
464,192,18908,2,0,P|478:100|416:32,1,192,2|0,0:0|0:0,0:0:0:0:
304,64,19817,1,0,0:0:0:0:
240,160,20181,1,0,0:0:0:0:
176,64,20545,2,0,P|89:41|32:112,1,192,0|4,0:0|0:0,0:0:0:0:
48,224,21454,5,8,0:0:0:0:
128,304,21817,2,0,P|216:336|304:304,1,192,2|0,0:0|0:0,0:0:0:0:
352,272,22545,2,0,P|412:250|472:272,2,130.560000796875,4|12|4,0:0|0:0|0:0,0:0:0:0:
324,224,23454,2,0,P|248:170|152:184,1,195.840001195312,8|4,0:0|0:0,0:0:0:0:
72,264,24363,6,0,P|38:214|40:152,1,125.439998851563,8|2,0:0|0:0,0:0:0:0:
96,48,25090,2,0,P|160:36|224:48,1,131.839998893555,8|2,0:0|0:0,0:0:0:0:
336,80,25817,1,8,0:0:0:0:
432,144,26181,1,2,0:0:0:0:
464,256,26545,1,8,0:0:0:0:
400,352,26908,6,0,B|352:336|352:336|336:288|336:288|288:272|288:272|256:289|256:289|224:272|224:272|176:288|176:288|160:336|160:336|112:352,1,376.319996554688,2|8,0:0|0:0,0:0:0:0:
32,256,28363,1,2,0:0:0:0:
32,256,28545,2,0,P|65:201|112:160,1,128
208,96,29272,2,0,P|230:74|240:44,2,64,0|8|8,0:0|0:0|0:0,0:0:0:0:
368,32,30181,6,0,P|425:57|448:112,1,125.439998851563,8|2,0:0|0:0,0:0:0:0:
448,224,30908,2,0,P|423:281|368:304,1,125.439998851563,8|2,0:0|0:0,0:0:0:0:
256,272,31636,1,8,0:0:0:0:
176,352,31999,1,2,0:0:0:0:
96,272,32363,1,8,0:0:0:0:
112,160,32727,6,0,B|160:176|160:176|176:128|176:128|224:144|224:144|256:120|256:120|288:144|288:144|336:128|336:128|352:176|352:176|400:160,1,384,2|8,0:0|0:0,0:0:0:0:
416,272,34181,1,2,0:0:0:0:
416,272,34363,2,0,P|392:331|336:352,1,128
224,352,35090,2,0,L|160:352,2,64,0|8|8,0:0|0:0|0:0,0:0:0:0:
256,224,35999,5,0,0:0:0:0:
160,240,36363,2,0,P|112:228|80:192,1,99.8400033515626,8|0,0:0|0:0,0:0:0:0:
160,128,37090,2,0,P|120:69|48:48,2,149.760005027344,2|2|0,0:0|0:0|0:0,0:0:0:0:
176,176,38363,6,0,P|216:235|288:256,1,149.760005027344,0|2,0:0|0:0,0:0:0:0:
384,240,39272,1,8,0:0:0:0:
440,160,39636,1,0,0:0:0:0:
352,112,39999,2,0,P|408:64|480:64,2,149.760005027344,2|2|2,0:0|0:0|0:0,0:0:0:0:
256,48,41454,1,4,0:0:0:0:
144,32,41817,6,0,L|80:32,2,64,8|0|2,0:0|0:0|0:0,0:0:0:0:
128,144,42545,2,0,L|192:144,2,64,8|0|2,0:0|0:0|0:0,0:0:0:0:
112,256,43272,2,0,P|169:285|232:296,1,129.279997435547,8|2,0:0|0:0,0:0:0:0:
280,296,43817,2,0,P|343:285|400:256,1,129.279997435547,2|2,0:0|0:0,0:0:0:0:
368,32,44727,6,0,L|432:32,2,64,8|0|2,0:0|0:0|0:0,0:0:0:0:
384,144,45455,2,0,L|320:144,2,64,8|0|2,0:0|0:0|0:0,0:0:0:0:
400,256,46181,2,0,P|343:285|280:296,1,128,8|2,0:0|0:0,0:0:0:0:
232,296,46727,2,0,P|169:285|112:256,1,128,2|2,0:0|0:0,0:0:0:0:
200,32,47636,6,0,L|136:32,2,64,8|0|2,0:0|0:0|0:0,0:0:0:0:
312,32,48363,2,0,L|376:32,2,64,8|0|2,0:0|0:0|0:0,0:0:0:0:
256,128,49090,2,0,P|240:210|144:208,1,192,8|0,0:0|0:0,0:0:0:0:
48,144,49999,6,0,P|40:261|135:325,1,243.19999350586
192,336,50908,2,0,P|287:329|368:288,1,188.159998277344,2|0,0:0|0:0,0:0:0:0:
400,240,51636,5,2,0:0:0:0:
464,144,51999,1,8,0:0:0:0:
376,72,52363,1,2,0:0:0:0:
312,168,52727,1,8,0:0:0:0:
200,168,53090,5,8,0:0:0:0:
200,168,53272,1,8,0:0:0:0:
136,72,53636,1,12,0:0:0:0:
48,272,54545,6,0,P|85:325|144:352,1,131.839998893555,12|8,0:0|0:0,0:0:0:0:
200,248,55272,2,0,P|256:219|312:248,1,131.839998893555,8|8,0:0|0:0,0:0:0:0:
368,352,55999,2,0,P|427:325|464:271,1,131.839998893555,8|8,0:0|0:0,0:0:0:0:
480,224,56545,2,0,P|481:155|464:96,2,131.839998893555,2|2|2,0:0|0:0|0:0,0:0:0:0:
465,271,57454,6,0,P|406:245|368:192,1,131.839998893555,12|8,0:0|0:0,0:0:0:0:
312,88,58181,2,0,P|256:59|200:88,1,131.839998893555,8|8,0:0|0:0,0:0:0:0:
144,191,58908,2,0,P|106:244|48:272,1,131.839998893555,8|8,0:0|0:0,0:0:0:0:
32,224,59454,2,0,P|31:155|48:96,2,131.839998893555,2|2|2,0:0|0:0|0:0,0:0:0:0:
48,272,60363,6,0,P|85:325|144:352,1,131.839998893555,12|8,0:0|0:0,0:0:0:0:
168,224,61090,2,0,P|195:165|248:128,1,131.839998893555,8|8,0:0|0:0,0:0:0:0:
304,112,61636,2,0,P|362:86|400:32,2,131.839998893555,2|2|2,0:0|0:0|0:0,0:0:0:0:
288,168,62545,2,0,P|289:231|256:284,1,128,8|8,0:0|0:0,0:0:0:0:
152,344,63272,5,12,0:0:0:0:
60,256,63636,1,8,0:0:0:0:
60,128,63999,1,8,0:0:0:0:
152,40,64363,1,8,0:0:0:0:
272,32,64727,2,0,B|288:96|288:96|224:112|224:112|208:176|208:176|304:208|304:208|288:272|288:272|224:288|224:288|240:352,1,496.640011746094,8|12,0:0|0:0,0:0:0:0:
368,352,66544,5,8,0:0:0:0:
432,256,66908,1,8,0:0:0:0:
416,144,67272,1,8,0:0:0:0:
480,48,67636,2,0,P|415:36|351:48,1,131.839998893555,8|8,0:0|0:0,0:0:0:0:
312,64,68181,1,2,0:0:0:0:
200,64,68545,1,2,0:0:0:0:
160,48,68727,2,0,P|96:36|32:48,1,131.839998893555,2|12,0:0|0:0,0:0:0:0:
96,144,69453,5,8,0:0:0:0:
200,192,69817,1,8,0:0:0:0:
96,240,70181,1,8,0:0:0:0:
32,336,70545,2,0,P|96:348|160:336,1,131.839998893555,8|8,0:0|0:0,0:0:0:0:
200,320,71090,1,2,0:0:0:0:
312,320,71454,1,2,0:0:0:0:
352,336,71636,2,0,P|416:348|480:336,1,131.839998893555,2|12,0:0|0:0,0:0:0:0:
480,288,72181,6,0,P|454:230|400:192,1,131.839998893555,2|2,0:0|0:0,0:0:0:0:
400,144,72727,2,0,P|454:106|480:48,2,131.839998893555,8|8|12,0:0|0:0|0:0,0:0:0:0:
352,160,73636,2,0,P|291:146|240:112,1,125.439998851563,2|2,0:0|0:0,0:0:0:0:
208,80,74181,2,0,P|156:45|95:31,1,125.439998851563,8|8,0:0|0:0,0:0:0:0:
32,128,74908,6,0,P|49:260|144:352,1,271.360000414062,12|8,0:0|0:0,0:0:0:0:
336,352,76181,1,2,0:0:0:0:
336,352,76363,2,0,P|396:332|416:272,1,131.839998893555,8|8,0:0|0:0,0:0:0:0:
416,160,77090,2,0,P|397:101|336:80,1,131.839998893555,8|8,0:0|0:0,0:0:0:0:
256,160,77817,6,0,P|168:145|104:80,1,184.3200045,12|2,0:0|0:0,0:0:0:0:
80,32,78545,1,8,0:0:0:0:
32,224,79090,1,2,0:0:0:0:
32,224,79272,2,0,P|56:286|96:336,1,131.839998893555,8|8,0:0|0:0,0:0:0:0:
208,336,79999,2,0,P|248:286|272:224,1,131.839998893555,8|8,0:0|0:0,0:0:0:0:
160,192,80727,6,0,P|191:100|272:48,1,197.759998340332,12|2,0:0|0:0,0:0:0:0:
320,32,81454,1,8,0:0:0:0:
432,64,81818,1,8,0:0:0:0:
448,112,81999,2,0,P|370:328|192:320,1,439.039995980469,2|8,0:0|0:0,0:0:0:0:
96,256,83636,6,0,P|50:174|88:88,1,195.840001195312,12|2,0:0|0:0,0:0:0:0:
128,48,84363,1,8,0:0:0:0:
288,48,84908,1,2,0:0:0:0:
288,48,85090,2,0,P|325:100|304:160,1,131.839998893555,8|8,0:0|0:0,0:0:0:0:
208,224,85817,2,0,P|188:283|224:336,1,131.839998893555,8|8,0:0|0:0,0:0:0:0:
256,192,86545,12,8,87908,0:0:0:0:
