osu file format v14

[General]
AudioFilename: Hitorigoto -TV MIX-.mp3
AudioLeadIn: 1500
PreviewTime: 54545
Countdown: 0
SampleSet: Soft
StackLeniency: 0.5
Mode: 0
LetterboxInBreaks: 0
WidescreenStoryboard: 0

[Editor]
DistanceSpacing: 1
BeatDivisor: 4
GridSize: 32
TimelineZoom: 1.5

[Metadata]
Title:Hitorigoto -TV MIX-
TitleUnicode:ヒトリゴト -TV MIX-
Artist:ClariS
ArtistUnicode:ClariS
Creator:DJPop
Version:Insane
Source:エロマンガ先生
Tags:eromanga sensei ero manga eromanga-sensei eromangasensei op opening tv size
BeatmapID:1535348
BeatmapSetID:727251

[Difficulty]
HPDrainRate:8
CircleSize:5
OverallDifficulty:8
ApproachRate:8
SliderMultiplier:1.92
SliderTickRate:2

[Events]
//Background and Video events
0,0,"Hitorigoto -TV MIX-.jpg",0,0
Video,0,"Hitorigoto -TV MIX-.avi"
//Break Periods
//Storyboard Layer 0 (Background)
//Storyboard Layer 1 (Fail)
//Storyboard Layer 2 (Pass)
//Storyboard Layer 3 (Foreground)
//Storyboard Sound Samples

[TimingPoints]
727,363.636363636364,4,2,2,80,1,0
727,-144.927536231884,4,2,2,80,0,0
1636,-144.927536231884,4,2,1,80,0,0
1999,-144.927536231884,4,2,1,40,0,0
2181,-144.927536231884,4,2,2,80,0,0
3090,-144.927536231884,4,2,1,80,0,0
3454,-144.927536231884,4,2,1,40,0,0
3636,-144.927536231884,4,2,2,80,0,0
4545,-147.058823529412,4,2,1,80,0,0
4908,-147.058823529412,4,2,1,40,0,0
5090,-153.846153846154,4,2,2,80,0,0
5454,-153.846153846154,4,2,1,40,0,0
5817,-153.846153846154,4,2,2,80,0,0
6060,-153.846153846154,4,2,2,70,0,0
6302,-153.846153846154,4,2,2,60,0,0
6545,-153.846153846154,4,2,2,80,0,0
7454,-156.25,4,2,1,80,0,0
7817,-156.25,4,2,1,40,0,0
7999,-156.25,4,2,2,80,0,0
8908,-156.25,4,2,1,80,0,0
9272,-156.25,4,2,1,60,0,0
9454,-156.25,4,2,2,80,0,0
10363,-161.290322580645,4,2,1,80,0,0
10727,-147.058823529412,4,2,1,60,0,0
10908,-144.927536231884,4,2,2,80,0,0
11272,-147.058823529412,4,2,1,60,0,0
11636,-147.058823529412,4,2,2,80,0,0
11878,-147.058823529412,4,2,2,70,0,0
12120,-147.058823529412,4,2,2,60,0,0
12363,-100,4,2,1,80,0,0
12545,-100,4,3,1,80,0,0
15272,-100,4,2,1,80,0,0
15454,-100,4,3,1,80,0,0
18181,-100,4,2,1,80,0,0
18363,-100,4,3,1,80,0,0
21090,-100,4,2,1,80,0,0
21272,-100,4,3,1,80,0,0
22545,-100,4,2,1,80,0,0
22727,-100,4,3,1,80,0,0
22908,-100,4,2,1,80,0,0
23090,-100,4,3,1,80,0,0
23272,-100,4,2,1,80,0,0
23454,-100,4,3,1,80,0,0
23545,-100,4,2,2,80,0,0
23817,-100,4,2,1,80,0,0
23999,-100,4,2,1,80,0,0
24181,-100,4,3,1,80,0,0
29636,-100,4,2,2,80,0,0
29817,-100,4,2,1,80,0,0
29999,-100,4,3,1,80,0,0
35454,-100,4,2,2,80,0,0
35636,-147.058823529412,4,2,1,80,0,0
35817,-147.058823529412,4,2,2,80,0,0
37090,-149.253731343284,4,2,1,80,0,0
37454,-149.253731343284,4,2,2,80,0,0
37636,-147.058823529412,4,2,1,80,0,0
37817,-147.058823529412,4,2,2,80,0,0
37999,-147.058823529412,4,2,1,80,0,0
38181,-147.058823529412,4,2,2,80,0,0
38363,-147.058823529412,4,2,1,80,0,0
38545,-147.058823529412,4,2,1,80,0,0
38727,-147.058823529412,4,2,2,80,0,0
39999,-147.058823529412,4,2,1,80,0,0
40181,-147.058823529412,4,2,2,80,0,0
40363,-147.058823529412,4,2,1,80,0,0
40727,-100,4,2,2,80,0,0
41090,-100,4,2,1,80,0,0
41636,-100,4,3,1,80,0,0
47272,-100,4,2,1,80,0,0
47454,-100,4,3,1,80,0,0
51636,-96.1538461538461,4,3,1,80,0,0
52908,-96.1538461538461,4,2,2,80,0,0
53454,-96.1538461538461,4,2,1,80,0,0
53636,-192.307692307692,4,2,2,80,0,0
54545,-100,4,2,1,80,0,1
54727,-100,4,3,2,80,0,1
57454,-100,4,2,2,80,0,1
57636,-100,4,3,2,80,0,1
60363,-100,4,2,2,80,0,1
60545,-100,4,3,2,80,0,1
61817,-100,4,2,2,80,0,1
61999,-100,4,3,2,80,0,1
63272,-100,4,2,2,80,0,1
63454,-100,4,3,2,80,0,1
65817,-100,4,2,2,80,0,1
65999,-100,4,2,1,80,0,1
66181,-100,4,2,2,80,0,1
66363,-100,4,3,2,80,0,1
69090,-100,4,2,2,80,0,1
69272,-100,4,3,2,80,0,1
71999,-100,4,2,2,80,0,1
72181,-100,4,3,2,80,0,1
73454,-100,4,2,2,80,0,1
73636,-100,4,3,2,80,0,1
74908,-106.382978723404,4,2,2,80,0,1
75090,-106.382978723404,4,3,4,80,0,1
75272,-106.382978723404,4,3,2,80,0,1
75636,-103.092783505155,4,3,2,80,0,1
75817,-103.092783505155,4,3,4,80,0,1
75999,-100,4,3,2,80,0,1
77090,-100,4,2,2,80,0,1
77636,-100,4,2,1,80,0,1
77817,-100,4,2,2,80,0,1
77999,-100,4,3,2,80,0,1
80727,-96.1538461538461,4,2,2,80,0,1
80908,-96.1538461538461,4,3,2,80,0,1
81999,-96.1538461538461,4,3,2,80,0,1
83636,-100,4,2,2,80,0,1
83817,-100,4,3,2,80,0,1
85454,-96.1538461538461,4,3,2,80,0,1
85999,-96.1538461538461,4,2,2,80,0,1
86363,-96.1538461538461,4,2,1,80,0,1
86636,-100,4,2,2,5,0,1
87908,-100,4,2,2,80,0,1
88181,-100,4,2,1,80,0,0

[Colours]
Combo1 : 186,180,214
Combo2 : 220,221,40
Combo3 : 249,201,219
Combo4 : 255,206,28

[HitObjects]
64,96,727,5,8,0:0:0:0:
64,96,908,1,8,0:0:0:0:
64,96,1636,2,0,P|128:82|192:96,1,132.480000202148
256,128,2181,5,8,0:0:0:0:
256,128,2363,1,8,0:0:0:0:
256,128,3090,2,0,P|320:142|384:128,1,132.480000202148
448,96,3636,5,8,0:0:0:0:
448,96,3817,1,8,0:0:0:0:
448,96,4545,2,0,P|457:161|448:224,1,130.560000796875
416,288,5090,6,0,P|379:336|320:352,1,124.79999428711,4|0,0:0|0:0,0:0:0:0:
160,352,5817,1,12,0:0:0:0:
128,256,6060,1,8,0:0:0:0:
96,160,6302,1,8,0:0:0:0:
192,128,6545,5,8,0:0:0:0:
192,128,6727,1,8,0:0:0:0:
192,128,7454,2,0,P|231:81|288:64,1,122.88
352,64,7999,5,8,0:0:0:0:
352,64,8181,1,8,0:0:0:0:
352,64,8908,2,0,P|410:82|448:128,1,122.88
480,192,9454,5,8,0:0:0:0:
480,192,9636,1,8,0:0:0:0:
480,192,10363,2,0,P|457:246|416:288,1,119.039995277344
352,320,10908,6,0,P|288:334|224:320,1,132.480000202148,4|0,0:0|0:0,0:0:0:0:
64,256,11636,1,12,0:0:0:0:
32,160,11878,1,8,0:0:0:0:
64,64,12120,1,8,0:0:0:0:
160,32,12363,6,0,L|256:32,1,96,4|0,0:0|0:0,0:0:0:0:
288,96,12727,2,0,L|192:96,1,96,8|0,0:0|0:0,0:0:0:0:
160,160,13090,1,2,0:0:0:0:
128,224,13272,1,0,0:0:0:0:
192,224,13454,1,8,0:0:0:0:
224,160,13636,6,0,L|320:160,1,96,0|2,0:0|0:0,0:0:0:0:
352,96,13999,2,0,L|448:96,1,96,0|8,0:0|0:0,0:0:0:0:
480,160,14363,2,0,L|384:160,1,96,0|2,0:0|0:0,0:0:0:0:
352,224,14727,2,0,L|448:224,1,96,0|8,0:0|0:0,0:0:0:0:
480,288,15090,1,0,0:0:0:0:
448,352,15272,6,0,L|352:352,1,96,4|0,0:0|0:0,0:0:0:0:
320,288,15636,2,0,L|224:288,1,96,8|0,0:0|0:0,0:0:0:0:
192,352,15999,1,2,0:0:0:0:
128,320,16181,1,0,0:0:0:0:
64,288,16363,1,8,0:0:0:0:
64,224,16545,6,0,L|64:128,1,96,0|2,0:0|0:0,0:0:0:0:
128,160,16908,2,0,L|128:64,1,96,0|8,0:0|0:0,0:0:0:0:
192,96,17272,2,0,L|288:96,1,96,0|2,0:0|0:0,0:0:0:0:
320,160,17636,2,0,L|224:160,1,96,0|8,0:0|0:0,0:0:0:0:
224,224,17999,6,0,L|128:224,2,96,0|4|0,0:0|0:0|0:0,0:0:0:0:
288,224,18545,2,0,L|384:224,1,96,8|0,0:0|0:0,0:0:0:0:
416,288,18908,1,2,0:0:0:0:
448,224,19090,1,0,0:0:0:0:
480,160,19272,1,8,0:0:0:0:
448,96,19454,6,0,L|352:96,1,96,0|2,0:0|0:0,0:0:0:0:
320,32,19817,2,0,L|224:32,1,96,0|8,0:0|0:0,0:0:0:0:
192,96,20181,2,0,L|288:96,1,96,0|2,0:0|0:0,0:0:0:0:
320,160,20545,2,0,L|224:160,1,96,0|8,0:0|0:0,0:0:0:0:
160,160,20908,1,0,0:0:0:0:
96,160,21090,6,0,L|96:64,1,96,4|0,0:0|0:0,0:0:0:0:
32,32,21454,2,0,L|32:128,1,96,8|0,0:0|0:0,0:0:0:0:
32,192,21817,1,2,0:0:0:0:
64,256,21999,1,0,0:0:0:0:
128,288,22181,1,8,0:0:0:0:
160,352,22363,1,0,0:0:0:0:
192,288,22545,5,4,0:0:0:0:
224,352,22727,1,0,0:0:0:0:
256,288,22908,1,12,0:0:0:0:
288,352,23090,1,0,0:0:0:0:
320,288,23272,1,4,0:0:0:0:
358,358,23454,1,0,0:0:0:0:
358,358,23545,1,8,0:0:0:0:
358,358,23636,1,8,0:0:0:0:
384,288,23817,1,0,0:0:0:0:
416,224,23999,6,0,L|416:128,1,96,4|0,0:0|0:0,0:0:0:0:
320,128,24363,2,0,L|416:128,1,96,8|0,0:0|0:0,0:0:0:0:
320,128,24727,2,0,L|320:32,1,96,2|0,0:0|0:0,0:0:0:0:
224,32,25090,2,0,L|320:32,1,96,8|0,0:0|0:0,0:0:0:0:
224,32,25454,6,0,L|224:128,1,96,2|0,0:0|0:0,0:0:0:0:
128,128,25817,2,0,L|224:128,1,96,8|0,0:0|0:0,0:0:0:0:
128,128,26181,2,0,L|128:224,1,96,2|0,0:0|0:0,0:0:0:0:
32,224,26545,2,0,L|128:224,1,96,8|0,0:0|0:0,0:0:0:0:
64,288,26908,5,2,0:0:0:0:
96,352,27090,1,0,0:0:0:0:
128,288,27272,1,8,0:0:0:0:
192,320,27454,1,0,0:0:0:0:
256,288,27636,1,2,0:0:0:0:
320,320,27817,1,0,0:0:0:0:
384,288,27999,1,8,0:0:0:0:
416,352,28181,1,0,0:0:0:0:
448,288,28363,5,2,0:0:0:0:
480,224,28545,2,0,L|480:128,1,96,0|8,0:0|0:0,0:0:0:0:
480,32,28908,2,0,L|480:128,1,96,0|2,0:0|0:0,0:0:0:0:
416,160,29272,1,0,0:0:0:0:
416,96,29454,1,8,0:0:0:0:
352,128,29636,1,8,0:0:0:0:
352,128,29727,1,8,0:0:0:0:
352,128,29817,6,0,L|352:224,1,96,4|0,0:0|0:0,0:0:0:0:
256,224,30181,2,0,L|352:224,1,96,8|0,0:0|0:0,0:0:0:0:
256,224,30545,2,0,L|256:320,1,96,2|0,0:0|0:0,0:0:0:0:
160,320,30908,2,0,L|256:320,1,96,8|0,0:0|0:0,0:0:0:0:
160,320,31272,6,0,L|64:320,1,96,2|0,0:0|0:0,0:0:0:0:
64,224,31635,2,0,L|64:320,1,96,8|0,0:0|0:0,0:0:0:0:
64,224,31999,2,0,L|64:128,1,96,2|0,0:0|0:0,0:0:0:0:
160,128,32363,2,0,L|64:128,1,96,8|0,0:0|0:0,0:0:0:0:
32,64,32726,5,2,0:0:0:0:
96,32,32908,1,0,0:0:0:0:
160,64,33090,1,8,0:0:0:0:
224,32,33272,1,0,0:0:0:0:
256,96,33454,1,2,0:0:0:0:
288,32,33635,1,0,0:0:0:0:
352,64,33817,1,8,0:0:0:0:
416,32,33999,1,0,0:0:0:0:
480,64,34181,5,2,0:0:0:0:
480,128,34363,2,0,L|480:224,1,96,0|8,0:0|0:0,0:0:0:0:
480,320,34726,2,0,L|480:224,1,96,0|2,0:0|0:0,0:0:0:0:
416,192,35090,1,0,0:0:0:0:
416,256,35272,1,8,0:0:0:0:
352,224,35454,1,8,0:0:0:0:
352,224,35545,1,8,0:0:0:0:
352,224,35636,5,4,0:0:0:0:
352,352,35999,2,0,P|319:355|288:352,1,65.2800003984375,2|0,0:0|0:0,0:0:0:0:
224,320,36363,2,0,P|191:317|160:320,1,65.2800003984375,8|0,0:0|0:0,0:0:0:0:
96,352,36727,2,0,P|63:355|32:352,1,65.2800003984375,2|0,0:0|0:0,0:0:0:0:
64,288,37090,2,0,L|64:160,1,128.639993915039,0|2,0:0|0:0,0:0:0:0:
64,96,37636,2,0,P|61:64|64:32,2,65.2800003984375,0|8|0,0:0|0:0|0:0,0:0:0:0:
128,128,38181,1,2,0:0:0:0:
192,96,38363,2,0,P|195:64|192:32,1,65.2800003984375,0|4,0:0|0:0,0:0:0:0:
320,32,38908,6,0,P|317:64|320:96,1,65.2800003984375,2|0,0:0|0:0,0:0:0:0:
384,128,39272,2,0,P|381:160|384:192,1,65.2800003984375,8|0,0:0|0:0,0:0:0:0:
448,224,39636,2,0,P|445:256|448:288,1,65.2800003984375,2|8,0:0|0:0,0:0:0:0:
416,352,39999,2,0,P|448:357|480:352,2,65.2800003984375,0|8|2,0:0|0:0|0:0,0:0:0:0:
352,320,40545,1,0,0:0:0:0:
288,288,40727,2,0,L|256:352,2,64,8|8|8,0:0|0:0|0:0,0:0:0:0:
224,256,41090,2,0,L|256:192,2,64
192,320,41454,6,0,L|96:320,1,96,4|0,0:0|0:0,0:0:0:0:
32,288,41817,1,8,0:0:0:0:
96,256,41999,1,0,0:0:0:0:
32,224,42181,2,0,L|32:128,1,96,2|0,0:0|0:0,0:0:0:0:
64,64,42545,1,8,0:0:0:0:
96,128,42727,1,0,0:0:0:0:
128,64,42908,6,0,L|224:64,1,96,2|0,0:0|0:0,0:0:0:0:
288,32,43272,1,8,0:0:0:0:
320,96,43454,1,0,0:0:0:0:
352,32,43636,1,2,0:0:0:0:
384,96,43817,2,0,P|407:137|448:160,1,96,0|8,0:0|0:0,0:0:0:0:
480,96,44181,2,0,P|458:56|416:32,2,96,0|2|0,0:0|0:0|0:0,0:0:0:0:
448,160,44727,5,8,0:0:0:0:
416,224,44908,1,0,0:0:0:0:
384,288,45090,2,0,P|362:328|320:352,1,96,2|0,0:0|0:0,0:0:0:0:
288,288,45454,1,8,0:0:0:0:
256,224,45636,1,0,0:0:0:0:
224,160,45817,6,0,P|202:120|160:96,1,96,2|0,0:0|0:0,0:0:0:0:
128,160,46181,1,8,0:0:0:0:
96,224,46363,1,0,0:0:0:0:
64,288,46545,1,2,0:0:0:0:
32,224,46727,2,0,L|32:128,1,96,0|8,0:0|0:0,0:0:0:0:
32,64,47090,1,0,0:0:0:0:
96,96,47272,6,0,P|117:57|160:32,1,96,4|0,0:0|0:0,0:0:0:0:
224,32,47636,1,8,0:0:0:0:
256,96,47817,1,0,0:0:0:0:
288,32,47999,2,0,P|329:55|352:96,1,96,2|0,0:0|0:0,0:0:0:0:
352,160,48363,1,8,0:0:0:0:
288,192,48545,1,0,0:0:0:0:
352,224,48727,6,0,P|330:264|288:288,1,96,2|0,0:0|0:0,0:0:0:0:
224,288,49090,1,8,0:0:0:0:
192,352,49272,1,0,0:0:0:0:
160,288,49454,1,2,0:0:0:0:
128,224,49636,2,0,P|106:184|64:160,1,96,0|8,0:0|0:0,0:0:0:0:
96,96,49999,2,0,P|56:75|32:32,2,96,0|2|0,0:0|0:0|0:0,0:0:0:0:
160,128,50545,5,8,0:0:0:0:
192,64,50727,1,0,0:0:0:0:
256,96,50908,2,0,P|298:120|320:160,1,96,2|0,0:0|0:0,0:0:0:0:
352,224,51272,1,8,0:0:0:0:
416,192,51454,1,0,0:0:0:0:
480,224,51636,6,0,P|460:269|416:288,1,99.839999390625,2|0,0:0|0:0,0:0:0:0:
352,288,51999,2,0,P|307:308|288:352,1,99.839999390625,8|0,0:0|0:0,0:0:0:0:
224,352,52363,2,0,P|205:308|160:288,1,99.839999390625,2|0,0:0|0:0,0:0:0:0:
96,288,52727,2,0,P|52:269|32:224,1,99.839999390625,8|8,0:0|0:0,0:0:0:0:
32,192,52999,1,8,0:0:0:0:
32,160,53090,5,8,0:0:0:0:
32,96,53272,2,0,P|52:51|96:32,1,99.839999390625,8|0,0:0|0:0,0:0:0:0:
160,32,53636,6,0,B|217:38|224:96|224:96|231:155|288:160,1,199.67999878125,12|0,0:0|0:0,0:0:0:0:
352,160,54545,5,12,0:0:0:0:
384,96,54727,1,2,0:0:0:0:
416,32,54908,1,8,0:0:0:0:
480,64,55090,1,2,0:0:0:0:
448,128,55272,1,8,0:0:0:0:
480,192,55454,1,2,0:0:0:0:
448,256,55636,1,8,0:0:0:0:
480,320,55817,1,2,0:0:0:0:
416,352,55999,5,8,0:0:0:0:
384,288,56181,1,2,0:0:0:0:
352,224,56363,1,8,0:0:0:0:
288,192,56545,2,0,L|192:192,1,96,2|8,0:0|0:0,0:0:0:0:
288,192,56908,1,2,0:0:0:0:
192,192,57090,1,8,0:0:0:0:
288,192,57272,2,0,L|192:192,1,96,2|12,0:0|0:0,0:0:0:0:
160,128,57636,5,2,0:0:0:0:
128,64,57817,1,8,0:0:0:0:
64,32,57999,1,2,0:0:0:0:
32,96,58181,1,8,0:0:0:0:
96,128,58363,1,2,0:0:0:0:
128,192,58545,1,8,0:0:0:0:
96,256,58727,1,2,0:0:0:0:
32,288,58908,5,8,0:0:0:0:
64,352,59090,1,2,0:0:0:0:
128,320,59272,1,8,0:0:0:0:
160,256,59454,2,0,L|256:256,1,96,2|8,0:0|0:0,0:0:0:0:
160,256,59817,1,2,0:0:0:0:
256,256,59999,1,8,0:0:0:0:
160,256,60181,2,0,L|256:256,1,96,2|12,0:0|0:0,0:0:0:0:
288,320,60545,5,2,0:0:0:0:
352,352,60726,1,8,0:0:0:0:
416,320,60908,1,2,0:0:0:0:
448,256,61090,1,8,0:0:0:0:
416,192,61272,1,2,0:0:0:0:
352,160,61454,1,8,0:0:0:0:
288,192,61636,2,0,L|192:192,1,96,2|12,0:0|0:0,0:0:0:0:
128,160,61999,5,2,0:0:0:0:
96,96,62181,1,8,0:0:0:0:
128,32,62363,1,2,0:0:0:0:
192,64,62545,2,0,P|216:106|256:128,1,96,8|2,0:0|0:0,0:0:0:0:
320,96,62908,2,0,P|341:57|384:32,1,96,8|2,0:0|0:0,0:0:0:0:
448,32,63272,6,0,L|448:128,1,96,12|2,0:0|0:0,0:0:0:0:
448,224,63636,2,0,L|448:128,1,96,8|2,0:0|0:0,0:0:0:0:
384,160,63999,2,0,L|384:256,1,96,8|2,0:0|0:0,0:0:0:0:
384,352,64363,2,0,L|384:256,1,96,8|2,0:0|0:0,0:0:0:0:
320,288,64726,5,8,0:0:0:0:
288,352,64908,1,2,0:0:0:0:
224,352,65090,1,8,0:0:0:0:
192,288,65272,1,2,0:0:0:0:
224,224,65454,1,8,0:0:0:0:
288,224,65636,1,2,0:0:0:0:
326,166,65817,1,8,0:0:0:0:
326,166,65908,1,8,0:0:0:0:
326,166,65999,1,0,0:0:0:0:
288,96,66181,5,12,0:0:0:0:
224,96,66363,1,2,0:0:0:0:
192,32,66544,1,8,0:0:0:0:
160,96,66727,1,2,0:0:0:0:
128,32,66908,1,8,0:0:0:0:
96,96,67090,1,2,0:0:0:0:
64,160,67272,1,8,0:0:0:0:
96,224,67454,1,2,0:0:0:0:
128,160,67635,5,8,0:0:0:0:
192,160,67817,1,2,0:0:0:0:
160,224,67999,1,8,0:0:0:0:
189,285,68181,2,0,L|285:285,1,96,2|8,0:0|0:0,0:0:0:0:
189,285,68545,1,2,0:0:0:0:
285,285,68726,1,8,0:0:0:0:
189,285,68908,2,0,L|285:285,1,96,2|12,0:0|0:0,0:0:0:0:
320,352,69272,5,2,0:0:0:0:
352,288,69453,1,8,0:0:0:0:
384,352,69636,1,2,0:0:0:0:
416,288,69817,1,8,0:0:0:0:
448,224,69999,1,2,0:0:0:0:
480,160,70181,1,8,0:0:0:0:
448,96,70363,1,2,0:0:0:0:
416,160,70544,5,8,0:0:0:0:
384,224,70727,1,2,0:0:0:0:
352,160,70908,1,8,0:0:0:0:
320,224,71090,2,0,L|224:224,1,96,2|8,0:0|0:0,0:0:0:0:
320,224,71454,1,2,0:0:0:0:
224,224,71635,1,8,0:0:0:0:
320,224,71817,2,0,L|224:224,1,96,2|12,0:0|0:0,0:0:0:0:
160,192,72181,6,0,P|120:170|96:128,1,96,2|8,0:0|0:0,0:0:0:0:
64,64,72545,1,2,0:0:0:0:
128,32,72726,1,8,0:0:0:0:
160,96,72908,1,2,0:0:0:0:
224,64,73090,1,8,0:0:0:0:
288,32,73272,2,0,P|329:55|352:96,1,96,2|12,0:0|0:0,0:0:0:0:
288,128,73636,6,0,P|311:169|352:192,1,96,2|8,0:0|0:0,0:0:0:0:
416,224,73999,1,2,0:0:0:0:
480,192,74181,1,8,0:0:0:0:
416,160,74363,1,2,0:0:0:0:
352,192,74545,2,0,P|312:214|288:256,1,96,8|2,0:0|0:0,0:0:0:0:
224,288,74908,6,0,P|107:328|32:224,1,270.719995869141,12|2,0:0|0:0,0:0:0:0:
32,160,75636,2,0,P|73:79|160:64,1,186.240004404785,8|8,0:0|0:0,0:0:0:0:
192,128,76181,1,2,0:0:0:0:
256,128,76363,6,0,P|278:88|320:64,1,96,8|2,0:0|0:0,0:0:0:0:
384,64,76727,2,0,P|426:88|448:128,1,96,8|2,0:0|0:0,0:0:0:0:
486,198,77090,1,8,0:0:0:0:
486,198,77181,1,8,0:0:0:0:
486,198,77272,1,8,0:0:0:0:
416,192,77453,1,8,0:0:0:0:
448,256,77636,1,0,0:0:0:0:
384,256,77817,6,0,L|384:352,2,96,12|2|8,0:0|0:0|0:0,0:0:0:0:
352,192,78363,1,2,0:0:0:0:
320,128,78545,2,0,L|320:32,2,96,8|2|8,0:0|0:0|0:0,0:0:0:0:
288,192,79090,1,2,0:0:0:0:
256,256,79272,6,0,P|234:296|192:320,1,96,8|2,0:0|0:0,0:0:0:0:
128,320,79636,2,0,P|87:297|64:256,1,96,8|2,0:0|0:0,0:0:0:0:
64,192,79999,2,0,P|86:152|128:128,1,96,8|2,0:0|0:0,0:0:0:0:
192,128,80362,1,8,0:0:0:0:
256,128,80545,1,2,0:0:0:0:
320,96,80727,6,0,P|365:76|384:32,2,99.839999390625,12|2|8,0:0|0:0|0:0,0:0:0:0:
256,128,81272,1,2,0:0:0:0:
320,160,81454,2,0,P|365:180|384:224,1,99.839999390625,8|2,0:0|0:0,0:0:0:0:
448,256,81818,1,8,0:0:0:0:
384,288,81999,6,0,P|364:333|320:352,1,99.839999390625,2|8,0:0|0:0,0:0:0:0:
256,288,82363,2,0,P|276:333|320:352,1,99.839999390625,2|8,0:0|0:0,0:0:0:0:
256,288,82727,2,0,P|236:333|192:352,1,99.839999390625,2|8,0:0|0:0,0:0:0:0:
128,288,83090,2,0,P|148:333|192:352,1,99.839999390625,2|8,0:0|0:0,0:0:0:0:
131,291,83454,1,2,0:0:0:0:
96,224,83636,6,0,P|73:183|32:160,2,96,12|2|8,0:0|0:0|0:0,0:0:0:0:
160,192,84181,1,2,0:0:0:0:
224,160,84363,2,0,P|248:202|288:224,2,96,8|2|8,0:0|0:0|0:0,0:0:0:0:
192,96,84908,1,2,0:0:0:0:
224,32,85090,6,0,P|265:55|288:96,1,96,8|2,0:0|0:0,0:0:0:0:
352,128,85454,2,0,P|397:148|416:192,1,99.839999390625,8|2,0:0|0:0,0:0:0:0:
416,256,85817,2,0,P|396:301|352:320,1,99.839999390625,8|8,0:0|0:0,0:0:0:0:
320,320,86090,1,8,0:0:0:0:
288,320,86181,2,0,P|243:300|224:256,1,99.839999390625,8|0,0:0|0:0,0:0:0:0:
256,192,86545,5,4,0:0:0:0:
256,192,86636,12,8,87908,0:0:0:0:
