osu file format v14

[General]
AudioFilename: Hitorigoto -TV MIX-.mp3
AudioLeadIn: 1500
PreviewTime: 54545
Countdown: 0
SampleSet: Soft
StackLeniency: 0.3
Mode: 0
LetterboxInBreaks: 0
WidescreenStoryboard: 1

[Editor]
DistanceSpacing: 0.86
BeatDivisor: 4
GridSize: 4
TimelineZoom: 1.5

[Metadata]
Title:Hitorigoto -TV MIX-
TitleUnicode:ヒトリゴト -TV MIX-
Artist:ClariS
ArtistUnicode:ClariS
Creator:DJPop
Version:Hard
Source:エロマンガ先生
Tags:eromanga sensei ero manga eromanga-sensei eromangasensei op opening tv size
BeatmapID:1535347
BeatmapSetID:727251

[Difficulty]
HPDrainRate:6
CircleSize:4
OverallDifficulty:6
ApproachRate:6
SliderMultiplier:1.6
SliderTickRate:2

[Events]
//Background and Video events
0,0,"Hitorigoto -TV MIX-.jpg",0,0
Video,0,"Hitorigoto -TV MIX-.avi"
//Break Periods
//Storyboard Layer 0 (Background)
//Storyboard Layer 1 (Fail)
//Storyboard Layer 2 (Pass)
//Storyboard Layer 3 (Foreground)
//Storyboard Sound Samples

[TimingPoints]
727,363.636363636364,4,2,2,80,1,0
727,-117.647058823529,4,2,2,80,0,0
6060,-117.647058823529,4,2,2,70,0,0
6302,-117.647058823529,4,2,2,60,0,0
6545,-117.647058823529,4,2,2,80,0,0
11878,-117.647058823529,4,2,2,70,0,0
12120,-117.647058823529,4,2,2,60,0,0
12363,-100,4,2,1,80,0,0
12545,-100,4,3,1,80,0,0
15272,-100,4,2,1,80,0,0
15454,-100,4,3,1,80,0,0
18181,-100,4,2,1,80,0,0
18363,-100,4,3,1,80,0,0
21090,-100,4,2,1,80,0,0
21272,-100,4,3,1,80,0,0
22545,-100,4,2,1,80,0,0
23454,-100,4,2,2,80,0,0
23817,-100,4,2,1,80,0,0
24181,-100,4,3,1,80,0,0
25454,-101.010101010101,4,3,1,80,0,0
26181,-100,4,3,1,80,0,0
28727,-100,4,3,3,80,0,0
28908,-100,4,3,1,80,0,0
29636,-98.0392156862745,4,2,2,80,0,0
29817,-98.0392156862745,4,2,1,80,0,0
29999,-100,4,3,1,80,0,0
34908,-100,4,3,4,80,0,0
35090,-100,4,3,1,80,0,0
35454,-100,4,2,2,80,0,0
35636,-100,4,2,1,80,0,0
35817,-166.666666666667,4,2,2,80,0,0
37090,-166.666666666667,4,2,1,80,0,0
37454,-166.666666666667,4,2,2,80,0,0
37636,-166.666666666667,4,2,1,80,0,0
37817,-166.666666666667,4,2,3,80,0,0
37999,-166.666666666667,4,2,1,80,0,0
38181,-166.666666666667,4,2,2,80,0,0
38363,-133.333333333333,4,2,1,80,0,0
38545,-166.666666666667,4,2,1,80,0,0
38727,-166.666666666667,4,2,2,80,0,0
39999,-144.927536231884,4,2,1,80,0,0
40181,-144.927536231884,4,2,3,80,0,0
40363,-144.927536231884,4,2,1,80,0,0
40545,-149.253731343284,4,2,1,80,0,0
40727,-149.253731343284,4,3,3,80,0,0
40908,-149.253731343284,4,2,1,80,0,0
41090,-149.253731343284,4,3,4,80,0,0
41272,-149.253731343284,4,2,1,80,0,0
41454,-100,4,2,1,80,0,0
41636,-100,4,3,1,80,0,0
43999,-100,4,3,3,80,0,0
44181,-100,4,3,1,80,0,0
44363,-100,4,3,4,80,0,0
44545,-100,4,3,1,80,0,0
46908,-100,4,3,3,80,0,0
47090,-100,4,3,1,80,0,0
47272,-100,4,2,1,80,0,0
47454,-100,4,3,1,80,0,0
49636,-95.2380952380952,4,3,1,80,0,0
49999,-100,4,3,1,80,0,0
50181,-100,4,3,4,80,0,0
50363,-100,4,3,1,80,0,0
50545,-100,4,3,3,80,0,0
50727,-100,4,3,1,80,0,0
52908,-100,4,2,2,80,0,0
53454,-100,4,2,1,80,0,0
53636,-133.333333333333,4,2,2,80,0,0
54545,-97.0873786407767,4,2,1,80,0,1
54727,-97.0873786407767,4,3,2,80,0,1
57454,-97.0873786407767,4,2,2,80,0,1
57636,-97.0873786407767,4,3,2,80,0,1
60363,-97.0873786407767,4,2,2,80,0,1
60545,-97.0873786407767,4,3,2,80,0,1
61817,-97.0873786407767,4,2,2,80,0,1
61999,-97.0873786407767,4,3,4,80,0,1
62545,-101.010101010101,4,3,4,80,0,1
63272,-97.0873786407767,4,2,2,80,0,1
63454,-97.0873786407767,4,3,2,80,0,1
65272,-100,4,3,2,80,0,1
65817,-100,4,2,2,80,0,1
65999,-100,4,2,1,80,0,1
66181,-100,4,2,2,80,0,1
66363,-97.0873786407767,4,3,2,80,0,1
68908,-100,4,3,2,80,0,1
69090,-100,4,2,2,80,0,1
69272,-97.0873786407767,4,3,2,80,0,1
71999,-97.0873786407767,4,2,2,80,0,1
72181,-97.0873786407767,4,3,2,80,0,1
73272,-100,4,3,2,80,0,1
73454,-100,4,2,2,80,0,1
73636,-100,4,3,4,80,0,1
74181,-100,4,3,4,80,0,1
74908,-100,4,2,2,80,0,1
75090,-100,4,3,4,80,0,1
77454,-100,4,2,2,80,0,1
77636,-100,4,2,1,80,0,1
77817,-100,4,2,2,80,0,1
77999,-100,4,3,4,80,0,1
80727,-100,4,2,2,80,0,1
80908,-100,4,3,4,80,0,1
81817,-98.0392156862745,4,3,4,80,0,1
81999,-96.1538461538461,4,3,2,80,0,1
82363,-96.1538461538461,4,3,4,80,0,1
82545,-96.1538461538461,4,3,2,80,0,1
82908,-96.1538461538461,4,3,2,80,0,1
83090,-96.1538461538461,4,3,4,80,0,1
83272,-96.1538461538461,4,3,2,80,0,1
83636,-97.0873786407767,4,2,2,80,0,1
83817,-97.0873786407767,4,3,4,80,0,1
85999,-97.0873786407767,4,2,2,80,0,1
86363,-97.0873786407767,4,2,1,80,0,1
86636,-97.0873786407767,4,2,2,5,0,1
87908,-97.0873786407767,4,2,2,80,0,1
88181,-97.0873786407767,4,2,1,80,0,0

[Colours]
Combo1 : 186,180,214
Combo2 : 220,221,40
Combo3 : 249,201,219
Combo4 : 255,206,28

[HitObjects]
64,96,727,5,8,0:0:0:0:
64,96,908,1,8,0:0:0:0:
256,32,2181,5,8,0:0:0:0:
256,32,2363,1,8,0:0:0:0:
448,96,3636,5,8,0:0:0:0:
448,96,3817,1,8,0:0:0:0:
448,288,5090,5,4,0:0:0:0:
136,232,5817,2,0,P|154:192|136:152,2,90.6666683959961,12|8|8,0:0|0:0|0:0,0:0:0:0:
64,288,6545,5,8,0:0:0:0:
64,288,6727,1,8,0:0:0:0:
256,352,7999,5,8,0:0:0:0:
256,352,8181,1,8,0:0:0:0:
448,288,9454,5,8,0:0:0:0:
448,288,9636,1,8,0:0:0:0:
64,96,10908,5,4,0:0:0:0:
376,152,11636,2,0,P|358:192|376:232,2,90.6666683959961,12|8|8,0:0|0:0|0:0,0:0:0:0:
448,96,12363,6,0,P|392:43|320:64,1,160,4|8,0:0|0:0,0:0:0:0:
208,176,13090,1,2,0:0:0:0:
195,108,13272,1,0,0:0:0:0:
145,59,13454,1,8,0:0:0:0:
76,48,13636,5,0,0:0:0:0:
12,160,13999,1,0,0:0:0:0:
140,208,14363,1,0,0:0:0:0:
76,320,14727,2,0,P|152:340|220:304,1,160
292,304,15272,6,0,P|360:340|436:320,1,160,4|8,0:0|0:0,0:0:0:0:
372,208,15999,1,2,0:0:0:0:
422,161,16181,1,0,0:0:0:0:
456,101,16363,1,8,0:0:0:0:
464,32,16545,5,0,0:0:0:0:
336,32,16908,1,0,0:0:0:0:
256,128,17272,1,0,0:0:0:0:
176,224,17636,1,0,0:0:0:0:
48,224,17999,2,0,P|52:265|80:288,1,80,0|4,0:0|0:0,0:0:0:0:
224,352,18545,5,8,0:0:0:0:
384,288,18908,1,2,0:0:0:0:
436,243,19090,1,0,0:0:0:0:
466,181,19272,1,8,0:0:0:0:
464,112,19454,5,0,0:0:0:0:
352,32,19817,1,0,0:0:0:0:
304,160,20181,1,0,0:0:0:0:
192,80,20545,2,0,P|117:68|64:124,1,160
48,192,21090,5,4,0:0:0:0:
112,336,21454,1,8,0:0:0:0:
176,192,21817,1,2,0:0:0:0:
193,259,21999,1,0,0:0:0:0:
239,310,22181,1,8,0:0:0:0:
308,307,22363,1,0,0:0:0:0:
368,272,22545,6,0,P|445:284|480:352,2,160,4|4|4,0:0|0:0|0:0,0:0:0:0:
368,200,23454,2,0,P|405:185|424:152,1,80,8|8,0:0|0:0,0:0:0:0:
424,80,23817,2,0,P|404:46|368:32,1,80,0|4,0:0|0:0,0:0:0:0:
256,144,24363,6,0,P|216:212|144:240,1,160,8|2,0:0|0:0,0:0:0:0:
108,84,25090,1,8,0:0:0:0:
48,232,25454,2,0,P|74:304|144:336,1,158.399999516602,2|8,0:0|0:0,0:0:0:0:
304,344,26181,1,2,0:0:0:0:
304,184,26545,2,0,P|317:105|360:40,1,160,8|2,0:0|0:0,0:0:0:0:
416,88,27090,5,0,0:0:0:0:
416,88,27272,2,0,L|480:136,1,80,8|0,0:0|0:0,0:0:0:0:
472,216,27636,2,0,L|408:168,1,80,2|0,0:0|0:0,0:0:0:0:
400,248,27999,2,0,L|464:296,1,80,8|0,0:0|0:0,0:0:0:0:
424,352,28363,5,2,0:0:0:0:
356,352,28545,2,0,P|280:329|240:264,1,160
200,108,29272,1,0,0:0:0:0:
250,59,29454,1,8,0:0:0:0:
184,32,29636,2,0,P|143:27|104:32,1,81.6000004980469,8|4,0:0|0:0,0:0:0:0:
32,176,30181,6,0,P|53:253|104:312,1,160,8|2,0:0|0:0,0:0:0:0:
192,180,30908,1,8,0:0:0:0:
208,340,31272,2,0,P|286:334|356:296,1,160,2|8,0:0|0:0,0:0:0:0:
480,192,31999,1,2,0:0:0:0:
356,88,32363,2,0,P|286:50|208:44,1,160,8|2,0:0|0:0,0:0:0:0:
140,64,32908,5,0,0:0:0:0:
92,116,33090,2,0,L|40:176,1,80,8|0,0:0|0:0,0:0:0:0:
92,224,33454,2,0,L|144:164,1,80,2|0,0:0|0:0,0:0:0:0:
196,212,33817,2,0,L|144:272,1,80,8|0,0:0|0:0,0:0:0:0:
196,320,34181,5,2,0:0:0:0:
196,320,34363,2,0,L|248:260,1,80,0|8,0:0|0:0,0:0:0:0:
300,308,34726,2,0,P|316:223|272:172,1,160
229,116,35272,1,8,0:0:0:0:
244,48,35454,2,0,P|279:34|320:32,1,80,8|4,0:0|0:0,0:0:0:0:
416,64,35999,5,2,0:0:0:0:
448,160,36363,1,8,0:0:0:0:
416,256,36727,1,2,0:0:0:0:
320,288,37090,2,0,P|274:306|240:336,1,95.9999970703126,0|2,0:0|0:0,0:0:0:0:
172,336,37636,2,0,P|136:305|92:288,1,95.9999970703126
25,272,38181,1,2,0:0:0:0:
48,208,38363,2,0,P|60:179|80:160,1,60.0000022888184,0|4,0:0|0:0,0:0:0:0:
160,96,38908,5,2,0:0:0:0:
256,64,39272,1,8,0:0:0:0:
352,32,39636,1,2,0:0:0:0:
448,64,39999,2,0,P|471:112|448:160,1,110.400000168457,0|2,0:0|0:0,0:0:0:0:
400,212,40545,2,0,P|390:305|484:296,1,214.399989858399
468,228,41454,1,4,0:0:0:0:
352,112,41817,5,8,0:0:0:0:
304,60,41999,1,0,0:0:0:0:
256,112,42181,1,2,0:0:0:0:
144,224,42545,1,8,0:0:0:0:
96,275,42727,1,0,0:0:0:0:
48,224,42908,1,2,0:0:0:0:
160,112,43272,5,8,0:0:0:0:
213,156,43454,1,0,0:0:0:0:
231,223,43636,1,2,0:0:0:0:
208,288,43817,2,0,P|155:345|80:336,2,160
276,276,44727,5,8,0:0:0:0:
324,325,44908,1,0,0:0:0:0:
372,276,45090,1,2,0:0:0:0:
484,164,45454,1,8,0:0:0:0:
436,113,45636,1,0,0:0:0:0:
388,164,45817,1,2,0:0:0:0:
276,52,46181,5,8,0:0:0:0:
208,33,46363,1,0,0:0:0:0:
141,54,46545,1,2,0:0:0:0:
88,100,46727,2,0,P|52:169|72:244,1,160
112,304,47272,5,4,0:0:0:0:
256,352,47636,1,8,0:0:0:0:
306,304,47817,1,0,0:0:0:0:
256,256,47999,1,2,0:0:0:0:
256,128,48363,1,8,0:0:0:0:
204,80,48545,1,0,0:0:0:0:
256,32,48727,1,2,0:0:0:0:
416,32,49090,5,8,0:0:0:0:
470,75,49272,1,0,0:0:0:0:
488,142,49454,1,2,0:0:0:0:
468,208,49636,2,0,P|442:240|404:256,1,83.9999974365235,0|8,0:0|0:0,0:0:0:0:
336,272,49999,6,0,P|371:339|448:352,2,160
320,204,50908,2,0,P|285:137|208:124,1,160,2|8,0:0|0:0,0:0:0:0:
139,144,51454,1,0,0:0:0:0:
88,192,51636,6,0,L|40:256,1,80,2|0,0:0|0:0,0:0:0:0:
104,288,51999,2,0,L|152:224,1,80,8|0,0:0|0:0,0:0:0:0:
216,256,52363,2,0,L|168:320,1,80,2|0,0:0|0:0,0:0:0:0:
232,352,52727,2,0,L|280:288,1,80,8|8,0:0|0:0,0:0:0:0:
344,320,53090,5,8,0:0:0:0:
344,320,53272,2,0,L|392:256,1,80,8|0,0:0|0:0,0:0:0:0:
432,196,53636,6,0,P|416:63|280:76,1,300.000011444092,12|12,0:0|0:0,0:0:0:0:
239,134,54727,5,2,0:0:0:0:
239,134,54908,2,0,P|210:164|175:182,1,82.3999993084717,8|2,0:0|0:0,0:0:0:0:
104,191,55272,1,8,0:0:0:0:
42,225,55454,1,2,0:0:0:0:
33,294,55636,1,8,0:0:0:0:
80,344,55817,1,2,0:0:0:0:
160,352,55999,5,8,0:0:0:0:
160,352,56181,1,2,0:0:0:0:
160,352,56363,1,8,0:0:0:0:
160,352,56545,2,0,P|224:308|288:352,1,164.799998616943,2|2,0:0|0:0,0:0:0:0:
340,304,57090,1,8,0:0:0:0:
392,352,57272,2,0,P|430:344|456:312,1,82.3999993084717,2|12,0:0|0:0,0:0:0:0:
480,244,57636,5,2,0:0:0:0:
428,197,57817,1,8,0:0:0:0:
480,150,57999,1,2,0:0:0:0:
428,103,58181,2,0,P|387:110|355:134,1,82.3999993084717,8|2,0:0|0:0,0:0:0:0:
308,186,58545,2,0,P|275:210|234:217,1,82.3999993084717,8|2,0:0|0:0,0:0:0:0:
164,216,58908,5,8,0:0:0:0:
164,216,59090,1,2,0:0:0:0:
164,216,59272,1,8,0:0:0:0:
164,216,59454,2,0,P|91:182|60:108,1,164.799998616943,2|2,0:0|0:0,0:0:0:0:
69,39,59999,1,8,0:0:0:0:
134,64,60181,2,0,P|166:40|206:32,1,82.3999993084717,2|12,0:0|0:0,0:0:0:0:
280,32,60545,5,2,0:0:0:0:
280,32,60727,2,0,P|321:34|360:44,1,82.3999993084717,8|2,0:0|0:0,0:0:0:0:
426,69,61090,1,8,0:0:0:0:
470,122,61272,1,2,0:0:0:0:
480,191,61454,1,8,0:0:0:0:
464,260,61636,2,0,P|444:296|412:320,1,82.3999993084717,2|12,0:0|0:0,0:0:0:0:
345,344,61999,5,2,0:0:0:0:
302,288,62181,1,8,0:0:0:0:
261,344,62363,1,2,0:0:0:0:
220,288,62545,2,0,B|172:288|164:312|132:320|124:344|76:344,1,158.399999516602,8|8,0:0|0:0,0:0:0:0:
32,184,63272,6,0,P|49:150|80:120,1,82.3999993084717,12|2,0:0|0:0,0:0:0:0:
144,88,63636,2,0,P|173:115|192:152,1,82.3999993084717,8|2,0:0|0:0,0:0:0:0:
260,128,63999,2,0,P|277:94|308:64,1,82.3999993084717,8|2,0:0|0:0,0:0:0:0:
372,32,64363,2,0,P|401:59|420:96,1,82.3999993084717,8|2,0:0|0:0,0:0:0:0:
446,161,64726,5,8,0:0:0:0:
379,183,64908,1,2,0:0:0:0:
406,247,65090,1,8,0:0:0:0:
339,269,65272,2,0,P|303:247|267:245,2,80,2|8|2,0:0|0:0|0:0,0:0:0:0:
391,315,65817,2,0,P|427:337|463:339,2,80,8|0|12,0:0|0:0|0:0,0:0:0:0:
331,352,66363,5,2,0:0:0:0:
267,323,66544,1,8,0:0:0:0:
203,352,66727,1,2,0:0:0:0:
139,323,66908,2,0,P|110:293|75:275,1,82.3999993084717,8|2,0:0|0:0,0:0:0:0:
74,204,67272,2,0,P|109:186|138:156,1,82.3999993084717,8|2,0:0|0:0,0:0:0:0:
184,104,67635,5,8,0:0:0:0:
184,104,67817,1,2,0:0:0:0:
184,104,67999,1,8,0:0:0:0:
184,104,68181,2,0,P|248:60|312:104,1,164.799998616943,2|2,0:0|0:0,0:0:0:0:
348,164,68726,1,8,0:0:0:0:
383,104,68908,2,0,P|422:111|447:140,1,80,2|12,0:0|0:0,0:0:0:0:
480,202,69272,5,2,0:0:0:0:
480,271,69453,1,8,0:0:0:0:
443,331,69636,1,2,0:0:0:0:
376,352,69817,1,8,0:0:0:0:
314,318,69999,2,0,P|280:295|242:282,1,82.3999993084717,2|8,0:0|0:0,0:0:0:0:
170,274,70363,1,2,0:0:0:0:
120,320,70544,5,8,0:0:0:0:
120,320,70727,1,2,0:0:0:0:
120,320,70908,1,8,0:0:0:0:
120,320,71090,2,0,P|76:256|120:192,1,164.799998616943,2|2,0:0|0:0,0:0:0:0:
187,173,71635,1,8,0:0:0:0:
136,124,71817,2,0,P|155:87|184:60,1,82.3999993084717,2|12,0:0|0:0,0:0:0:0:
251,35,72181,6,0,P|291:28|331:35,1,82.3999993084717,2|8,0:0|0:0,0:0:0:0:
395,66,72545,1,2,0:0:0:0:
443,117,72726,1,8,0:0:0:0:
462,185,72908,1,2,0:0:0:0:
452,255,73090,1,8,0:0:0:0:
408,308,73272,2,0,P|374:329|336:336,1,80,2|4,0:0|0:0,0:0:0:0:
264,336,73636,6,0,P|226:329|192:308,2,80,2|8|2,0:0|0:0|0:0,0:0:0:0:
300,276,74181,2,0,P|284:200|220:156,1,160,8|8,0:0|0:0,0:0:0:0:
60,124,74908,6,0,P|103:58|176:32,1,160,12|8,0:0|0:0,0:0:0:0:
336,32,75636,2,0,P|411:59|452:124,1,160,8|8,0:0|0:0,0:0:0:0:
468,192,76181,1,2,0:0:0:0:
452,260,76363,6,0,P|409:326|336:352,3,160,8|8|8|8,0:0|0:0|0:0|0:0,0:0:0:0:
268,336,77636,1,0,0:0:0:0:
200,320,77817,6,0,P|146:273|184:208,1,160,12|8,0:0|0:0,0:0:0:0:
252,192,78363,1,2,0:0:0:0:
320,176,78545,2,0,P|358:111|304:64,1,160,8|8,0:0|0:0,0:0:0:0:
236,48,79090,1,2,0:0:0:0:
168,32,79272,6,0,P|95:58|52:124,3,160,8|8|8|8,0:0|0:0|0:0|0:0,0:0:0:0:
36,192,80545,1,2,0:0:0:0:
64,256,80727,6,0,P|104:324|176:352,1,160,12|8,0:0|0:0,0:0:0:0:
238,320,81272,1,2,0:0:0:0:
300,352,81454,2,0,P|341:344|372:324,1,80,8|2,0:0|0:0,0:0:0:0:
412,265,81817,1,8,0:0:0:0:
384,200,81999,2,0,B|336:192|320:152|320:152|304:184|288:192|256:213|224:192|208:184|192:152|192:152|176:192|128:200,2,332.79999796875,2|2|2,0:0|0:0|0:0,0:0:0:0:
440,156,83636,6,0,P|396:86|326:48,1,164.799998616943,12|8,0:0|0:0,0:0:0:0:
256,32,84181,1,2,0:0:0:0:
186,47,84363,2,0,P|115:86|72:156,1,164.799998616943,8|8,0:0|0:0,0:0:0:0:
47,222,84908,1,2,0:0:0:0:
72,288,85090,6,0,P|90:324|120:352,1,82.3999993084717,8|2,0:0|0:0,0:0:0:0:
172,304,85454,2,0,P|202:275|220:240,1,82.3999993084717,8|2,0:0|0:0,0:0:0:0:
292,240,85817,2,0,P|311:277|340:304,1,82.3999993084717,8|8,0:0|0:0,0:0:0:0:
392,352,86181,2,0,P|422:323|440:288,1,82.3999993084717,8|0,0:0|0:0,0:0:0:0:
465,222,86545,5,4,0:0:0:0:
256,192,86636,12,8,87908,0:0:0:0:
