osu file format v14

[General]
AudioFilename: Hitorigoto -TV MIX-.mp3
AudioLeadIn: 1500
PreviewTime: 54545
Countdown: 0
SampleSet: Soft
StackLeniency: 0.3
Mode: 0
LetterboxInBreaks: 0
WidescreenStoryboard: 1

[Editor]
DistanceSpacing: 1
BeatDivisor: 4
GridSize: 8
TimelineZoom: 1.5

[Metadata]
Title:Hitorigoto -TV MIX-
TitleUnicode:ヒトリゴト -TV MIX-
Artist:ClariS
ArtistUnicode:ClariS
Creator:DJPop
Version:Easy
Source:エロマンガ先生
Tags:eromanga sensei ero manga eromanga-sensei eromangasensei op opening tv size
BeatmapID:1535346
BeatmapSetID:727251

[Difficulty]
HPDrainRate:2
CircleSize:3
OverallDifficulty:2
ApproachRate:2
SliderMultiplier:0.96
SliderTickRate:0.5

[Events]
//Background and Video events
0,0,"Hitorigoto -TV MIX-.jpg",0,0
Video,0,"Hitorigoto -TV MIX-.avi"
//Break Periods
//Storyboard Layer 0 (Background)
//Storyboard Layer 1 (Fail)
//Storyboard Layer 2 (Pass)
//Storyboard Layer 3 (Foreground)
//Storyboard Sound Samples

[TimingPoints]
727,363.636363636364,4,2,2,80,1,0
12363,-100,4,2,1,80,0,0
12545,-100,4,3,1,80,0,0
15272,-100,4,2,1,80,0,0
15454,-100,4,3,1,80,0,0
18181,-100,4,2,1,80,0,0
18363,-100,4,3,1,80,0,0
21090,-100,4,2,1,80,0,0
21272,-100,4,3,1,80,0,0
22545,-100,4,2,1,80,0,0
24363,-100,4,2,3,80,0,0
27636,-100,4,2,1,80,0,0
28363,-100,4,2,3,80,0,0
29817,-100,4,2,1,80,0,0
29999,-100,4,2,3,80,0,0
33454,-100,4,2,1,80,0,0
34181,-100,4,2,3,80,0,0
35636,-100,4,2,1,80,0,0
35817,-100,4,3,1,80,0,0
37817,-100,4,2,2,80,0,0
39999,-100,4,3,1,80,0,0
40727,-100,4,2,2,80,0,0
41454,-100,4,2,1,80,0,0
41636,-100,4,2,3,80,0,0
43636,-101.010101010101,4,2,3,80,0,0
44727,-100,4,2,3,80,0,0
46545,-100,4,2,3,80,0,0
47636,-100,4,2,3,80,0,0
49454,-100,4,2,1,80,0,0
49636,-100,4,2,3,80,0,0
50727,-100,4,2,1,80,0,0
50908,-100,4,2,3,80,0,0
53090,-100,4,2,2,80,0,0
54545,-100,4,2,1,80,0,1
54727,-100,4,3,2,80,0,1
55999,-95.2380952380952,4,3,2,80,0,1
56545,-95.2380952380952,4,2,3,80,0,1
57454,-100,4,2,2,80,0,1
57636,-100,4,3,2,80,0,1
58908,-95.2380952380952,4,3,2,80,0,1
59454,-95.2380952380952,4,2,3,80,0,1
60363,-100,4,2,2,80,0,1
60545,-100,4,3,2,80,0,1
61817,-100,4,2,2,80,0,1
61999,-100,4,3,2,80,0,1
63272,-100,4,2,2,80,0,1
63454,-100,4,3,2,80,0,1
64727,-99.009900990099,4,3,2,80,0,1
64908,-99.009900990099,4,2,2,80,0,1
66181,-100,4,2,2,80,0,1
66545,-100,4,3,2,80,0,1
68727,-104.166666666667,4,3,2,80,0,1
69090,-104.166666666667,4,2,2,80,0,1
69272,-100,4,3,2,80,0,1
71636,-104.166666666667,4,3,2,80,0,1
71999,-100,4,2,2,80,0,1
72181,-100,4,3,2,80,0,1
73454,-100,4,2,2,80,0,1
73636,-100,4,3,2,80,0,1
74908,-102.040816326531,4,2,2,80,0,1
75090,-102.040816326531,4,3,2,80,0,1
76363,-100,4,3,2,80,0,1
77090,-100,4,3,2,80,0,1
77454,-100,4,2,2,80,0,1
77817,-100,4,2,2,80,0,1
77999,-100,4,3,2,80,0,1
79272,-100,4,3,2,80,0,1
80727,-100,4,2,2,80,0,1
80908,-100,4,3,2,80,0,1
81817,-100,4,3,2,80,0,1
81999,-100,4,2,2,80,0,1
83272,-100,4,3,2,80,0,1
83636,-100,4,2,2,80,0,1
83817,-100,4,3,2,80,0,1
85090,-99.009900990099,4,3,2,80,0,1
85817,-98.0392156862745,4,3,2,80,0,1
86181,-100,4,2,2,80,0,1
86545,-100,4,2,2,5,0,1
87908,-100,4,2,2,80,0,1
88181,-100,4,2,1,80,0,0

[Colours]
Combo1 : 186,180,214
Combo2 : 220,221,40
Combo3 : 249,201,219
Combo4 : 255,206,28

[HitObjects]
288,192,727,5,8,0:0:0:0:
160,352,2181,1,8,0:0:0:0:
32,192,3636,1,8,0:0:0:0:
160,32,5090,2,0,L|352:32,1,192,4|4,0:0|0:0,0:0:0:0:
224,192,6545,5,8,0:0:0:0:
352,352,7999,1,8,0:0:0:0:
480,192,9454,1,8,0:0:0:0:
352,32,10908,2,0,L|160:32,1,192,4|4,0:0|0:0,0:0:0:0:
40,225,12363,6,0,P|84:306|176:320,1,192,4|0,0:0|0:0,0:0:0:0:
176,176,13636,2,0,B|176:160|176:112|192:64|256:46|320:64|336:112|336:160|336:176,1,288
336,320,15272,2,0,P|429:306|472:224,1,192,4|0,0:0|0:0,0:0:0:0:
336,176,16545,2,0,P|372:91|463:79,2,192
336,320,18545,5,0,0:0:0:0:
240,320,18908,1,0,0:0:0:0:
104,272,19454,2,0,P|53:146|160:72,1,288
239,192,21090,1,4,0:0:0:0:
416,272,21817,6,0,P|461:192|416:112,3,192,0|4|4|4,0:0|0:0|0:0|0:0,0:0:0:0:
336,64,24363,6,0,P|248:32|160:64,1,192,8|8,0:0|0:0,0:0:0:0:
32,208,25817,2,0,P|37:304|112:352,1,192,8|8,0:0|0:0,0:0:0:0:
208,352,26908,2,0,B|336:352|336:352|384:352|416:320|454:272|416:224|384:192|336:192,1,384
192,192,28908,2,0,L|96:192,2,96
256,64,30181,6,0,P|347:39|416:96,1,192,8|8,0:0|0:0,0:0:0:0:
416,287,31636,2,0,P|344:345|256:320,1,192,8|8,0:0|0:0,0:0:0:0:
176,256,32727,2,0,B|96:176|96:176|64:144|48:96|84:39|128:32|160:32|160:32|224:32,1,384
368,32,34727,2,0,L|464:32,2,96
432,160,35999,6,0,P|413:252|336:304,1,192
240,304,37090,2,0,B|176:304|152:272|128:240|64:240,2,192,0|8|4,0:0|0:0|0:0,0:0:0:0:
384,176,39272,1,8,0:0:0:0:
240,48,39999,2,0,B|176:48|152:80|128:112|64:112,2,192,0|8|4,0:0|0:0|0:0,0:0:0:0:
336,48,41817,6,0,P|426:77|464:160,2,192,8|8|8,0:0|0:0|0:0,0:0:0:0:
336,144,43636,2,0,P|333:215|300:276,1,142.559999564941,2|2,0:0|0:0,0:0:0:0:
160,316,44727,2,0,P|79:268|48:180,2,192,8|8|8,0:0|0:0|0:0,0:0:0:0:
160,220,46545,2,0,P|175:151|224:100,1,144,2|2,0:0|0:0,0:0:0:0:
352,32,47636,6,0,P|441:60|480:144,1,192,8|8,0:0|0:0,0:0:0:0:
480,240,48727,2,0,B|480:272|460:352|384:352|352:352|352:352|304:352,1,240
208,352,49999,2,0,B|160:352|160:352|128:352|52:352|32:272|32:240,1,240
32,48,51636,6,0,L|128:48,1,96,0|8,0:0|0:0,0:0:0:0:
208,112,52363,2,0,L|304:112,1,96,0|8,0:0|0:0,0:0:0:0:
384,48,53090,2,0,P|412:112|384:176,1,144,8|4,0:0|0:0,0:0:0:0:
112,352,54545,6,0,P|53:288|112:224,1,192,12|8,0:0|0:0,0:0:0:0:
208,224,55636,1,8,0:0:0:0:
208,128,55999,2,0,P|140:100|112:32,2,151.199995385742,8|2|2,0:0|0:0|0:0,0:0:0:0:
304,128,57454,6,0,P|368:69|432:128,1,192,12|8,0:0|0:0,0:0:0:0:
432,224,58545,1,8,0:0:0:0:
336,224,58908,2,0,P|364:292|432:320,2,151.199995385742,8|2|2,0:0|0:0|0:0,0:0:0:0:
240,224,60363,6,0,P|228:314|144:352,1,192,12|8,0:0|0:0,0:0:0:0:
48,352,61454,1,8,0:0:0:0:
48,256,61817,2,0,P|86:172|176:160,1,192,12|8,0:0|0:0,0:0:0:0:
216,72,62908,1,8,0:0:0:0:
304,32,63272,6,0,P|352:33|392:56,1,96,12|8,0:0|0:0,0:0:0:0:
468,116,63999,2,0,P|448:161|412:188,1,96,8|8,0:0|0:0,0:0:0:0:
320,224,64727,2,0,P|204:349|80:224,1,387.839992306641,8|12,0:0|0:0,0:0:0:0:
80,128,66545,6,0,P|118:44|208:32,1,192,8|8,0:0|0:0,0:0:0:0:
176,124,67636,2,0,P|250:182|336:156,1,192,8|8,0:0|0:0,0:0:0:0:
396,80,68727,2,0,P|424:116|432:160,1,92.1600022500001,8|12,0:0|0:0,0:0:0:0:
432,256,69454,6,0,P|394:340|304:352,1,192,8|8,0:0|0:0,0:0:0:0:
336,260,70545,2,0,P|262:202|176:228,1,192,8|8,0:0|0:0,0:0:0:0:
116,304,71636,2,0,P|88:268|80:224,1,92.1600022500001,8|12,0:0|0:0,0:0:0:0:
32,140,72363,6,0,P|121:108|176:32,1,192,8|8,0:0|0:0,0:0:0:0:
256,84,73454,1,12,0:0:0:0:
336,32,73817,2,0,P|392:108|480:140,1,192,8|8,0:0|0:0,0:0:0:0:
456,232,74908,6,0,P|408:310|320:336,1,188.159998277344,12|8,0:0|0:0,0:0:0:0:
120,336,76363,2,0,P|74:327|32:304,1,96,8|8,0:0|0:0,0:0:0:0:
72,216,77090,2,0,P|49:174|40:128,1,96,8|8,0:0|0:0,0:0:0:0:
136,120,77817,6,0,P|203:54|296:48,1,192,12|8,0:0|0:0,0:0:0:0:
480,104,79272,2,0,P|470:152|448:192,1,96,8|8,0:0|0:0,0:0:0:0:
480,284,79999,2,0,P|431:292|388:280,1,96,8|8,0:0|0:0,0:0:0:0:
324,352,80727,6,0,P|260:284|172:244,1,192,12|8,0:0|0:0,0:0:0:0:
144,336,81817,2,0,P|37:192|144:48,1,384,8|8,0:0|0:0,0:0:0:0:
172,140,83636,6,0,P|258:101|324:32,1,192,12|8,0:0|0:0,0:0:0:0:
464,160,85090,2,0,P|448:205|420:244,1,96.9599980766602,8|8,0:0|0:0,0:0:0:0:
348,304,85817,2,0,P|303:325|256:336,1,97.9200005976563,8|8,0:0|0:0,0:0:0:0:
256,192,86545,12,8,87908,0:0:0:0:
