osu file format v14

[General]
AudioFilename: audio.mp3
AudioLeadIn: 0
PreviewTime: 54263
Countdown: 0
SampleSet: Soft
StackLeniency: 0.7
Mode: 2
LetterboxInBreaks: 0
WidescreenStoryboard: 0

[Editor]
DistanceSpacing: 1
BeatDivisor: 4
GridSize: 32
TimelineZoom: 1

[Metadata]
Title:Hitorigoto -TV MIX-
TitleUnicode:ヒトリゴト -TV MIX-
Artist:ClariS
ArtistUnicode:ClariS
Creator:Ascendance
Version:Salad
Source:エロマンガ先生
Tags:eromanga sensei ero manga eromanga-sensei eromangasensei opening tv size -wwwww fii kaitlin spectator
BeatmapID:1316295
BeatmapSetID:624544

[Difficulty]
HPDrainRate:4
CircleSize:3
OverallDifficulty:7
ApproachRate:7
SliderMultiplier:1.45
SliderTickRate:2

[Events]
//Background and Video events
0,0,"cropped-1920-1080-826063.png",0,0
//Break Periods
//Storyboard Layer 0 (Background)
//Storyboard Layer 1 (Fail)
//Storyboard Layer 2 (Pass)
//Storyboard Layer 3 (Foreground)
//Storyboard Sound Samples

[TimingPoints]
536,363.636363636364,4,2,1,80,1,0
23808,-100,4,2,1,60,0,0
35445,-125,4,2,1,50,0,0
41263,-100,4,2,1,60,0,0
54354,-90.9090909090909,4,2,1,80,0,1
56445,-90.9090909090909,4,1,3,80,0,1
56626,-90.9090909090909,4,2,1,80,0,1
59354,-90.9090909090909,4,1,3,80,0,1
59536,-90.9090909090909,4,2,1,80,0,1
65899,-90.9090909090909,4,2,1,80,0,0
65990,-90.9090909090909,4,2,1,80,0,1
68081,-90.9090909090909,4,1,3,80,0,1
68263,-90.9090909090909,4,2,1,80,0,1
70990,-90.9090909090909,4,1,3,80,0,1
71172,-90.9090909090909,4,2,1,80,0,1
86354,-100,4,2,1,70,0,0

[Colours]
Combo1 : 52,164,178
Combo2 : 254,194,206
Combo3 : 179,220,233
Combo4 : 235,142,173

[HitObjects]
78,312,536,5,4,1:2:0:0:
211,223,899,2,0,P|266:233|357:219,2,145,0|0|0,0:0|0:0|0:0,0:0:0:0:
466,72,1990,5,0,1:0:0:0:
333,161,2353,2,0,P|278:151|187:165,2,145,0|0|0,0:0|0:0|0:0,0:0:0:0:
63,328,3445,6,0,L|51:239,1,72.5,0|0,1:0|1:0,0:0:0:0:
156,191,3808,2,0,L|312:172,2,145,0|0|0,0:0|0:0|0:0,0:0:0:0:
459,307,4899,2,0,P|491:257|413:137,1,217.5,4|0,1:2|0:0,0:0:0:0:
290,118,5626,2,0,L|161:132,2,96.6666666666667,4|0|0,3:0|0:0|0:0,0:0:0:0:
113,223,6354,5,4,1:2:0:0:
281,299,6717,2,0,L|134:316,1,145,0|0,0:0|0:0,0:0:0:0:
363,353,7445,1,0,0:0:0:0:
77,230,7808,5,0,1:0:0:0:
231,137,8172,2,0,L|387:152,2,145,0|0|0,0:0|0:0|0:0,0:0:0:0:
452,162,9263,6,0,L|439:244,1,72.5,0|0,1:0|1:0,0:0:0:0:
334,278,9626,2,0,L|180:288,2,145,0|0|0,0:0|0:0|0:0,0:0:0:0:
77,357,10717,6,0,P|45:301|132:191,1,217.5,4|0,1:2|0:0,0:0:0:0:
232,159,11445,2,0,L|354:177,2,96.6666666666667,4|0|0,3:0|0:0|0:0,0:0:0:0:
68,61,12172,6,0,P|30:115|73:187,1,145,4|8,0:0|0:0,0:0:0:0:
214,203,12899,2,0,L|299:193,2,72.5,2|0|8,0:0|0:0|0:0,0:0:0:0:
79,279,13445,2,0,L|230:297,1,145,0|0,0:0|0:0,0:0:0:0:
363,169,14172,2,0,P|283:179|213:186,1,145,0|0,0:0|0:0,0:0:0:0:
342,355,14899,1,0,0:0:0:0:
446,333,15081,6,0,L|464:180,1,145,4|8,0:0|0:0,0:0:0:0:
324,79,15808,1,2,0:0:0:0:
251,83,15989,1,0,0:0:0:0:
179,87,16171,1,8,0:0:0:0:
297,176,16354,2,0,L|464:158,1,145,0|0,0:0|0:0,0:0:0:0:
201,333,17081,2,0,L|176:179,1,145,0|0,0:0|0:0,0:0:0:0:
286,137,17808,1,0,0:0:0:0:
86,85,17990,5,4,0:0:0:0:
266,31,18354,1,8,0:0:0:0:
86,85,18717,2,0,L|3:93,2,72.5,2|0|8,0:0|0:0|0:0,0:0:0:0:
244,152,19263,2,0,L|392:169,1,145,0|0,0:0|0:0,0:0:0:0:
165,347,19990,2,0,L|148:192,1,145,0|0,0:0|0:0,0:0:0:0:
423,280,20717,1,0,0:0:0:0:
325,233,20899,6,0,L|348:84,1,145,4|8,0:0|0:0,0:0:0:0:
181,71,21626,2,0,L|78:75,2,72.5,2|0|8,0:0|0:0|0:0,0:0:0:0:
372,142,22354,2,0,L|351:227,1,72.5,4|0,0:0|0:0,0:0:0:0:
249,298,22717,2,0,L|187:378,2,72.5,8|0|4,0:0|0:0|0:0,0:0:0:0:
353,381,23263,1,0,0:0:0:0:
447,315,23445,2,0,L|453:222,1,72.5,10|2,0:0|0:0,0:0:0:0:
237,156,23808,5,4,0:0:0:0:
109,350,24172,2,0,L|86:197,1,145,8|2,0:0|0:0,0:0:0:0:
218,172,24899,1,8,0:0:0:0:
46,81,25263,2,0,L|197:93,2,145,2|8|2,0:0|0:0|0:0,0:0:0:0:
258,185,26354,2,0,L|251:108,1,72.5,8|0,0:0|0:0,0:0:0:0:
103,270,26717,6,0,L|333:294,1,217.5,2|0,0:0|0:0,0:0:0:0:
218,364,27445,2,0,L|208:285,1,72.5,2|0,0:0|0:0,0:0:0:0:
306,232,27808,2,0,L|331:141,1,72.5,8|0,0:0|0:0,0:0:0:0:
140,67,28172,6,0,L|60:52,1,72.5,2|0,0:0|0:0,0:0:0:0:
241,164,28717,2,0,L|396:145,1,145,0|0,0:0|0:0,0:0:0:0:
490,215,29263,2,0,L|476:297,1,72.5,8|8,0:0|0:0,0:0:0:0:
295,362,29626,5,4,0:0:0:0:
146,208,29990,2,0,L|301:230,1,145,8|2,0:0|0:0,0:0:0:0:
458,261,30717,1,8,0:0:0:0:
295,123,31081,2,0,L|455:115,2,145,2|8|2,0:0|0:0|0:0,0:0:0:0:
130,162,32172,2,0,L|138:243,1,72.5,8|0,0:0|0:0,0:0:0:0:
319,339,32536,6,0,P|375:258|296:176,1,217.5,2|0,0:0|0:0,0:0:0:0:
204,170,33263,2,0,L|125:176,1,72.5,2|0,0:0|0:0,0:0:0:0:
258,92,33626,2,0,L|338:83,1,72.5,8|0,0:0|0:0,0:0:0:0:
128,89,33990,6,0,L|108:4,1,72.5,2|0,0:0|0:0,0:0:0:0:
250,135,34536,2,0,L|230:288,1,145,0|0,0:0|0:0,0:0:0:0:
123,310,35081,2,0,L|141:398,1,72.5,8|8,0:0|0:0,0:0:0:0:
321,331,35445,5,4,0:0:0:0:
169,227,35808,2,0,L|153:88,1,116,0|8,0:0|0:0,0:0:0:0:
329,154,36536,1,0,0:0:0:0:
142,306,36899,2,0,L|380:318,1,232,2|0,0:0|0:0,0:0:0:0:
243,205,37990,2,0,L|260:288,1,58,0|0,0:0|0:0,0:0:0:0:
414,194,38354,6,0,L|440:70,1,116,6|0,0:0|0:0,0:0:0:0:
281,119,39081,2,0,L|156:108,1,116,8|0,0:0|0:0,0:0:0:0:
334,241,39808,2,0,L|460:228,1,116,2|2,0:0|0:0,0:0:0:0:
219,320,40536,5,8,3:2:0:0:
189,295,40657,1,8,3:0:0:0:
173,260,40778,1,8,3:0:0:0:
174,222,40899,1,8,3:0:0:0:
192,188,41020,1,8,3:0:0:0:
224,166,41142,1,8,3:0:0:0:
266,161,41263,5,4,0:0:0:0:
119,102,41626,2,0,L|41:114,2,72.5,8|0|2,0:0|0:0|0:0,0:0:0:0:
273,36,42354,2,0,L|368:46,2,72.5,8|0|2,0:0|0:0|0:0,0:0:0:0:
96,116,43081,2,0,L|104:192,1,72.5,8|0,0:0|0:0,0:0:0:0:
269,240,43445,2,0,L|362:249,1,72.5,2|0,0:0|0:0,0:0:0:0:
114,336,43990,1,0,0:0:0:0:
87,277,44172,5,0,0:0:0:0:
249,201,44536,2,0,L|320:177,2,72.5,8|0|2,0:0|0:0|0:0,0:0:0:0:
89,122,45263,2,0,L|65:45,2,72.5,8|0|2,0:0|0:0|0:0,0:0:0:0:
241,54,45990,2,0,L|325:62,1,72.5,8|0,0:0|0:0,0:0:0:0:
501,136,46354,2,0,L|466:207,1,72.5,2|0,0:0|0:0,0:0:0:0:
266,265,46899,1,0,0:0:0:0:
206,284,47081,5,4,0:0:0:0:
369,329,47445,2,0,L|450:339,2,72.5,8|0|2,0:0|0:0|0:0,0:0:0:0:
212,237,48172,2,0,L|126:251,2,72.5,8|0|2,0:0|0:0|0:0,0:0:0:0:
383,172,48899,2,0,L|210:145,2,145,8|2|8,0:0|0:0|0:0,0:0:0:0:
472,195,49808,1,0,0:0:0:0:
280,306,49990,6,0,P|236:251|309:135,1,217.5,2|0,0:0|0:0,0:0:0:0:
388,135,50717,2,0,L|227:108,1,145,2|8,0:0|0:0,0:0:0:0:
92,231,51445,2,0,L|257:217,2,145,2|8|2,0:0|0:0|0:0,0:0:0:0:
314,293,52536,1,8,0:0:0:0:
77,350,52899,6,0,L|62:272,1,72.5,2|2,0:1|0:1,0:0:0:0:
235,204,53445,2,0,L|388:186,1,145,2|0,0:1|0:0,0:0:0:0:
477,250,53990,2,0,L|488:174,1,72.5,0|0,0:0|0:0,0:0:0:0:
301,64,54354,5,4,0:0:0:0:
462,145,54717,1,8,0:0:0:0:
224,179,55081,2,0,L|134:191,2,79.7500024337769,2|0|8,0:0|0:0|0:0,0:0:0:0:
418,258,55808,2,0,L|499:271,1,79.7500024337769,4|0,0:1|0:0,0:0:0:0:
226,341,56354,2,0,P|191:263|245:200,1,159.500004867554,0|0,0:0|0:0,0:0:0:0:
331,187,56899,1,8,0:0:0:0:
119,108,57081,1,0,0:0:0:0:
308,40,57445,6,0,L|405:51,2,79.7500024337769,0|8|0,0:0|0:0|0:0,0:0:0:0:
202,87,57990,2,0,P|158:153|217:231,1,159.500004867554,2|8,0:0|0:0,0:0:0:0:
347,270,58717,2,0,L|427:263,1,79.7500024337769,4|0,0:1|0:0,0:0:0:0:
168,340,59263,2,0,L|357:355,1,159.500004867554,0|0,0:0|0:0,0:0:0:0:
249,288,59808,1,8,0:0:0:0:
50,258,59990,5,0,0:0:0:0:
217,181,60354,2,0,L|226:93,1,79.7500024337769,0|8,0:0|0:0,0:0:0:0:
69,35,60899,1,2,0:0:0:0:
148,40,61080,1,0,0:0:0:0:
228,46,61262,1,8,0:0:0:0:
413,62,61445,5,0,0:0:0:0:
286,248,61808,2,0,L|273:162,1,79.7500024337769,0|8,0:0|0:0,0:0:0:0:
464,326,62354,2,0,L|299:340,1,159.500004867554,2|8,0:0|0:0,0:0:0:0:
79,260,63081,6,0,P|59:201|121:126,1,159.500004867554,4|8,0:0|0:0,0:0:0:0:
275,164,63808,2,0,P|295:105|233:30,1,159.500004867554,4|8,0:0|0:0,0:0:0:0:
64,34,64536,6,0,L|74:141,1,79.7500024337769,4|0,0:1|0:0,0:0:0:0:
171,146,64899,2,0,L|181:236,1,79.7500024337769,12|0,0:1|0:0,0:0:0:0:
279,186,65263,2,0,L|289:293,1,79.7500024337769,4|4,0:1|0:1,0:0:0:0:
386,298,65626,2,0,L|396:388,1,79.7500024337769,12|4,0:1|0:1,0:0:0:0:
197,304,65990,5,4,0:0:0:0:
329,221,66354,2,0,L|413:230,2,79.7500024337769,8|0|2,0:0|0:0|0:0,0:0:0:0:
143,194,67081,1,8,0:0:0:0:
352,116,67445,6,0,L|442:125,2,79.7500024337769,4|0|8,0:1|0:0|0:0,0:0:0:0:
255,103,67990,1,0,0:0:0:0:
417,262,68354,2,0,L|434:170,1,79.7500024337769,0|8,0:0|0:0,0:0:0:0:
223,227,68717,1,0,0:0:0:0:
404,227,69081,6,0,L|486:226,1,79.7500024337769,0|8,0:0|0:0,0:0:0:0:
298,130,69626,2,0,L|128:139,1,159.500004867554,2|8,0:0|0:0,0:0:0:0:
347,333,70354,2,0,L|361:240,1,79.7500024337769,4|0,0:1|0:0,0:0:0:0:
258,205,70717,2,0,L|235:103,1,79.7500024337769,8|0,0:0|0:0,0:0:0:0:
429,109,71263,2,0,L|517:103,1,79.7500024337769,0|8,0:0|0:0,0:0:0:0:
300,28,71626,5,0,0:0:0:0:
141,123,71990,2,0,L|158:218,1,79.7500024337769,0|8,0:0|0:0,0:0:0:0:
259,309,72354,1,0,0:0:0:0:
313,254,72535,1,2,0:0:0:0:
304,178,72717,1,0,0:0:0:0:
238,139,72899,1,8,0:0:0:0:
71,134,73081,5,0,0:0:0:0:
232,43,73445,2,0,L|407:62,1,159.500004867554,0|0,0:0|0:0,0:0:0:0:
291,177,73990,2,0,L|273:15,1,159.500004867554,0|8,0:0|0:0,0:0:0:0:
454,254,74717,6,0,P|376:240|192:285,1,239.250007301331,4|0,0:1|0:0,0:0:0:0:
80,358,75445,2,0,P|39:309|123:170,1,239.250007301331,4|0,0:1|0:0,0:0:0:0:
275,138,76172,6,0,L|449:161,2,159.500004867554,4|12|6,0:1|0:1|0:1,0:0:0:0:
122,98,77263,2,0,L|110:212,1,79.7500024337769,8|0,0:0|0:0,0:0:0:0:
327,322,77626,6,0,P|377:245|279:131,1,239.250007301331,4|0,0:0|0:0,0:0:0:0:
178,100,78354,2,0,L|368:84,1,159.500004867554,2|8,0:0|0:0,0:0:0:0:
189,226,79081,6,0,L|364:209,2,159.500004867554,2|8|2,0:0|0:0|0:0,0:0:0:0:
90,335,80172,2,0,L|72:246,1,79.7500024337769,8|0,0:0|0:0,0:0:0:0:
284,281,80536,6,0,P|337:217|249:113,1,239.250007301331,4|0,0:0|0:0,0:0:0:0:
154,139,81263,2,0,L|66:161,2,79.7500024337769,2|0|8,0:0|0:0|0:0,0:0:0:0:
326,49,81808,6,0,P|378:84|316:227,1,239.250007301331,0|8,0:0|0:0,0:0:0:0:
174,311,82717,2,0,L|361:328,1,159.500004867554,2|8,0:0|0:0,0:0:0:0:
106,351,83445,6,0,P|71:288|175:176,1,239.250007301331,4|0,0:0|0:0,0:0:0:0:
283,256,84172,2,0,L|305:90,1,159.500004867554,2|8,0:0|0:0,0:0:0:0:
185,50,84717,1,0,0:0:0:0:
359,24,84899,5,2,0:0:0:0:
212,135,85263,1,8,0:0:0:0:
384,207,85626,1,8,3:2:0:0:
211,333,85990,2,0,L|195:250,1,79.7500024337769,8|0,3:2|3:0,0:0:0:0:
383,213,86354,5,4,0:0:0:0:
197,138,86899,2,0,L|103:128,1,72.5,0|0,0:0|0:0,0:0:0:0:
306,85,87445,1,0,0:0:0:0:
96,94,87717,1,4,1:2:0:0:
