osu file format v14

[General]
AudioFilename: audio.mp3
AudioLeadIn: 0
PreviewTime: 54263
Countdown: 0
SampleSet: Soft
StackLeniency: 0.7
Mode: 2
LetterboxInBreaks: 0
WidescreenStoryboard: 0

[Editor]
DistanceSpacing: 1
BeatDivisor: 4
GridSize: 32
TimelineZoom: 1

[Metadata]
Title:Hitorigoto -TV MIX-
TitleUnicode:ヒトリゴト -TV MIX-
Artist:ClariS
ArtistUnicode:ClariS
Creator:Ascendance
Version:Rain
Source:エロマンガ先生
Tags:eromanga sensei ero manga eromanga-sensei eromangasensei opening tv size -wwwww fii kaitlin spectator
BeatmapID:1316294
BeatmapSetID:624544

[Difficulty]
HPDrainRate:6
CircleSize:3.8
OverallDifficulty:8.7
ApproachRate:8.7
SliderMultiplier:1.75
SliderTickRate:2

[Events]
//Background and Video events
0,0,"cropped-1920-1080-826078.png",0,0
//Break Periods
//Storyboard Layer 0 (Background)
//Storyboard Layer 1 (Fail)
//Storyboard Layer 2 (Pass)
//Storyboard Layer 3 (Foreground)
//Storyboard Sound Samples

[TimingPoints]
536,363.636363636364,4,2,1,80,1,0
23808,-133.333333333333,4,2,1,60,0,0
35445,-125,4,2,1,50,0,0
36899,-125,4,2,1,50,0,0
40536,-125,4,2,1,50,0,0
41263,-100,4,2,1,60,0,0
47081,-100,4,2,1,60,0,0
53445,-66.6666666666667,4,2,1,60,0,0
54354,-90.9090909090909,4,2,1,80,0,1
56445,-90.9090909090909,4,1,3,80,0,1
56626,-90.9090909090909,4,2,1,80,0,1
59354,-90.9090909090909,4,1,3,80,0,1
59536,-90.9090909090909,4,2,1,80,0,1
65263,-90.9090909090909,4,2,1,80,0,1
65899,-90.9090909090909,4,2,1,80,0,0
65990,-90.9090909090909,4,2,1,80,0,1
68081,-90.9090909090909,4,1,3,80,0,1
68263,-90.9090909090909,4,2,1,80,0,1
70990,-90.9090909090909,4,1,3,80,0,1
71172,-90.9090909090909,4,2,1,80,0,1
77354,-90.9090909090909,4,2,1,80,0,1
77626,-90.9090909090909,4,2,1,80,0,1
86354,-100,4,2,1,70,0,0

[Colours]
Combo1 : 52,164,178
Combo2 : 254,194,206
Combo3 : 179,220,233
Combo4 : 235,142,173

[HitObjects]
69,161,536,6,0,L|171:143,1,87.5,4|0,1:2|1:0,0:0:0:0:
291,195,899,2,0,L|481:213,2,175,0|0|0,0:0|0:0|0:0,0:0:0:0:
183,257,1808,1,0,0:0:0:0:
428,110,1990,6,0,L|411:204,1,87.5,0|0,1:0|1:0,0:0:0:0:
288,244,2354,2,0,L|106:260,2,175,0|0|0,0:0|0:0|0:0,0:0:0:0:
392,234,3263,1,0,0:0:0:0:
91,81,3445,6,0,L|111:171,1,87.5,0|0,1:0|1:0,0:0:0:0:
266,287,3808,1,0,0:0:0:0:
314,218,3989,1,0,0:0:0:0:
289,138,4171,1,0,0:0:0:0:
209,110,4353,1,0,0:0:0:0:
347,72,4536,2,0,L|444:65,1,87.5,0|0,0:0|0:0,0:0:0:0:
189,202,4899,6,0,P|118:122|203:11,1,262.5,4|0,1:2|0:0,0:0:0:0:
340,9,5626,2,0,L|478:22,2,116.666666666667,4|0|0,3:0|0:0|0:0,0:0:0:0:
27,103,6354,6,0,L|36:192,1,87.5,4|0,1:2|1:0,0:0:0:0:
195,267,6717,2,0,P|234:201|171:133,1,175,0|0,0:0|0:0,0:0:0:0:
62,136,7263,1,0,0:0:0:0:
171,125,7445,2,0,L|51:133,1,87.5,0|0,0:0|0:0,0:0:0:0:
326,47,7808,6,0,L|428:60,1,87.5,0|0,1:0|1:0,0:0:0:0:
289,203,8172,2,0,P|248:132|324:54,1,175,0|0,0:0|0:0,0:0:0:0:
421,56,8717,1,0,0:0:0:0:
293,56,8899,2,0,L|199:50,1,87.5,0|0,0:0|0:0,0:0:0:0:
448,159,9263,5,0,1:0:0:0:
325,161,9445,1,0,1:0:0:0:
448,159,9626,2,0,L|465:57,1,87.5,0|0,0:0|0:0,0:0:0:0:
325,161,9990,1,0,0:0:0:0:
266,220,10171,1,0,0:0:0:0:
288,301,10353,1,0,0:0:0:0:
381,338,10536,1,0,0:0:0:0:
106,305,10717,6,0,P|48:206|172:103,1,262.5,4|0,1:2|0:0,0:0:0:0:
254,93,11445,2,0,L|416:112,2,116.666666666667,4|0|0,3:0|0:0|0:0,0:0:0:0:
441,278,12172,6,0,L|459:152,1,87.5,4|0,0:0|0:0,0:0:0:0:
329,227,12536,2,0,L|131:237,1,175,8|2,0:0|0:0,0:0:0:0:
282,125,13081,2,0,L|271:231,1,87.5,0|8,0:0|0:0,0:0:0:0:
114,339,13445,6,0,P|80:278|161:186,1,175,0|0,0:0|0:0,0:0:0:0:
240,214,13990,1,8,0:0:0:0:
352,198,14172,2,0,P|392:125|332:58,1,175,0|0,0:0|0:0,0:0:0:0:
235,53,14717,1,8,0:0:0:0:
116,62,14899,1,0,0:0:0:0:
372,132,15081,5,4,0:0:0:0:
215,182,15445,1,8,0:0:0:0:
370,308,15808,2,0,L|258:311,1,87.5,2|0,0:0|0:0,0:0:0:0:
153,316,16172,1,8,0:0:0:0:
467,53,16354,6,0,L|284:60,2,175,0|0|0,0:0|0:0|0:0,0:0:0:0:
349,130,17263,1,0,0:0:0:0:
230,246,17445,2,0,P|195:171|272:96,1,175,0|0,0:0|0:0,0:0:0:0:
485,54,17990,6,0,L|473:146,1,87.5,4|0,0:0|0:0,0:0:0:0:
320,273,18354,2,0,P|279:203|369:131,1,175,8|2,0:0|0:0,0:0:0:0:
456,80,18899,2,0,L|446:183,1,87.5,0|8,0:0|0:0,0:0:0:0:
311,232,19263,6,0,L|131:250,1,175,0|0,0:0|0:0,0:0:0:0:
262,150,19808,1,8,0:0:0:0:
392,295,19990,2,0,P|427:234|351:150,1,175,0|0,0:0|0:0,0:0:0:0:
276,150,20536,1,8,0:0:0:0:
149,148,20717,1,0,0:0:0:0:
461,115,20899,5,4,0:0:0:0:
267,202,21263,2,0,L|80:216,1,175,8|2,0:0|0:0,0:0:0:0:
223,338,21808,2,0,L|236:240,1,87.5,0|8,0:0|0:0,0:0:0:0:
77,197,22172,6,0,L|61:103,1,87.5
203,134,22536,2,0,L|303:126,1,87.5,0|8,0:0|0:0,0:0:0:0:
177,29,22899,2,0,L|355:40,1,175
206,245,23445,1,10,0:0:0:0:
167,213,23535,1,2,0:0:0:0:
166,170,23626,1,2,0:0:0:0:
203,134,23717,1,2,0:0:0:0:
469,53,23808,5,4,0:0:0:0:
315,136,24172,2,0,L|165:142,2,131.25000500679,8|2|8,0:0|0:0|0:0,0:0:0:0:
145,335,25263,2,0,P|111:271|133:192,1,131.25000500679,2|8,0:0|0:0,0:0:0:0:
284,185,25990,2,0,P|321:142|320:61,1,131.25000500679,2|8,0:0|0:0,0:0:0:0:
225,35,26536,1,0,0:0:0:0:
470,70,26717,5,2,0:0:0:0:
366,142,26899,2,0,L|376:233,1,65.6250025033952,0|8,0:0|0:0,0:0:0:0:
485,266,27263,1,0,0:0:0:0:
275,355,27445,1,2,0:0:0:0:
223,296,27626,1,0,0:0:0:0:
236,221,27808,1,8,0:0:0:0:
306,186,27990,1,0,0:0:0:0:
63,154,28172,6,0,L|40:71,1,65.6250025033952,2|0,0:0|0:0,0:0:0:0:
150,101,28536,1,0,0:0:0:0:
317,50,28717,2,0,L|468:60,1,131.25000500679
287,136,29263,1,8,0:0:0:0:
254,130,29353,1,0,0:0:0:0:
222,125,29444,1,0,0:0:0:0:
478,317,29626,5,4,0:0:0:0:
264,286,29990,2,0,L|121:296,2,131.25000500679,8|2|8,0:0|0:0|0:0,0:0:0:0:
436,80,31081,2,0,L|404:226,1,131.25000500679,2|8,0:0|0:0,0:0:0:0:
211,201,31808,2,0,L|172:335,1,131.25000500679,2|8,0:0|0:0,0:0:0:0:
294,282,32354,1,0,0:0:0:0:
44,187,32536,5,2,0:0:0:0:
156,188,32717,1,0,0:0:0:0:
44,187,32899,2,0,L|34:111,1,65.6250025033952,8|0,0:0|0:0,0:0:0:0:
207,49,33263,2,0,L|296:59,1,65.6250025033952,2|0,0:0|0:0,0:0:0:0:
168,128,33626,2,0,L|96:120,1,65.6250025033952,8|0,0:0|0:0,0:0:0:0:
417,256,33990,6,0,L|430:171,1,65.6250025033952,2|0,0:0|0:0,0:0:0:0:
325,150,34354,1,0,0:0:0:0:
170,280,34536,2,0,L|328:297,1,131.25000500679
447,239,35081,1,8,0:0:0:0:
452,206,35171,1,0,0:0:0:0:
457,174,35262,1,8,0:0:0:0:
101,95,35445,5,4,0:0:0:0:
256,197,35808,2,0,L|408:186,2,140,0|8|0,0:0|0:0|0:0,0:0:0:0:
91,328,36899,2,0,P|47:273|120:162,1,210,2|0,0:0|0:0,0:0:0:0:
222,146,37626,2,0,L|62:122,1,140,0|0,0:0|0:0,0:0:0:0:
281,236,38354,6,0,L|440:222,1,140,6|0,0:0|0:0,0:0:0:0:
219,343,39081,2,0,L|193:201,1,140,8|0,0:0|0:0,0:0:0:0:
295,154,39626,1,8,0:0:0:0:
161,87,39808,5,2,0:0:0:0:
271,75,39990,1,0,0:0:0:0:
394,61,40172,1,0,0:0:0:0:
169,194,40536,2,0,L|87:205,2,46.6666666666667,8|8|8,3:2|3:0|3:0,0:0:0:0:
285,256,40899,2,0,L|343:261,2,46.6666666666667,8|8|8,3:0|3:0|3:0,0:0:0:0:
176,347,41263,6,0,L|158:252,1,87.5,4|0,0:0|0:0,0:0:0:0:
308,205,41626,2,0,L|318:111,1,87.5,8|0,0:0|0:0,0:0:0:0:
197,24,41990,2,0,L|381:37,1,175,2|8,0:0|0:0,0:0:0:0:
266,102,42536,1,0,0:0:0:0:
147,160,42717,6,0,P|95:230|165:308,1,175,2|8,0:0|0:0,0:0:0:0:
240,321,43263,1,0,0:0:0:0:
348,260,43445,2,0,L|448:273,2,87.5,2|0|8,0:0|0:0|0:0,0:0:0:0:
85,182,43990,6,0,L|294:170,1,175,0|0,0:0|0:0,0:0:0:0:
142,72,44536,2,0,L|159:159,1,87.5,8|0,0:0|0:0,0:0:0:0:
325,194,44899,2,0,L|305:371,1,175,2|8,0:0|0:0,0:0:0:0:
189,266,45445,1,0,0:0:0:0:
330,190,45626,6,0,L|141:174,1,175,2|8,0:0|0:0,0:0:0:0:
43,165,46172,1,0,0:0:0:0:
181,54,46354,2,0,L|170:154,1,87.5,2|0,0:0|0:0,0:0:0:0:
43,165,46717,1,8,0:0:0:0:
363,300,46899,6,0,P|403:230|346:155,1,175,0|0,0:0|0:0,0:0:0:0:
233,128,47445,2,0,L|135:137,1,87.5,8|0,0:0|0:0,0:0:0:0:
277,90,47808,2,0,L|81:104,1,175,2|8,0:0|0:0,0:0:0:0:
207,212,48354,1,0,0:0:0:0:
356,297,48536,6,0,P|393:240|331:154,1,175,2|8,0:0|0:0,0:0:0:0:
173,153,49081,1,0,0:0:0:0:
294,90,49263,2,0,L|383:86,2,87.5,2|0|8,0:0|0:0|0:0,0:0:0:0:
38,214,49808,6,0,L|240:231,1,175,0|0,0:0|0:0,0:0:0:0:
116,333,50354,2,0,L|106:243,1,87.5,8|0,0:0|0:0,0:0:0:0:
249,328,50717,2,0,L|440:344,1,175,2|8,0:0|0:0,0:0:0:0:
328,271,51263,1,0,0:0:0:0:
36,175,51445,6,0,L|222:163,2,175,2|8|2,0:0|0:0|0:0,0:0:0:0:
225,253,52354,2,0,L|297:264,2,43.75,0|0|8,0:0|0:0|0:0,0:0:0:0:
79,305,52717,2,0,L|126:302,1,43.75,8|8,0:0|0:0,0:0:0:0:
319,182,52899,6,0,L|443:201,2,87.5,2|2|0,0:1|0:1|0:0,0:0:0:0:
72,50,53445,2,0,P|12:95|73:243,1,262.500010013581,2|0,0:1|0:0,0:0:0:0:
225,341,53990,2,0,L|317:238,1,131.25000500679
28,248,54354,6,0,L|158:232,1,96.250002937317,4|0,0:0|0:0,0:0:0:0:
255,285,54717,2,0,L|380:275,1,96.250002937317,8|0,0:0|0:0,0:0:0:0:
205,35,55081,1,2,0:0:0:0:
141,102,55262,1,0,0:0:0:0:
153,194,55444,1,8,0:0:0:0:
233,242,55626,1,0,0:0:0:0:
475,332,55808,6,0,L|485:212,1,96.250002937317,4|0,0:1|0:0,0:0:0:0:
376,163,56172,1,8,0:0:0:0:
88,309,56354,2,0,L|285:293,1,192.500005874634,0|0,0:0|0:0,0:0:0:0:
166,237,56899,1,8,0:0:0:0:
477,155,57081,5,0,0:0:0:0:
268,78,57445,2,0,L|155:69,2,96.250002937317,0|8|0,0:0|0:0|0:0,0:0:0:0:
114,280,57990,1,2,0:0:0:0:
63,201,58171,1,0,0:0:0:0:
87,111,58353,1,8,0:0:0:0:
171,70,58535,1,0,0:0:0:0:
430,67,58717,6,0,L|534:81,2,96.250002937317,4|0|8,0:1|0:0|0:0,0:0:0:0:
163,245,59263,2,0,L|362:224,1,192.500005874634,0|0,0:0|0:0,0:0:0:0:
501,209,59808,1,8,0:0:0:0:
217,146,59990,5,0,0:0:0:0:
402,55,60354,2,0,L|391:158,1,96.250002937317,0|8,0:0|0:0,0:0:0:0:
263,202,60717,1,0,0:0:0:0:
396,257,60899,2,0,L|513:269,2,96.250002937317,2|0|8,0:0|0:0|0:0,0:0:0:0:
150,337,61445,6,0,P|112:264|192:173,1,192.500005874634,0|0,0:0|0:0,0:0:0:0:
318,91,61990,2,0,L|305:219,1,96.250002937317,8|0,0:0|0:0,0:0:0:0:
187,26,62354,2,0,L|391:53,1,192.500005874634,2|8,0:0|0:0,0:0:0:0:
115,306,63081,6,0,L|81:115,1,192.500005874634,4|8,0:0|0:0,0:0:0:0:
337,27,63808,2,0,L|308:219,1,192.500005874634,4|8,0:0|0:0,0:0:0:0:
144,344,64536,6,0,L|125:234,1,96.250002937317,4|0,0:1|0:0,0:0:0:0:
269,223,64899,2,0,L|291:109,1,96.250002937317,12|0,0:1|0:0,0:0:0:0:
165,108,65263,2,0,L|64:93,1,96.250002937317,4|4,0:1|0:1,0:0:0:0:
385,243,65626,2,0,L|501:230,1,96.250002937317,12|4,0:1|0:1,0:0:0:0:
111,335,65990,5,4,0:0:0:0:
224,279,66172,2,0,L|231:171,1,96.250002937317,0|8,0:0|0:0,0:0:0:0:
112,200,66536,1,0,0:0:0:0:
256,41,66717,1,2,0:0:0:0:
192,109,66898,1,0,0:0:0:0:
207,201,67080,1,8,0:0:0:0:
289,245,67262,1,0,0:0:0:0:
34,325,67445,6,0,L|141:303,2,96.250002937317,4|0|8,0:1|0:0|0:0,0:0:0:0:
340,317,67990,2,0,P|374:261|309:166,1,192.500005874634,0|0,0:0|0:0,0:0:0:0:
189,164,68536,1,8,0:0:0:0:
470,67,68717,5,0,0:0:0:0:
261,55,69081,6,0,L|161:49,1,96.250002937317,0|8,0:0|0:0,0:0:0:0:
310,148,69445,2,0,L|421:159,2,96.250002937317,0|2|0,0:0|0:0|0:0,0:0:0:0:
197,262,69990,2,0,L|181:152,1,96.250002937317,8|0,0:0|0:0,0:0:0:0:
447,306,70354,6,0,L|347:318,2,96.250002937317,4|0|8,0:1|0:0|0:0,0:0:0:0:
192,246,70899,2,0,P|153:173|238:94,1,192.500005874634,0|0,0:0|0:0,0:0:0:0:
330,97,71445,1,8,0:0:0:0:
68,42,71626,5,0,0:0:0:0:
257,156,71990,2,0,L|51:177,1,192.500005874634,0|0,0:0|0:0,0:0:0:0:
218,289,72536,2,0,L|221:176,1,96.250002937317,2|0,0:0|0:0,0:0:0:0:
122,248,72899,1,8,0:0:0:0:
427,315,73081,5,0,0:0:0:0:
222,212,73445,2,0,L|418:193,1,192.500005874634,0|0,0:0|0:0,0:0:0:0:
269,279,73990,2,0,P|220:207|305:117,1,192.500005874634,0|8,0:0|0:0,0:0:0:0:
86,97,74717,6,0,L|296:87,2,192.500005874634,4|8|4,0:1|0:0|0:1,0:0:0:0:
287,253,75808,2,0,L|306:146,1,96.250002937317,8|0,0:0|0:0,0:0:0:0:
60,309,76172,2,0,L|278:328,2,192.500005874634,4|12|4,0:1|0:1|0:1,0:0:0:0:
170,274,77081,1,2,0:0:0:0:
424,221,77263,1,8,0:0:0:0:
454,184,77353,1,0,0:0:0:0:
456,137,77444,1,0,0:0:0:0:
429,99,77535,1,0,0:0:0:0:
182,62,77626,6,0,L|45:78,1,96.250002937317,4|0,0:0|0:0,0:0:0:0:
251,135,77990,2,0,L|452:158,2,192.500005874634,8|2|8,0:0|0:0|0:0,0:0:0:0:
135,198,78899,1,0,0:0:0:0:
409,346,79081,6,0,P|446:281|376:186,1,192.500005874634,2|8,0:0|0:0,0:0:0:0:
260,186,79626,1,0,0:0:0:0:
368,103,79808,2,0,L|169:106,1,192.500005874634,2|8,0:0|0:0,0:0:0:0:
320,38,80354,1,0,0:0:0:0:
62,322,80536,6,0,P|10:246|104:165,1,192.500005874634,4|8,0:0|0:0,0:0:0:0:
196,154,81081,1,0,0:0:0:0:
82,74,81263,2,0,L|199:68,2,96.250002937317,2|0|8,0:0|0:0|0:0,0:0:0:0:
352,314,81808,6,0,P|397:236|319:149,1,192.500005874634,0|0,0:0|0:0,0:0:0:0:
240,137,82354,2,0,L|113:145,1,96.250002937317,8|0,0:0|0:0,0:0:0:0:
335,38,82717,2,0,L|139:52,1,192.500005874634,2|8,0:0|0:0,0:0:0:0:
417,261,83445,6,0,P|466:185|389:105,1,192.500005874634,4|8,0:0|0:0,0:0:0:0:
281,91,83990,1,0,0:0:0:0:
176,160,84172,2,0,L|191:273,1,96.250002937317,2|0,0:0|0:0,0:0:0:0:
311,237,84536,2,0,L|328:356,1,96.250002937317,8|0,0:0|0:0,0:0:0:0:
51,207,84899,6,0,L|245:184,2,192.500005874634,2|8|8,0:0|0:0|3:2,0:0:0:0:
171,264,85808,1,0,3:0:0:0:
435,320,85990,2,0,L|491:320,1,48.1250014686585,8|0,3:2|3:0,0:0:0:0:
245,162,86172,2,0,L|189:162,1,48.1250014686585,0|0,3:0|3:0,0:0:0:0:
424,230,86354,6,0,P|465:157|387:83,1,175,4|0,0:0|0:0,0:0:0:0:
307,68,86899,1,0,0:0:0:0:
188,138,87081,2,0,L|286:137,1,87.5,0|0,0:0|0:0,0:0:0:0:
417,135,87445,1,0,0:0:0:0:
34,342,87717,1,4,1:2:0:0:
