osu file format v14

[General]
AudioFilename: audio.mp3
AudioLeadIn: 0
PreviewTime: 54263
Countdown: 0
SampleSet: Soft
StackLeniency: 0.7
Mode: 2
LetterboxInBreaks: 0
WidescreenStoryboard: 0

[Editor]
DistanceSpacing: 1
BeatDivisor: 4
GridSize: 32
TimelineZoom: 1

[Metadata]
Title:Hitorigoto -TV MIX-
TitleUnicode:ヒトリゴト -TV MIX-
Artist:ClariS
ArtistUnicode:ClariS
Creator:Ascendance
Version:Overdose
Source:エロマンガ先生
Tags:eromanga sensei ero manga eromanga-sensei eromangasensei opening tv size -wwwww fii kaitlin spectator
BeatmapID:1316293
BeatmapSetID:624544

[Difficulty]
HPDrainRate:7
CircleSize:4.1
OverallDifficulty:9.1
ApproachRate:9.1
SliderMultiplier:1.92
SliderTickRate:2

[Events]
//Background and Video events
0,0,"ascendance.png",0,0
//Break Periods
//Storyboard Layer 0 (Background)
//Storyboard Layer 1 (Fail)
//Storyboard Layer 2 (Pass)
//Storyboard Layer 3 (Foreground)
//Storyboard Sound Samples

[TimingPoints]
536,363.636363636364,4,2,1,80,1,0
23808,-100,4,2,1,60,0,0
35445,-100,4,2,1,50,0,0
41263,-100,4,2,1,60,0,0
54354,-100,4,2,1,80,0,1
56445,-100,4,1,3,80,0,1
56626,-100,4,2,1,80,0,1
59354,-100,4,1,3,80,0,1
59536,-100,4,2,1,80,0,1
65899,-100,4,2,1,80,0,0
65990,-100,4,2,1,80,0,1
68081,-100,4,1,3,80,0,1
68263,-100,4,2,1,80,0,1
70990,-100,4,1,3,80,0,1
71172,-100,4,2,1,80,0,1
86354,-100,4,2,1,70,0,0

[Colours]
Combo1 : 52,164,178
Combo2 : 254,194,206
Combo3 : 179,220,233
Combo4 : 235,142,173

[HitObjects]
40,88,536,5,4,1:2:0:0:
384,64,717,1,0,1:0:0:0:
296,144,899,2,0,P|224:168|104:144,1,192,0|0,0:0|0:0,0:0:0:0:
288,352,1445,2,0,L|296:240,1,96,0|0,0:0|0:0,0:0:0:0:
192,200,1808,1,0,0:0:0:0:
352,192,1990,5,0,1:0:0:0:
56,208,2172,1,0,1:0:0:0:
176,80,2354,2,0,L|376:96,1,192,0|0,0:0|0:0,0:0:0:0:
248,224,2899,2,0,L|240:96,1,96,0|0,0:0|0:0,0:0:0:0:
344,264,3263,1,0,0:0:0:0:
448,296,3445,5,0,1:0:0:0:
168,304,3626,1,0,1:0:0:0:
72,232,3808,2,0,L|56:136,1,96,0|0,0:0|0:0,0:0:0:0:
160,48,4172,1,0,0:0:0:0:
242,88,4353,1,0,0:0:0:0:
249,179,4535,1,0,0:0:0:0:
174,232,4717,1,0,0:0:0:0:
464,296,4899,6,0,L|368:304,2,96,4|0|0,1:2|0:0|0:0,0:0:0:0:
280,256,5445,1,0,0:0:0:0:
144,176,5626,2,0,L|311:186,2,128,4|0|0,3:0|0:0|0:0,0:0:0:0:
32,168,6354,5,4,1:2:0:0:
424,96,6536,1,0,1:0:0:0:
296,64,6717,2,0,L|104:80,1,192,0|0,0:0|0:0,0:0:0:0:
264,224,7263,2,0,L|272:112,1,96,0|0,0:0|0:0,0:0:0:0:
168,168,7626,1,0,0:0:0:0:
344,184,7808,5,0,1:0:0:0:
56,248,7990,1,0,1:0:0:0:
168,336,8172,2,0,L|360:320,1,192,0|0,0:0|0:0,0:0:0:0:
208,184,8717,2,0,L|224:288,1,96,0|0,0:0|0:0,0:0:0:0:
312,224,9081,1,0,0:0:0:0:
128,248,9263,5,0,1:0:0:0:
424,272,9445,1,0,1:0:0:0:
296,320,9626,1,0,0:0:0:0:
464,232,9808,2,0,L|472:136,1,96,0|0,0:0|0:0,0:0:0:0:
336,80,10172,1,0,0:0:0:0:
488,40,10354,1,0,0:0:0:0:
336,80,10536,1,0,0:0:0:0:
64,344,10717,6,0,P|32:280|96:184,1,192,4|0,1:2|0:0,0:0:0:0:
208,192,11263,1,0,0:0:0:0:
88,104,11445,2,0,L|263:104,2,128,4|0|0,3:0|0:0|0:0,0:0:0:0:
408,56,12172,6,0,P|464:128|384:208,1,192,4|8,0:0|0:0,0:0:0:0:
280,208,12717,1,0,0:0:0:0:
408,288,12899,2,0,L|304:288,2,96,2|0|8,0:0|0:0|0:0,0:0:0:0:
136,360,13445,6,0,L|112:256,1,96,0|2,0:0|0:0,0:0:0:0:
248,224,13808,2,0,L|264:120,1,96,0|8,0:0|0:0,0:0:0:0:
120,32,14172,2,0,P|64:80|128:176,1,192,0|0,0:0|0:0,0:0:0:0:
208,264,14717,2,0,L|104:264,1,96,8|0,0:0|0:0,0:0:0:0:
288,208,15081,6,0,L|384:208,1,96,4|0,0:0|0:0,0:0:0:0:
120,120,15445,2,0,L|16:120,2,96,8|0|2,0:0|0:0|0:0,0:0:0:0:
448,56,15990,2,0,L|352:56,1,96,0|8,0:0|0:0,0:0:0:0:
72,128,16354,6,0,L|80:224,1,96,0|2,0:0|0:0,0:0:0:0:
208,208,16717,2,0,L|216:312,1,96,0|8,0:0|0:0,0:0:0:0:
80,344,17081,2,0,L|272:360,1,192,0|0,0:0|0:0,0:0:0:0:
416,256,17626,2,0,L|312:264,1,96,8|0,0:0|0:0,0:0:0:0:
64,96,17990,6,0,L|288:120,1,192,4|8,0:0|0:0,0:0:0:0:
376,136,18536,1,0,0:0:0:0:
216,296,18717,1,2,0:0:0:0:
360,256,18899,2,0,L|376:152,1,96,0|8,0:0|0:0,0:0:0:0:
112,64,19263,6,0,L|8:72,1,96,0|2,0:0|0:0,0:0:0:0:
192,144,19626,2,0,L|288:160,1,96,0|8,0:0|0:0,0:0:0:0:
104,200,19990,2,0,P|64:248|128:344,1,192,0|0,0:0|0:0,0:0:0:0:
272,360,20536,2,0,L|368:352,1,96,8|0,0:0|0:0,0:0:0:0:
192,280,20899,6,0,L|88:288,1,96,4|0,0:0|0:0,0:0:0:0:
440,192,21263,1,8,0:0:0:0:
328,128,21445,2,0,L|312:80,2,48,0|0|2,0:0|0:0|0:0,0:0:0:0:
440,192,21808,1,0,0:0:0:0:
296,192,21990,1,8,0:0:0:0:
448,272,22172,6,0,L|344:272,1,96,0|4,0:0|0:0,0:0:0:0:
224,360,22536,2,0,L|336:360,1,96,0|8,0:0|0:0,0:0:0:0:
176,272,22899,2,0,L|48:272,1,96,0|4,0:0|0:0,0:0:0:0:
256,216,23263,2,0,L|312:216,1,48,0|0,0:0|0:0,0:0:0:0:
104,168,23445,1,10,0:0:0:0:
70,135,23535,1,2,0:0:0:0:
65,88,23626,1,2,0:0:0:0:
92,50,23717,1,2,0:0:0:0:
400,24,23808,5,4,0:0:0:0:
296,96,23990,1,0,0:0:0:0:
432,176,24172,2,0,L|336:176,1,96,8|0,0:0|0:0,0:0:0:0:
224,264,24536,2,0,L|320:264,1,96,2|0,0:0|0:0,0:0:0:0:
168,184,24899,2,0,L|64:184,1,96,8|0,0:0|0:0,0:0:0:0:
368,64,25263,6,0,P|416:120|352:216,1,192,2|8,0:0|0:0,0:0:0:0:
240,232,25808,1,0,0:0:0:0:
344,328,25990,2,0,L|240:328,1,96,2|0,0:0|0:0,0:0:0:0:
400,256,26354,2,0,L|496:256,1,96,8|0,0:0|0:0,0:0:0:0:
448,256,26626,1,0,0:0:0:0:
144,256,26717,5,2,0:0:0:0:
280,192,26899,1,0,0:0:0:0:
144,184,27081,2,0,L|48:184,1,96,8|0,0:0|0:0,0:0:0:0:
216,128,27445,2,0,L|312:128,2,96,2|0|8,0:0|0:0|0:0,0:0:0:0:
80,48,27990,2,0,L|136:48,1,48,0|0,0:0|0:0,0:0:0:0:
360,32,28172,6,0,L|472:32,2,96,2|0|8,0:0|0:0|0:0,0:0:0:0:
69,225,28717,2,0,L|261:225,1,192
148,307,29263,2,0,L|92:308,1,48,8|0,0:0|0:0,0:0:0:0:
392,352,29445,2,0,L|440:352,1,48,8|8,0:0|0:0,0:0:0:0:
96,248,29626,5,4,0:0:0:0:
232,192,29808,1,0,0:0:0:0:
96,96,29990,2,0,L|224:96,1,96,8|0,0:0|0:0,0:0:0:0:
328,24,30354,2,0,L|224:24,1,96,2|0,0:0|0:0,0:0:0:0:
384,88,30717,2,0,L|488:88,1,96,8|0,0:0|0:0,0:0:0:0:
192,344,31081,6,0,P|152:264|240:184,1,192,2|8,0:0|0:0,0:0:0:0:
320,184,31626,1,0,0:0:0:0:
192,112,31808,2,0,L|320:112,1,96,2|0,0:0|0:0,0:0:0:0:
128,48,32172,2,0,L|32:48,1,96,8|0,0:0|0:0,0:0:0:0:
80,48,32445,1,0,0:0:0:0:
368,48,32536,5,2,0:0:0:0:
256,128,32717,2,0,L|264:232,1,96,0|8,0:0|0:0,0:0:0:0:
400,296,33081,1,0,0:0:0:0:
268,347,33263,1,2,0:0:0:0:
360,280,33444,1,0,0:0:0:0:
354,186,33626,1,8,0:0:0:0:
255,127,33808,2,0,L|208:128,1,48,0|0,0:0|0:0,0:0:0:0:
464,64,33990,6,0,L|352:64,2,96,2|0|8,0:0|0:0|0:0,0:0:0:0:
176,64,34536,2,0,P|120:128|208:192,1,192,0|0,0:0|0:0,0:0:0:0:
336,296,35081,2,0,L|272:296,1,48,8|0,0:0|0:0,0:0:0:0:
88,224,35263,2,0,L|144:224,1,48,8|8,0:0|0:0,0:0:0:0:
416,224,35445,5,4,0:0:0:0:
240,176,35808,2,0,P|184:104|264:24,1,192,0|8,0:0|0:0,0:0:0:0:
352,16,36354,1,0,0:0:0:0:
256,104,36536,2,0,L|360:104,1,96,0|0,0:0|0:0,0:0:0:0:
88,328,36899,6,0,P|48:264|136:176,1,192,2|2,0:0|0:0,0:0:0:0:
280,120,37445,2,0,L|80:120,1,192,0|0,0:0|0:0,0:0:0:0:
176,48,37990,2,0,L|80:48,1,96,0|0,0:0|0:0,0:0:0:0:
360,256,38354,6,0,P|408:176|336:104,1,192,6|0,0:0|0:0,0:0:0:0:
240,112,38899,1,0,0:0:0:0:
336,32,39081,2,0,L|232:32,1,96,8|0,0:0|0:0,0:0:0:0:
400,32,39445,2,0,L|496:32,1,96,0|8,0:0|0:0,0:0:0:0:
216,136,39808,6,0,L|112:136,2,96,2|8|2,0:0|0:0|0:0,0:0:0:0:
328,136,40354,1,0,0:0:0:0:
216,216,40536,2,0,L|152:216,2,64,8|8|8,3:2|3:0|3:0,0:0:0:0:
344,280,40899,2,0,L|408:280,2,64,8|8|8,3:0|3:0|3:0,0:0:0:0:
119,334,41263,6,0,L|7:334,1,96,4|0,0:0|0:0,0:0:0:0:
336,232,41626,2,0,L|432:232,1,96,8|0,0:0|0:0,0:0:0:0:
280,176,41990,2,0,P|240:112|312:40,1,192,2|8,0:0|0:0,0:0:0:0:
416,48,42536,1,0,0:0:0:0:
304,296,42717,6,0,P|240:288|192:304,1,96,2|0,0:0|0:0,0:0:0:0:
48,200,43081,2,0,P|104:208|144:200,1,96,8|0,0:0|0:0,0:0:0:0:
464,112,43445,2,0,L|352:120,2,96,2|0|8,0:0|0:0|0:0,0:0:0:0:
168,64,43990,6,0,P|104:128|192:192,1,192,0|0,0:0|0:0,0:0:0:0:
248,256,44536,2,0,L|344:256,1,96,8|0,0:0|0:0,0:0:0:0:
208,328,44899,2,0,P|168:280|232:176,1,192,2|8,0:0|0:0,0:0:0:0:
328,168,45445,1,0,0:0:0:0:
224,80,45626,5,2,0:0:0:0:
96,88,45808,1,0,0:0:0:0:
224,80,45990,1,8,0:0:0:0:
96,88,46172,1,0,0:0:0:0:
384,168,46354,2,0,L|480:176,2,96,2|0|8,0:0|0:0|0:0,0:0:0:0:
104,336,46899,6,0,L|304:304,1,192,0|0,0:0|0:0,0:0:0:0:
152,240,47445,2,0,L|176:136,1,96,8|0,0:0|0:0,0:0:0:0:
320,24,47808,2,0,P|384:64|304:152,1,192,2|8,0:0|0:0,0:0:0:0:
232,160,48354,1,0,0:0:0:0:
344,160,48536,5,2,0:0:0:0:
200,160,48717,1,0,0:0:0:0:
344,160,48899,2,0,L|440:160,1,96,8|0,0:0|0:0,0:0:0:0:
96,72,49263,2,0,L|192:72,2,96,2|0|8,0:0|0:0|0:0,0:0:0:0:
392,72,49808,1,0,0:0:0:0:
136,336,49990,6,0,P|88:280|168:176,1,192,2|8,0:0|0:0,0:0:0:0:
256,176,50536,1,0,0:0:0:0:
128,104,50717,2,0,L|240:104,1,96,2|0,0:0|0:0,0:0:0:0:
376,40,51081,2,0,L|280:40,1,96,8|0,0:0|0:0,0:0:0:0:
32,200,51445,6,0,L|248:192,2,192,2|8|2,0:0|0:0|0:0,0:0:0:0:
168,288,52354,2,0,L|176:240,2,48,0|0|8,0:0|0:0|0:0,0:0:0:0:
40,176,52717,2,0,L|32:120,1,48,8|8,0:0|0:0,0:0:0:0:
312,64,52899,6,0,L|416:64,1,96,2|2,0:1|0:1,0:0:0:0:
120,120,53263,1,0,0:0:0:0:
448,328,53445,2,0,P|496:272|416:176,1,192,2|0,0:1|0:0,0:0:0:0:
408,176,53869,1,0,0:0:0:0:
368,176,53929,1,0,0:0:0:0:
175,134,53990,1,0,0:0:0:0:
148,115,54050,1,0,0:0:0:0:
135,87,54111,1,0,0:0:0:0:
137,55,54171,1,0,0:0:0:0:
154,29,54232,1,0,0:0:0:0:
183,15,54293,1,0,0:0:0:0:
448,64,54354,5,4,0:0:0:0:
320,168,54536,2,0,L|328:272,1,96,0|8,0:0|0:0,0:0:0:0:
464,336,54899,1,0,0:0:0:0:
176,232,55081,2,0,L|80:240,1,96,2|0,0:0|0:0,0:0:0:0:
416,88,55445,2,0,L|528:96,1,96,8|0,0:0|0:0,0:0:0:0:
185,50,55808,6,0,L|73:58,2,96,4|0|8,0:1|0:0|0:0,0:0:0:0:
340,176,56354,2,0,L|132:162,1,192
495,110,56899,1,8,0:0:0:0:
112,224,57081,1,0,0:0:0:0:
240,288,57263,5,4,0:0:0:0:
112,224,57445,2,0,L|104:128,1,96,0|8,0:0|0:0,0:0:0:0:
232,48,57808,1,0,0:0:0:0:
480,256,57990,2,0,L|360:248,1,96,2|0,0:0|0:0,0:0:0:0:
80,344,58354,2,0,L|192:336,1,96,8|0,0:0|0:0,0:0:0:0:
432,216,58717,5,4,0:1:0:0:
336,206,58898,1,0,0:0:0:0:
241,196,59080,1,8,0:0:0:0:
432,24,59263,2,0,P|487:101|408:178,1,192,0|0,0:0|0:0,0:0:0:0:
64,256,59808,1,8,0:0:0:0:
440,312,59990,1,0,0:0:0:0:
312,296,60172,5,4,0:0:0:0:
440,216,60354,2,0,L|448:104,1,96,0|8,0:0|0:0,0:0:0:0:
328,56,60717,1,0,0:0:0:0:
24,272,60899,2,0,L|144:256,2,96,2|0|8,0:0|0:0|0:0,0:0:0:0:
336,352,61445,6,0,P|400:296|328:200,1,192,0|0,0:0|0:0,0:0:0:0:
256,160,61990,2,0,L|152:168,1,96,8|0,0:0|0:0,0:0:0:0:
328,80,62354,2,0,L|520:96,1,192,2|8,0:0|0:0,0:0:0:0:
424,152,62899,2,0,L|352:144,1,48,0|0,0:0|0:0,0:0:0:0:
80,280,63081,6,0,L|216:264,1,96,4|0,0:0|0:0,0:0:0:0:
320,320,63445,2,0,L|424:304,1,96,8|0,0:0|0:0,0:0:0:0:
160,168,63808,2,0,L|136:64,1,96,4|0,0:0|0:0,0:0:0:0:
416,224,64172,2,0,L|432:112,1,96,8|0,0:0|0:0,0:0:0:0:
136,320,64536,5,4,0:1:0:0:
280,264,64717,1,0,0:0:0:0:
128,208,64899,2,0,L|112:104,1,96,12|0,0:1|0:0,0:0:0:0:
376,120,65263,2,0,L|392:8,1,96,4|4,0:1|0:1,0:0:0:0:
112,40,65626,1,12,0:1:0:0:
456,96,65808,1,4,0:1:0:0:
80,272,65990,5,4,0:0:0:0:
208,344,66172,2,0,L|304:328,2,96,0|8|0,0:0|0:0|0:0,0:0:0:0:
448,240,66717,2,0,P|456:176|448:128,1,96,2|0,0:0|0:0,0:0:0:0:
144,32,67081,2,0,P|128:96|144:136,1,96,8|0,0:0|0:0,0:0:0:0:
400,360,67445,6,0,L|496:344,2,96,4|0|8,0:1|0:0|0:0,0:0:0:0:
235,300,67990,2,0,L|43:308,1,192,0|0,0:0|0:0,0:0:0:0:
416,216,68536,1,8,0:0:0:0:
96,216,68717,1,0,0:0:0:0:
224,216,68899,5,4,0:0:0:0:
96,128,69081,2,0,L|200:128,1,96,0|8,0:0|0:0,0:0:0:0:
328,128,69445,1,0,0:0:0:0:
48,48,69626,2,0,L|152:48,1,96,2|0,0:0|0:0,0:0:0:0:
488,208,69990,2,0,L|384:208,1,96,8|0,0:0|0:0,0:0:0:0:
88,304,70354,5,4,0:1:0:0:
184,304,70535,1,0,0:0:0:0:
280,304,70717,1,8,0:0:0:0:
117,262,70899,2,0,P|62:192|147:129,1,192
432,96,71445,1,8,0:0:0:0:
64,96,71626,1,0,0:0:0:0:
192,32,71808,5,4,0:0:0:0:
304,128,71990,2,0,L|296:232,1,96,0|8,0:0|0:0,0:0:0:0:
168,296,72354,1,0,0:0:0:0:
480,336,72536,2,0,L|360:344,2,96,2|0|8,0:0|0:0|0:0,0:0:0:0:
216,224,73081,6,0,P|176:168|264:64,1,192,0|0,0:0|0:0,0:0:0:0:
352,48,73626,2,0,L|456:56,1,96,8|0,0:0|0:0,0:0:0:0:
192,144,73990,2,0,L|408:160,1,192,0|8,0:0|0:0,0:0:0:0:
480,232,74536,1,0,0:0:0:0:
96,352,74717,6,0,L|80:256,1,96,4|0,0:1|0:0,0:0:0:0:
464,176,75081,2,0,L|480:72,1,96,8|0,0:0|0:0,0:0:0:0:
224,280,75445,1,4,0:1:0:0:
376,280,75626,1,0,0:0:0:0:
112,208,75808,2,0,L|8:208,1,96,8|0,0:0|0:0,0:0:0:0:
64,208,76081,1,0,0:0:0:0:
352,144,76172,6,0,L|456:144,1,96,4|0,0:1|0:0,0:0:0:0:
104,72,76536,2,0,L|208:72,1,96,12|0,0:1|0:0,0:0:0:0:
488,256,76899,2,0,L|384:256,1,96,6|2,0:1|0:0,0:0:0:0:
128,352,77263,1,8,0:0:0:0:
82,318,77353,1,0,0:0:0:0:
86,261,77444,1,0,0:0:0:0:
137,230,77535,1,0,0:0:0:0:
368,168,77626,6,0,L|472:168,1,96,4|0,0:0|0:0,0:0:0:0:
72,56,77990,2,0,L|184:56,1,96,8|0,0:0|0:0,0:0:0:0:
456,32,78354,2,0,L|344:32,1,96,2|0,0:0|0:0,0:0:0:0:
80,176,78717,2,0,L|64:280,1,96,8|0,0:0|0:0,0:0:0:0:
112,312,78990,1,0,0:0:0:0:
400,344,79081,6,0,L|416:248,1,96,2|0,0:0|0:0,0:0:0:0:
136,56,79445,2,0,L|152:160,1,96,8|0,0:0|0:0,0:0:0:0:
440,64,79808,1,2,0:0:0:0:
288,88,79990,1,0,0:0:0:0:
48,192,80172,1,8,0:0:0:0:
368,192,80354,1,0,0:0:0:0:
56,296,80536,6,0,L|152:296,1,96,4|0,0:0|0:0,0:0:0:0:
400,240,80899,2,0,L|496:240,1,96,8|0,0:0|0:0,0:0:0:0:
120,168,81263,2,0,L|224:168,1,96,2|0,0:0|0:0,0:0:0:0:
456,136,81626,1,8,0:0:0:0:
176,56,81808,6,0,P|120:120|184:216,1,192,0|0,0:0|0:0,0:0:0:0:
472,352,82354,2,0,L|488:256,1,96,8|0,0:0|0:0,0:0:0:0:
224,184,82717,2,0,L|208:80,1,96,2|0,0:0|0:0,0:0:0:0:
480,32,83081,2,0,L|376:32,1,96,8|0,0:0|0:0,0:0:0:0:
32,296,83445,6,0,P|104:272|232:296,1,192,4|8,0:0|0:0,0:0:0:0:
464,360,83990,1,0,0:0:0:0:
144,208,84172,2,0,L|120:80,1,96,2|0,0:0|0:0,0:0:0:0:
432,32,84536,2,0,L|424:136,1,96,8|0,0:0|0:0,0:0:0:0:
376,160,84808,1,0,0:0:0:0:
144,312,84899,6,0,L|32:304,1,96,2|0,0:0|0:0,0:0:0:0:
368,256,85263,2,0,L|472:248,1,96,8|0,0:0|0:0,0:0:0:0:
416,240,85536,1,0,0:0:0:0:
184,224,85626,5,8,3:2:0:0:
140,196,85716,1,0,3:0:0:0:
141,146,85807,1,0,3:0:0:0:
188,109,85898,1,0,3:0:0:0:
376,80,85990,2,0,L|448:80,1,48,8|0,3:2|3:0,0:0:0:0:
128,40,86172,2,0,L|64:40,1,48,0|0,3:0|3:0,0:0:0:0:
376,160,86354,6,0,P|432:200|360:288,1,192,4|0,0:0|0:0,0:0:0:0:
248,296,86899,1,0,0:0:0:0:
408,352,87081,2,0,L|288:352,2,96,0|0|0,0:0|0:0|0:0,0:0:0:0:
32,344,87717,1,4,1:2:0:0:
