osu file format v14

[General]
AudioFilename: ClariS - Hitorigoto -TV MIX-.mp3
AudioLeadIn: 0
PreviewTime: 54354
Countdown: 0
SampleSet: Soft
StackLeniency: 0.7
Mode: 3
LetterboxInBreaks: 0
SpecialStyle: 0
WidescreenStoryboard: 0

[Editor]
Bookmarks: 1092,12728,24364,36001,54910,78182
DistanceSpacing: 1
BeatDivisor: 6
GridSize: 4
TimelineZoom: 2.5

[Metadata]
Title:Hitorigoto -TV MIX-
TitleUnicode:ヒトリゴト -TV MIX-
Artist:ClariS
ArtistUnicode:ClariS
Creator:Amiichii
Version:Easy
Source:エロマンガ先生
Tags:eromanga sensei opening
BeatmapID:1266901
BeatmapSetID:599467

[Difficulty]
HPDrainRate:6
CircleSize:4
OverallDifficulty:7
ApproachRate:5
SliderMultiplier:1.4
SliderTickRate:1

[Events]
//Background and Video events
0,0,"BG1.jpg",0,0
Video,-430,"eromanga.avi"
//Break Periods
//Storyboard Layer 0 (Background)
//Storyboard Layer 1 (Fail)
//Storyboard Layer 2 (Pass)
//Storyboard Layer 3 (Foreground)
//Storyboard Sound Samples

[TimingPoints]
536,363.636363636364,4,2,1,35,1,0
54354,-100,4,2,1,35,0,1
65899,-100,4,2,1,35,0,0
65990,-100,4,2,1,35,0,1
86354,-100,4,2,1,35,0,0

[HitObjects]
448,192,536,5,2,0:0:0:0:
64,192,717,1,2,0:0:0:0:
320,192,1445,128,0,1990:0:0:0:0:
64,192,1990,1,2,0:0:0:0:
448,192,2172,1,2,0:0:0:0:
320,192,2717,1,0,0:0:0:0:
192,192,2899,128,2,3445:0:0:0:0:
448,192,3445,1,0,0:0:0:0:
64,192,3626,1,0,0:0:0:0:
448,192,4354,128,0,4899:0:0:0:0:
320,192,4899,1,0,0:0:0:0:
64,192,4899,128,0,5626:0:0:0:0:
192,192,5626,1,0,0:0:0:0:
320,192,5869,1,0,0:0:0:0:
64,192,6111,1,0,0:0:0:0:
448,192,6354,1,0,0:0:0:0:
192,192,6536,1,0,0:0:0:0:
320,192,7263,128,0,7808:0:0:0:0:
64,192,7808,1,0,0:0:0:0:
448,192,7990,1,0,0:0:0:0:
192,192,8536,1,0,0:0:0:0:
320,192,8717,128,0,9263:0:0:0:0:
448,192,9263,1,0,0:0:0:0:
64,192,9445,1,0,0:0:0:0:
192,192,10172,128,0,10717:0:0:0:0:
64,192,10717,1,0,0:0:0:0:
448,192,10717,128,0,11445:0:0:0:0:
320,192,11445,1,0,0:0:0:0:
192,192,11687,1,0,0:0:0:0:
64,192,11929,1,0,0:0:0:0:
320,192,12172,1,0,0:0:0:0:
448,192,12172,1,0,0:0:0:0:
64,192,12536,1,0,0:0:0:0:
320,192,12899,1,0,0:0:0:0:
192,192,13081,1,0,0:0:0:0:
448,192,13263,1,0,0:0:0:0:
64,192,13445,1,0,0:0:0:0:
320,192,13808,1,0,0:0:0:0:
192,192,14172,1,0,0:0:0:0:
448,192,14536,1,0,0:0:0:0:
320,192,14899,1,0,0:0:0:0:
192,192,15081,1,0,0:0:0:0:
64,192,15081,1,0,0:0:0:0:
448,192,15445,1,0,0:0:0:0:
64,192,15808,1,0,0:0:0:0:
320,192,15990,1,0,0:0:0:0:
192,192,16172,1,0,0:0:0:0:
448,192,16354,1,0,0:0:0:0:
320,192,16717,1,0,0:0:0:0:
64,192,17081,1,0,0:0:0:0:
192,192,17445,1,0,0:0:0:0:
448,192,17808,1,0,0:0:0:0:
192,192,17990,1,0,0:0:0:0:
64,192,17990,1,0,0:0:0:0:
320,192,18354,1,0,0:0:0:0:
192,192,18717,1,0,0:0:0:0:
320,192,18899,1,0,0:0:0:0:
64,192,19081,1,0,0:0:0:0:
448,192,19263,1,0,0:0:0:0:
192,192,19626,1,0,0:0:0:0:
320,192,19990,1,0,0:0:0:0:
448,192,20354,1,0,0:0:0:0:
64,192,20717,1,0,0:0:0:0:
320,192,20899,1,0,0:0:0:0:
448,192,20899,1,0,0:0:0:0:
192,192,21263,1,0,0:0:0:0:
64,192,21626,1,0,0:0:0:0:
192,192,21808,1,0,0:0:0:0:
320,192,21990,1,0,0:0:0:0:
448,192,22172,1,0,0:0:0:0:
192,192,22536,1,0,0:0:0:0:
64,192,22899,1,0,0:0:0:0:
448,192,23263,1,0,0:0:0:0:
64,192,23626,1,0,0:0:0:0:
320,192,23808,1,0,0:0:0:0:
448,192,23808,1,0,0:0:0:0:
64,192,24172,1,0,0:0:0:0:
192,192,24536,1,0,0:0:0:0:
320,192,24899,1,0,0:0:0:0:
448,192,25263,1,0,0:0:0:0:
320,192,25626,1,0,0:0:0:0:
192,192,25990,1,0,0:0:0:0:
64,192,26354,1,0,0:0:0:0:
320,192,26717,1,0,0:0:0:0:
448,192,26717,128,0,28172:0:0:0:0:
64,192,27081,1,0,0:0:0:0:
320,192,27445,1,0,0:0:0:0:
192,192,27808,1,0,0:0:0:0:
64,192,28172,1,0,0:0:0:0:
192,192,28354,1,0,0:0:0:0:
448,192,28717,1,0,0:0:0:0:
192,192,29081,1,0,0:0:0:0:
320,192,29263,1,0,0:0:0:0:
448,192,29445,128,0,29626:0:0:0:0:
192,192,29626,1,0,0:0:0:0:
64,192,29626,1,0,0:0:0:0:
320,192,29990,1,0,0:0:0:0:
448,192,30354,1,0,0:0:0:0:
64,192,30717,1,0,0:0:0:0:
448,192,31081,1,0,0:0:0:0:
320,192,31445,1,0,0:0:0:0:
192,192,31808,1,0,0:0:0:0:
64,192,32172,1,0,0:0:0:0:
320,192,32536,1,0,0:0:0:0:
448,192,32536,128,0,33990:0:0:0:0:
64,192,32899,1,0,0:0:0:0:
320,192,33263,1,0,0:0:0:0:
192,192,33626,1,0,0:0:0:0:
320,192,33990,1,0,0:0:0:0:
64,192,34172,1,0,0:0:0:0:
320,192,34536,1,0,0:0:0:0:
64,192,34899,1,0,0:0:0:0:
320,192,35081,1,0,0:0:0:0:
192,192,35263,128,0,35445:0:0:0:0:
448,192,35445,1,0,0:0:0:0:
64,192,35445,128,0,36172:0:0:0:0:
192,192,36172,128,0,36536:0:0:0:0:
448,192,36536,128,0,36899:0:0:0:0:
64,192,36899,128,0,37445:0:0:0:0:
320,192,37445,128,0,37990:0:0:0:0:
192,192,37990,128,0,38354:0:0:0:0:
448,192,38354,128,0,39081:0:0:0:0:
64,192,39081,128,0,39445:0:0:0:0:
192,192,39445,128,0,39808:0:0:0:0:
320,192,39808,128,0,40354:0:0:0:0:
64,192,40354,128,0,41263:0:0:0:0:
192,192,41263,1,0,0:0:0:0:
448,192,41263,1,0,0:0:0:0:
320,192,41626,1,0,0:0:0:0:
64,192,41990,1,0,0:0:0:0:
448,192,42354,1,0,0:0:0:0:
192,192,42717,1,0,0:0:0:0:
320,192,43081,1,0,0:0:0:0:
448,192,43445,1,0,0:0:0:0:
64,192,43626,1,0,0:0:0:0:
320,192,43990,1,0,0:0:0:0:
448,192,44536,1,0,0:0:0:0:
192,192,44899,1,0,0:0:0:0:
320,192,45263,1,0,0:0:0:0:
448,192,45626,1,0,0:0:0:0:
64,192,45990,1,0,0:0:0:0:
320,192,46354,1,0,0:0:0:0:
64,192,46536,1,0,0:0:0:0:
192,192,46899,1,0,0:0:0:0:
320,192,47081,1,0,0:0:0:0:
448,192,47081,1,0,0:0:0:0:
64,192,47445,1,0,0:0:0:0:
448,192,47808,1,0,0:0:0:0:
192,192,48172,1,0,0:0:0:0:
320,192,48536,1,0,0:0:0:0:
448,192,48899,128,0,49263:0:0:0:0:
320,192,49263,128,0,49626:0:0:0:0:
192,192,49626,128,0,49990:0:0:0:0:
64,192,49990,128,0,50717:0:0:0:0:
320,192,50354,1,0,0:0:0:0:
192,192,50717,128,0,51445:0:0:0:0:
448,192,51081,1,0,0:0:0:0:
320,192,51445,128,0,52172:0:0:0:0:
64,192,51808,1,0,0:0:0:0:
448,192,52172,128,0,52899:0:0:0:0:
192,192,52536,1,0,0:0:0:0:
64,192,52899,1,0,0:0:0:0:
320,192,53081,1,0,0:0:0:0:
192,192,53263,1,0,0:0:0:0:
448,192,53445,128,0,54354:0:0:0:0:
64,192,54354,1,0,0:0:0:0:
192,192,54354,1,0,0:0:0:0:
320,192,54717,1,0,0:0:0:0:
448,192,55081,1,0,0:0:0:0:
64,192,55445,1,0,0:0:0:0:
320,192,55808,128,0,56536:0:0:0:0:
192,192,56172,1,0,0:0:0:0:
64,192,56536,128,0,57263:0:0:0:0:
448,192,56899,1,0,0:0:0:0:
192,192,57263,1,0,0:0:0:0:
320,192,57263,1,0,0:0:0:0:
448,192,57626,1,0,0:0:0:0:
64,192,57990,1,0,0:0:0:0:
320,192,58354,1,0,0:0:0:0:
192,192,58717,128,0,59445:0:0:0:0:
320,192,59081,1,0,0:0:0:0:
448,192,59445,128,0,60172:0:0:0:0:
64,192,59808,1,0,0:0:0:0:
320,192,60172,1,0,0:0:0:0:
192,192,60172,1,0,0:0:0:0:
64,192,60536,1,0,0:0:0:0:
448,192,60899,1,0,0:0:0:0:
192,192,61263,1,0,0:0:0:0:
320,192,61626,1,0,0:0:0:0:
448,192,61626,1,0,0:0:0:0:
64,192,61990,1,0,0:0:0:0:
320,192,62354,1,0,0:0:0:0:
192,192,62717,1,0,0:0:0:0:
448,192,63081,128,0,63445:0:0:0:0:
320,192,63445,128,0,63808:0:0:0:0:
192,192,63808,128,0,64172:0:0:0:0:
64,192,64172,128,0,64536:0:0:0:0:
448,192,64536,1,0,0:0:0:0:
192,192,64717,1,0,0:0:0:0:
320,192,64899,1,0,0:0:0:0:
448,192,65081,1,0,0:0:0:0:
64,192,65263,1,0,0:0:0:0:
192,192,65445,1,0,0:0:0:0:
320,192,65626,1,0,0:0:0:0:
448,192,65808,1,0,0:0:0:0:
192,192,65990,1,0,0:0:0:0:
64,192,65990,1,0,0:0:0:0:
448,192,66354,1,0,0:0:0:0:
320,192,66717,1,0,0:0:0:0:
64,192,67081,1,0,0:0:0:0:
192,192,67445,128,0,68172:0:0:0:0:
448,192,67808,1,0,0:0:0:0:
320,192,68172,128,0,68899:0:0:0:0:
64,192,68536,1,0,0:0:0:0:
448,192,68899,1,0,0:0:0:0:
192,192,68899,1,0,0:0:0:0:
64,192,69263,1,0,0:0:0:0:
448,192,69626,1,0,0:0:0:0:
192,192,69990,1,0,0:0:0:0:
320,192,70354,128,0,71081:0:0:0:0:
64,192,70717,1,0,0:0:0:0:
192,192,71081,128,0,71808:0:0:0:0:
448,192,71445,1,0,0:0:0:0:
64,192,71808,1,0,0:0:0:0:
320,192,71808,1,0,0:0:0:0:
448,192,72172,1,0,0:0:0:0:
192,192,72536,1,0,0:0:0:0:
64,192,72899,1,0,0:0:0:0:
320,192,73263,1,0,0:0:0:0:
448,192,73263,1,0,0:0:0:0:
64,192,73626,1,0,0:0:0:0:
448,192,73990,1,0,0:0:0:0:
320,192,74354,1,0,0:0:0:0:
64,192,74717,128,0,75081:0:0:0:0:
320,192,75081,128,0,75445:0:0:0:0:
448,192,75445,128,0,75808:0:0:0:0:
64,192,75808,1,0,0:0:0:0:
320,192,76172,128,0,76536:0:0:0:0:
192,192,76536,128,0,76899:0:0:0:0:
64,192,76899,128,0,77263:0:0:0:0:
320,192,77263,128,0,77626:0:0:0:0:
448,192,77626,1,0,0:0:0:0:
192,192,77626,1,0,0:0:0:0:
64,192,77990,1,0,0:0:0:0:
320,192,78354,1,0,0:0:0:0:
192,192,78717,1,0,0:0:0:0:
448,192,79081,128,0,79445:0:0:0:0:
192,192,79445,128,0,79808:0:0:0:0:
320,192,79808,128,0,80172:0:0:0:0:
64,192,80172,128,0,80536:0:0:0:0:
448,192,80536,1,0,0:0:0:0:
320,192,80536,1,0,0:0:0:0:
192,192,80899,1,0,0:0:0:0:
320,192,81263,1,0,0:0:0:0:
64,192,81626,1,0,0:0:0:0:
448,192,81990,128,0,83081:0:0:0:0:
192,192,82354,1,0,0:0:0:0:
320,192,82717,1,0,0:0:0:0:
64,192,83081,1,0,0:0:0:0:
320,192,83445,1,0,0:0:0:0:
192,192,83445,1,0,0:0:0:0:
64,192,83808,1,0,0:0:0:0:
448,192,84172,1,0,0:0:0:0:
192,192,84536,1,0,0:0:0:0:
320,192,84899,128,0,85263:0:0:0:0:
192,192,85263,128,0,85626:0:0:0:0:
64,192,85626,128,0,85990:0:0:0:0:
448,192,85990,128,0,86354:0:0:0:0:
192,192,86354,128,0,86899:0:0:0:0:
64,192,86899,1,0,0:0:0:0:
448,192,87081,128,0,88626:0:0:0:0:
192,192,87445,1,0,0:0:0:0:
64,192,87717,128,0,88626:0:0:0:0:
