osu file format v14

[General]
AudioFilename: KawaiiS.mp3
AudioLeadIn: 0
PreviewTime: 54350
Countdown: 0
SampleSet: Soft
StackLeniency: 0.4
Mode: 0
LetterboxInBreaks: 0
WidescreenStoryboard: 1

[Editor]
DistanceSpacing: 2
BeatDivisor: 4
GridSize: 4
TimelineZoom: 2.5

[Metadata]
Title:Hitorigoto -TV MIX-
TitleUnicode:ヒトリゴト -TV MIX-
Artist:ClariS
ArtistUnicode:ClariS
Creator:-NekoNya
Version:Neko Sensei
Source:エロマンガ先生
Tags:eromanga sensei ero manga eromanga-sensei eromangasensei opening tv size
BeatmapID:1296841
BeatmapSetID:610672

[Difficulty]
HPDrainRate:6
CircleSize:4
OverallDifficulty:8
ApproachRate:9
SliderMultiplier:1.6
SliderTickRate:2

[Events]
//Background and Video events
0,0,"821027.jpg",0,0
//Break Periods
//Storyboard Layer 0 (Background)
//Storyboard Layer 1 (Fail)
//Storyboard Layer 2 (Pass)
//Storyboard Layer 3 (Foreground)
//Storyboard Sound Samples

[TimingPoints]
-922,363.636363636364,4,1,1,100,1,0
168,-100,4,1,1,50,0,0
532,-66.6666666666667,4,1,1,75,0,0
896,-133.333333333333,4,1,1,60,0,0
1623,-100,4,1,1,50,0,0
1987,-66.6666666666667,4,1,1,75,0,0
2350,-133.333333333333,4,1,1,60,0,0
3078,-100,4,1,1,50,0,0
3441,-66.6666666666667,4,1,1,75,0,0
3805,-133.333333333333,4,1,1,60,0,0
4532,-100,4,1,1,50,0,0
6350,-66.6666666666667,4,1,1,75,0,0
6714,-133.333333333333,4,1,1,60,0,0
7441,-100,4,1,1,50,0,0
7805,-66.6666666666667,4,1,1,75,0,0
8168,-133.333333333333,4,1,1,60,0,0
8896,-100,4,1,1,50,0,0
9259,-66.6666666666667,4,1,1,75,0,0
9623,-133.333333333333,4,1,1,60,0,0
10350,-100,4,1,1,50,0,0
10714,-90.9090909090909,4,1,1,55,0,0
11441,-76.9230769230769,4,1,1,60,0,0
12168,-100,4,2,3,70,0,0
23805,-90.9090909090909,4,2,3,55,0,0
35441,-111.111111111111,4,2,3,60,0,0
41259,-100,4,2,3,65,0,0
54350,-83.3333333333333,4,2,2,75,0,1
87623,-83.3333333333333,4,2,2,10,0,1
87714,-83.3333333333333,4,2,2,80,0,1
87759,-83.3333333333333,4,2,2,10,0,0

[Colours]
Combo1 : 0,193,97
Combo2 : 255,15,255
Combo3 : 221,221,221
Combo4 : 234,234,0
Combo5 : 255,135,15

[HitObjects]
144,60,532,5,8,0:0:0:0:
112,272,714,1,8,0:0:0:0:
40,228,896,2,0,P|88:192|168:212,1,120.000004577637,2|2,0:0|0:0,0:0:0:0:
236,276,1441,1,0,0:0:0:0:
288,212,1623,1,2,0:0:0:0:
340,152,1805,1,0,0:0:0:0:
340,152,1987,5,8,0:0:0:0:
372,268,2168,1,8,0:0:0:0:
372,268,2350,2,0,B|392:304|400:344|400:344|412:296,1,120.000004577637,2|2,0:0|0:0,0:0:0:0:
452,240,2896,1,0,0:0:0:0:
476,164,3078,1,2,0:0:0:0:
468,84,3259,1,0,0:0:0:0:
468,84,3441,5,8,0:0:0:0:
356,44,3623,1,8,0:0:0:0:
356,44,3805,2,0,P|292:72|232:56,1,120.000004577637,2|2,0:0|0:0,0:0:0:0:
172,36,4350,1,0,0:0:0:0:
92,40,4532,1,2,0:0:0:0:
32,92,4714,1,0,0:0:0:0:
88,196,4896,6,0,B|100:252|100:252|56:352,1,160,8|2,0:0|0:0,0:0:0:0:
3,191,5441,1,0,0:0:0:0:
152,176,5623,2,0,P|132:248|76:264,2,120,8|2|0,0:0|0:0|0:0,0:0:0:0:
180,336,6350,5,8,0:0:0:0:
228,164,6532,1,8,0:0:0:0:
228,164,6714,2,0,P|236:96|220:32,1,120.000004577637,2|2,0:0|0:0,0:0:0:0:
144,24,7259,1,0,0:0:0:0:
72,64,7441,1,2,0:0:0:0:
40,136,7623,1,0,0:0:0:0:
40,136,7805,5,8,0:0:0:0:
176,236,7987,1,8,0:0:0:0:
176,236,8168,2,0,B|216:232|216:232|252:248|252:248|308:236,1,120.000004577637,2|2,0:0|0:0,0:0:0:0:
368,200,8714,1,0,0:0:0:0:
432,152,8896,1,2,0:0:0:0:
468,80,9078,1,0,0:0:0:0:
468,80,9259,5,8,0:0:0:0:
280,36,9441,1,8,0:0:0:0:
280,36,9623,2,0,P|284:88|272:160,1,120.000004577637,2|2,0:0|0:0,0:0:0:0:
216,232,10168,1,0,0:0:0:0:
152,284,10350,1,2,0:0:0:0:
76,316,10532,1,0,0:0:0:0:
152,284,10714,6,0,B|216:312|216:312|332:308,1,176.000005371094,8|0,0:0|0:0,0:0:0:0:
448,204,11259,2,0,P|468:144|452:92,1,88.000002685547,8|0,0:0|0:0,0:0:0:0:
384,148,11623,1,8,0:0:0:0:
356,248,11805,1,8,0:0:0:0:
312,74,11987,1,8,0:0:0:0:
68,48,12168,6,0,L|160:56,1,80,4|0,0:0|0:0,0:0:0:0:
240,120,12532,1,8,0:0:0:0:
128,184,12714,1,0,0:0:0:0:
244,40,12896,2,0,P|308:68|324:104,1,80
324,200,13259,1,8,0:0:0:0:
220,276,13441,6,0,P|168:272|112:292,1,80
288,344,13805,2,0,P|340:348|396:328,1,80,0|8,0:0|0:0,0:0:0:0:
420,224,14168,2,0,B|436:208|444:176|444:176|456:240|452:288,1,160
288,344,14714,1,8,0:0:0:0:
324,220,14896,1,0,3:0:0:0:
332,184,14987,1,0,3:0:0:0:
336,144,15078,6,0,P|332:96|336:56,1,80,4|0,0:0|0:0,0:0:0:0:
208,40,15441,2,0,B|176:32|176:32|92:44,1,80,8|0,0:0|0:0,0:0:0:0:
56,144,15805,1,0,0:0:0:0:
148,184,15987,1,0,0:0:0:0:
8,80,16168,1,8,0:0:0:0:
148,184,16350,6,0,B|156:212|156:212|144:288,1,80
12,344,16714,2,0,B|21:293|21:293|38:270,1,80,0|8,0:0|0:0,0:0:0:0:
168,336,17078,2,0,P|248:300|332:328,1,160
432,368,17623,1,8,0:0:0:0:
472,248,17805,1,0,3:0:0:0:
472,248,17896,1,0,3:0:0:0:
472,248,17987,6,0,L|484:152,1,80,4|0,0:0|0:0,0:0:0:0:
400,48,18350,2,0,L|388:144,1,80,8|0,0:0|0:0,0:0:0:0:
472,248,18714,1,0,0:0:0:0:
390,127,18896,1,0,0:0:0:0:
315,316,19078,1,8,0:0:0:0:
240,196,19259,6,0,P|280:176|340:188,1,80
220,300,19623,2,0,P|180:320|120:308,1,80,0|8,0:0|0:0,0:0:0:0:
44,216,19987,2,0,P|92:156|176:180,1,160
118,226,20532,1,8,0:0:0:0:
314,176,20714,1,0,3:0:0:0:
314,176,20805,1,0,3:0:0:0:
314,176,20896,6,0,L|333:81,1,80,4|0,0:0|0:0,0:0:0:0:
181,91,21259,2,0,L|162:186,1,80,8|0,0:0|0:0,0:0:0:0:
145,319,21623,1,0,0:0:0:0:
240,196,21805,1,0,0:0:0:0:
283,371,21987,1,8,0:0:0:0:
384,259,22168,6,0,P|424:241|483:255,1,80
342,245,22532,2,0,P|373:214|433:207,1,80,0|8,0:0|0:0,0:0:0:0:
309,243,22896,2,0,P|328:203|382:176,1,80
480,93,23259,2,0,L|424:92,1,40,0|0,3:0|3:0,3:0:0:0:
352,33,23441,1,8,0:0:0:0:
312,27,23532,1,0,0:0:0:0:
272,28,23623,1,2,3:0:0:0:
233,39,23714,1,2,3:0:0:0:
205,66,23805,6,0,P|163:82|98:50,1,88.000002685547,4|0,0:0|0:0,0:0:0:0:
158,5,24168,1,8,0:0:0:0:
260,148,24350,1,0,0:0:0:0:
316,87,24532,2,0,P|358:71|423:103,1,88.000002685547
491,231,24896,1,8,0:0:0:0:
361,149,25078,1,0,0:0:0:0:
264,295,25259,6,0,P|315:326|375:325,1,88.000002685547
231,191,25623,2,0,P|180:160|120:161,1,88.000002685547,8|0,0:0|0:0,0:0:0:0:
249,329,25987,2,0,P|300:360|360:359,1,88.000002685547
243,156,26350,2,0,P|192:125|132:126,1,88.000002685547,8|0,0:0|0:0,0:0:0:0:
20,224,26714,5,0,0:0:0:0:
99,299,26896,1,0,0:0:0:0:
89,123,27078,2,0,P|110:72|151:51,1,88.000002685547,8|0,0:0|0:0,0:0:0:0:
312,49,27441,1,0,0:0:0:0:
164,121,27623,1,0,0:0:0:0:
325,190,27805,2,0,B|367:201|367:201|417:193,1,88.000002685547,8|0,0:0|0:0,0:0:0:0:
483,162,28168,5,0,0:0:0:0:
325,190,28350,1,0,0:0:0:0:
363,285,28532,1,8,0:0:0:0:
421,118,28714,1,0,0:0:0:0:
423,344,28896,2,0,P|383:364|325:356,1,88.000002685547
175,301,29259,2,0,P|128:286|75:313,1,88.000002685547,8|0,0:0|0:0,0:0:0:0:
131,365,29623,5,4,0:0:0:0:
264,324,29805,1,0,0:0:0:0:
264,147,29987,2,0,P|222:135|181:150,1,88.000002685547,8|0,0:0|0:0,0:0:0:0:
92,297,30350,1,0,0:0:0:0:
92,297,30532,1,0,0:0:0:0:
15,138,30714,2,0,L|14:35,1,88.000002685547,8|0,0:0|0:0,0:0:0:0:
92,297,31078,5,0,0:0:0:0:
184,152,31259,1,0,0:0:0:0:
273,293,31441,2,0,P|327:282|384:294,1,88.000002685547,8|0,0:0|0:0,0:0:0:0:
439,315,31805,1,0,0:0:0:0:
324,363,31987,1,0,0:0:0:0:
494,251,32168,2,0,L|489:147,1,88.000002685547,8|0,0:0|0:0,0:0:0:0:
379,35,32532,5,0,0:0:0:0:
266,158,32714,2,0,P|223:173|161:154,1,88.000002685547,0|8,0:0|0:0,0:0:0:0:
104,129,33078,1,0,0:0:0:0:
213,95,33259,1,0,0:0:0:0:
185,260,33441,1,0,0:0:0:0:
266,158,33623,1,8,0:0:0:0:
104,129,33805,1,0,0:0:0:0:
144,322,33987,6,0,P|196:335|245:302,1,88.000002685547
349,209,34350,1,8,0:0:0:0:
424,276,34532,2,0,L|446:373,1,88.000002685547
356,363,34896,1,0,0:0:0:0:
226,322,35078,1,8,0:0:0:0:
349,209,35259,1,2,0:0:0:0:
190,187,35441,6,0,B|150:194|150:194|90:178|90:178|44:185,1,143.999995605469,4|0,0:0|0:0,0:0:0:0:
186,111,35987,1,0,3:0:0:0:
258,213,36168,2,0,P|254:155|159:115,1,143.999995605469,8|0,0:0|0:0,0:0:0:0:
155,315,36714,1,0,3:0:0:0:
155,315,36805,1,0,3:0:0:0:
155,315,36896,6,0,L|242:314,1,71.9999978027344,8|0,3:0|0:0,0:0:0:0:
351,370,37259,2,0,L|430:368,1,71.9999978027344,2|0,3:0|0:0,0:0:0:0:
476,241,37623,2,0,B|490:191|490:191|466:98,1,143.999995605469,8|0,0:0|0:0,0:0:0:0:
383,210,38168,1,0,3:0:0:0:
383,210,38259,1,0,3:0:0:0:
383,210,38350,6,0,P|335:225|296:213,1,71.9999978027344,2|0,3:0|0:0,0:0:0:0:
184,177,38714,2,0,P|131:174|96:194,1,71.9999978027344,8|0,3:0|0:0,0:0:0:0:
152,250,39078,1,8,0:0:0:0:
314,221,39259,1,0,0:0:0:0:
266,147,39441,1,0,0:0:0:0:
241,316,39623,1,0,3:0:0:0:
241,316,39714,1,0,3:0:0:0:
241,316,39805,6,0,B|286:326|286:326|336:321,1,71.9999978027344,8|0,3:0|3:0,3:0:0:0:
435,265,40168,1,2,3:0:0:0:
435,265,40350,2,0,P|491:261|447:303,1,143.999995605469,2|8,0:0|0:0,0:0:0:0:
337,235,40896,2,0,L|346:198,2,35.9999989013672,8|0|0,0:0|3:0|3:0,0:0:0:0:
311,323,41259,5,4,0:0:0:0:
204,214,41441,1,0,0:0:0:0:
123,343,41623,2,0,P|78:340|47:318,1,80,8|0,0:0|0:0,0:0:0:0:
130,192,41987,2,0,P|175:195|206:217,1,80
149,268,42350,1,8,0:0:0:0:
39,138,42532,1,0,0:0:0:0:
176,73,42714,6,0,B|218:61|218:61|274:71,1,80
405,179,43078,2,0,B|447:191|447:191|503:181,1,80,8|0,0:0|0:0,0:0:0:0:
330,199,43441,1,0,0:0:0:0:
482,184,43623,1,0,0:0:0:0:
386,39,43805,1,8,0:0:0:0:
405,179,43987,6,0,P|352:124|265:155,1,160,4|0,0:0|0:0,0:0:0:0:
169,248,44532,5,8,0:0:0:0:
209,324,44714,1,0,0:0:0:0:
196,164,44896,2,0,P|178:109|155:88,1,80
209,324,45259,1,8,0:0:0:0:
330,199,45441,1,0,0:0:0:0:
414,334,45623,6,0,P|458:350|512:333,1,80
459,272,45987,1,8,0:0:0:0:
314,339,46168,1,0,0:0:0:0:
405,179,46350,2,0,L|424:82,2,80,0|0|8,0:0|0:0|0:0,0:0:0:0:
269,265,46896,6,0,B|208:288|170:286|105:265,1,160,4|0,0:0|0:0,0:0:0:0:
178,121,47441,6,0,B|212:151|212:151|233:197,1,80,8|0,0:0|0:0,0:0:0:0:
112,267,47805,1,0,0:0:0:0:
77,178,47987,1,0,0:0:0:0:
136,52,48168,2,0,P|192:38|235:71,1,80,8|0,0:0|0:0,0:0:0:0:
330,119,48532,6,0,P|381:97|323:98,1,160,0|8,0:0|0:0,0:0:0:0:
296,257,49078,2,0,B|336:272|336:272|385:272,1,80
433,218,49441,1,0,0:0:0:0:
349,354,49623,1,8,0:0:0:0:
215,265,49805,6,0,B|175:250|175:250|126:250,1,80,4|0,0:0|0:0,0:0:0:0:
159,327,50168,1,0,0:0:0:0:
241,189,50350,1,8,0:0:0:0:
95,122,50532,1,0,0:0:0:0:
95,122,50714,2,0,P|137:84|247:95,1,160,0|8,0:0|0:0,0:0:0:0:
350,198,51259,1,0,0:0:0:0:
486,114,51441,6,0,L|501:22,1,80,8|0,0:0|0:0,0:0:0:0:
401,49,51805,1,8,0:0:0:0:
350,198,51987,1,0,0:0:0:0:
235,87,52168,1,8,0:0:0:0:
326,108,52350,1,0,0:0:0:0:
237,241,52532,2,0,L|278:286,3,40,8|0|0|0,0:0|0:0|0:0|0:0,0:0:0:0:
85,172,52896,6,0,L|95:128,1,40,8|0,3:0|0:0,0:0:0:0:
174,123,53078,2,0,L|164:167,1,40,8|0,3:0|0:0,0:0:0:0:
237,241,53259,1,0,0:0:0:0:
237,241,53441,2,0,P|352:266|283:137,1,320,4|2,0:0|0:0,0:0:0:0:
132,88,54350,6,0,P|120:136|136:192,1,95.9999970703126,4|0,0:0|0:0,0:0:0:0:
296,280,54714,1,8,0:0:0:0:
228,100,54896,1,0,0:0:0:0:
180,288,55078,2,0,P|116:300|72:280,1,95.9999970703126
244,208,55441,2,8,P|308:196|352:216,1,95.9999970703126,8|0,0:0|0:0,0:0:0:0:
400,328,55805,5,2,0:0:0:0:
180,288,55987,1,0,0:0:0:0:
272,100,56168,1,8,0:0:0:0:
296,280,56350,1,0,0:0:0:0:
448,160,56532,1,2,0:0:0:0:
244,208,56714,1,0,0:0:0:0:
448,284,56896,1,8,0:0:0:0:
344,56,57078,1,2,3:0:0:0:
168,136,57259,6,0,L|64:132,1,95.9999970703126,4|0,0:0|0:0,0:0:0:0:
120,40,57623,1,8,0:0:0:0:
212,208,57805,1,0,0:0:0:0:
20,228,57987,1,0,0:0:0:0:
216,68,58168,1,0,0:0:0:0:
120,272,58350,1,8,0:0:0:0:
24,44,58532,1,0,0:0:0:0:
68,336,58714,6,0,P|116:352|176:332,1,95.9999970703126,2|0,0:0|0:0,0:0:0:0:
272,184,59078,1,8,0:0:0:0:
292,372,59259,1,0,0:0:0:0:
168,136,59441,1,0,0:0:0:0:
159,342,59623,1,0,0:0:0:0:
344,248,59805,1,8,0:0:0:0:
104,200,59987,1,2,3:0:0:0:
104,200,60168,6,0,B|108:152|108:152|80:76,1,95.9999970703126,4|0,0:0|0:0,0:0:0:0:
40,36,60532,1,8,0:0:0:0:
52,280,60714,1,0,0:0:0:0:
224,196,60896,2,0,B|268:176|268:176|328:180,1,95.9999970703126
464,300,61259,1,8,0:0:0:0:
272,328,61441,2,0,L|160:312,1,95.9999970703126,0|2,0:0|0:0,0:0:0:0:
144,124,61805,5,0,0:0:0:0:
176,314,61987,1,8,0:0:0:0:
348,244,62168,1,0,0:0:0:0:
156,52,62350,2,0,P|88:72|72:120,1,95.9999970703126
32,280,62714,2,0,P|100:260|116:212,1,95.9999970703126,8|2,0:0|3:0,0:0:0:0:
156,52,63078,5,4,0:0:0:0:
200,292,63259,1,0,0:0:0:0:
48,172,63441,1,8,0:0:0:0:
232,120,63623,1,2,3:0:0:0:
128,356,63805,1,2,0:0:0:0:
124,164,63987,1,0,0:0:0:0:
32,280,64168,1,8,0:0:0:0:
224,292,64350,1,0,0:0:0:0:
160,84,64532,5,2,0:0:0:0:
120,304,64714,1,0,0:0:0:0:
292,220,64896,1,10,0:0:0:0:
108,172,65078,1,2,3:0:0:0:
340,96,65259,1,2,0:0:0:0:
216,336,65441,1,2,0:0:0:0:
176,72,65623,1,10,0:0:0:0:
316,332,65805,1,2,0:0:0:0:
456,52,65987,6,0,P|396:56|348:44,1,95.9999970703126,4|0,0:0|0:0,0:0:0:0:
212,172,66350,1,8,0:0:0:0:
396,232,66532,1,0,0:0:0:0:
256,32,66714,1,0,0:0:0:0:
304,264,66896,1,0,0:0:0:0:
361,48,67078,1,8,0:0:0:0:
212,172,67259,1,2,3:0:0:0:
440,312,67441,6,0,P|480:280|468:208,1,95.9999970703126,2|0,0:0|0:0,0:0:0:0:
344,104,67805,1,8,0:0:0:0:
284,344,67987,2,0,P|331:362|388:316,1,95.9999970703126,0|2,0:0|0:0,0:0:0:0:
276,180,68350,1,0,0:0:0:0:
144,352,68532,1,8,0:0:0:0:
184,68,68714,1,2,3:0:0:0:
76,228,68896,6,0,P|68:296|48:348,1,95.9999970703126,4|0,0:0|0:0,0:0:0:0:
28,132,69259,1,8,0:0:0:0:
152,280,69441,1,0,0:0:0:0:
184,68,69623,1,0,0:0:0:0:
152,280,69805,1,0,0:0:0:0:
28,132,69987,1,8,0:0:0:0:
240,236,70168,1,0,0:0:0:0:
360,84,70350,6,0,P|320:56|264:52,1,95.9999970703126,2|0,0:0|0:0,0:0:0:0:
240,236,70714,1,8,0:0:0:0:
372,60,70896,2,0,P|332:32|276:28,1,95.9999970703126
112,152,71259,1,0,0:0:0:0:
216,316,71441,1,8,0:0:0:0:
274,50,71623,1,2,3:0:0:0:
380,208,71805,6,0,L|388:304,1,95.9999970703126,4|0,0:0|0:0,0:0:0:0:
296,352,72168,1,8,0:0:0:0:
300,160,72350,1,0,0:0:0:0:
484,216,72532,1,0,0:0:0:0:
248,272,72714,1,0,0:0:0:0:
480,308,72896,1,8,0:0:0:0:
480,116,73078,2,0,P|424:104|352:128,1,95.9999970703126,0|2,0:0|0:0,0:0:0:0:
248,272,73441,5,0,0:0:0:0:
120,128,73623,2,0,L|136:32,1,95.9999970703126,8|0,0:0|0:0,0:0:0:0:
40,248,73987,2,0,L|40:128,1,95.9999970703126
136,340,74350,2,0,L|128:232,1,95.9999970703126,8|2,0:0|3:0,0:0:0:0:
192,168,74714,5,4,0:0:0:0:
328,95,74896,1,0,0:0:0:0:
400,231,75078,1,8,0:0:0:0:
264,303,75259,1,0,0:0:0:0:
205,145,75441,1,8,0:0:0:0:
357,127,75623,1,0,0:0:0:0:
376,280,75805,1,8,0:0:0:0:
223,298,75987,1,0,0:0:0:0:
332,48,76168,6,0,B|384:36|424:76,1,95.9999970703126,10|0,0:0|0:0,0:0:0:0:
452,264,76532,1,8,0:0:0:0:
357,127,76714,1,0,0:0:0:0:
288,332,76896,1,8,0:0:0:0:
380,216,77078,1,0,0:0:0:0:
164,244,77259,1,8,0:0:0:0:
304,252,77441,1,2,3:0:0:0:
92,280,77623,6,0,P|84:232|116:180,1,95.9999970703126,4|0,0:0|0:0,0:0:0:0:
276,100,77987,2,0,P|242:66|195:58,1,95.9999970703126,8|0,0:0|0:0,0:0:0:0:
264,296,78350,2,0,P|310:287|344:254,1,95.9999970703126,8|0,0:0|0:0,0:0:0:0:
388,68,78714,1,8,0:0:0:0:
276,216,78896,1,0,0:0:0:0:
128,92,79078,5,10,0:0:0:0:
264,296,79259,1,0,0:0:0:0:
396,156,79441,1,8,0:0:0:0:
264,296,79623,1,0,0:0:0:0:
468,156,79805,2,0,P|439:99|388:82,1,95.9999970703126,8|0,0:0|0:0,0:0:0:0:
368,312,80168,2,0,P|424:283|441:232,1,95.9999970703126,8|2,0:0|3:0,0:0:0:0:
276,216,80532,6,0,B|212:220|212:220|152:248|152:248|68:256,1,191.999994140625,4|8,0:0|0:0,0:0:0:0:
180,84,81078,1,0,0:0:0:0:
252,304,81259,1,0,0:0:0:0:
284,136,81441,1,0,0:0:0:0:
120,160,81623,1,8,0:0:0:0:
252,304,81805,1,0,0:0:0:0:
396,180,81987,6,0,B|408:128|392:80|392:84,1,95.9999970703126
416,212,82350,2,0,P|440:152|440:108,1,95.9999970703126,8|0,0:0|0:0,0:0:0:0:
424,252,82714,2,0,P|480:196|492:156,1,95.9999970703126
416,300,83078,2,0,P|475:284|511:249,1,95.9999970703126,8|0,0:0|0:0,0:0:0:0:
248,208,83441,6,0,P|196:240|284:260,1,191.999994140625,2|8,0:0|0:0,0:0:0:0:
228,92,83987,1,0,0:0:0:0:
112,244,84168,2,0,B|96:288|96:288|104:344,1,95.9999970703126
72,144,84532,2,0,B|88:100|88:100|80:44,1,95.9999970703126,8|0,0:0|0:0,0:0:0:0:
16,232,84896,5,8,0:0:0:0:
184,140,85078,1,0,0:0:0:0:
24,248,85259,1,8,0:0:0:0:
216,228,85441,1,0,0:0:0:0:
28,264,85623,1,8,0:0:0:0:
212,320,85805,1,0,0:0:0:0:
264,160,85987,2,0,P|204:144|148:176,1,95.9999970703126,8|0,0:0|0:0,0:0:0:0:
316,280,86350,6,0,B|304:180|304:180|316:80,1,191.999994140625,4|0,0:0|0:0,0:0:0:0:
385,322,86896,1,0,0:0:0:0:
236,304,87078,2,0,P|312:364|392:308,1,191.999994140625,2|0,0:0|0:0,0:0:0:0:
456,168,87623,2,0,L|456:128,4,23.9999992675781,0|0|4|0|0,0:0|0:0|0:0|0:0|0:0,0:0:0:0:
