osu file format v14

[General]
AudioFilename: KawaiiS.mp3
AudioLeadIn: 0
PreviewTime: 54350
Countdown: 0
SampleSet: Normal
StackLeniency: 0.5
Mode: 0
LetterboxInBreaks: 0
WidescreenStoryboard: 1

[Editor]
DistanceSpacing: 1.2
BeatDivisor: 4
GridSize: 4
TimelineZoom: 2.1

[Metadata]
Title:Hitorigoto -TV MIX-
TitleUnicode:ヒトリゴト -TV MIX-
Artist:ClariS
ArtistUnicode:ClariS
Creator:-NekoNya
Version:Hard
Source:エロマンガ先生
Tags:eromanga sensei ero manga eromanga-sensei eromangasensei opening tv size
BeatmapID:1293890
BeatmapSetID:610672

[Difficulty]
HPDrainRate:6
CircleSize:3.8
OverallDifficulty:5
ApproachRate:7
SliderMultiplier:1.4
SliderTickRate:2

[Events]
//Background and Video events
0,0,"821027.jpg",0,0
//Break Periods
//Storyboard Layer 0 (Background)
//Storyboard Layer 1 (Fail)
//Storyboard Layer 2 (Pass)
//Storyboard Layer 3 (Foreground)
//Storyboard Sound Samples

[TimingPoints]
-922,363.636363636364,4,1,1,100,1,0
168,-133.333333333333,4,1,1,30,0,0
532,-100,4,1,1,60,0,0
1441,-133.333333333333,4,1,1,30,0,0
1987,-100,4,1,1,60,0,0
2896,-125,4,1,1,40,0,0
3441,-100,4,1,1,60,0,0
4350,-117.647058823529,4,1,1,45,0,0
4896,-100,4,2,1,60,0,0
7259,-117.647058823529,4,2,1,60,0,0
7805,-100,4,2,1,60,0,0
8714,-117.647058823529,4,2,1,60,0,0
9259,-100,4,2,1,60,0,0
10168,-117.647058823529,4,2,1,60,0,0
10714,-105.263157894737,4,2,1,60,0,0
12168,-90.9090909090909,4,1,1,70,0,0
23805,-100,4,2,1,60,0,0
35441,-117.647058823529,4,2,1,50,0,0
41259,-105.263157894737,4,2,1,50,0,0
54350,-90.9090909090909,4,1,2,70,0,1
86350,-133.333333333333,4,1,2,70,0,1
87078,-200,4,1,2,70,0,1
87623,-200,4,1,1,60,0,0

[Colours]
Combo1 : 0,193,97
Combo2 : 255,15,255
Combo3 : 221,221,221
Combo4 : 234,234,0
Combo5 : 255,135,15

[HitObjects]
84,136,168,6,0,P|140:108|168:112,1,78.7500030040742
196,124,532,1,8,0:0:0:0:
268,84,714,1,8,0:0:0:0:
268,84,1441,2,0,P|344:104|396:72,1,131.25000500679
412,48,1987,5,8,0:0:0:0:
464,112,2168,1,8,0:0:0:0:
464,112,2896,2,0,L|432:264,1,140
424,288,3441,5,8,0:0:0:0:
348,256,3623,1,8,0:0:0:0:
348,256,4350,2,0,P|276:232|200:272,1,148.750002837181
188,292,4896,6,0,P|104:256|112:212,1,140,4|0,0:0|0:0,0:0:0:0:
140,148,5441,1,0,0:0:0:0:
136,64,5623,2,0,P|128:20|108:0,2,70
136,64,6168,1,0,0:0:0:0:
216,84,6350,5,8,0:0:0:0:
288,40,6532,1,8,0:0:0:0:
288,40,7259,2,0,P|340:72|432:52,1,148.750002837181
452,28,7805,5,8,0:0:0:0:
484,104,7987,1,8,0:0:0:0:
484,104,8714,2,0,P|452:152|436:252,1,148.750002837181
440,284,9259,5,8,0:0:0:0:
356,288,9441,1,8,0:0:0:0:
356,288,10168,2,0,B|304:320|304:320|204:308,1,148.750002837181
184,288,10714,6,0,P|148:236|100:220,2,99.7499973363877,4|0|0,0:0|0:0|0:0,0:0:0:0:
104,300,11441,2,0,P|64:288|40:248,1,66.4999982242585,8|0,0:0|0:0,0:0:0:0:
44,192,11805,2,0,B|52:144|52:144|44:112,1,66.4999982242585,8|0,0:0|0:0,0:0:0:0:
92,44,12168,6,0,P|132:56|200:44,1,77.0000023498536,4|0,0:0|0:0,0:0:0:0:
256,32,12532,2,0,P|300:28|340:40,1,77.0000023498536,8|0,0:0|0:0,0:0:0:0:
331,36,12896,1,0,0:0:0:0:
408,84,13078,1,0,0:0:0:0:
408,84,13259,1,8,0:0:0:0:
408,84,13441,2,0,P|400:128|416:168,1,77.0000023498536
460,236,13805,2,0,P|456:300|360:344,2,154.000004699707
368,252,14714,1,0,0:0:0:0:
292,304,14896,1,0,0:0:0:0:
292,304,14987,1,0,0:0:0:0:
292,304,15078,6,0,P|224:304|196:312,1,77.0000023498536
140,356,15441,2,0,P|88:360|48:344,1,77.0000023498536,8|0,0:0|0:0,0:0:0:0:
32,268,15805,1,0,0:0:0:0:
72,184,15987,2,0,P|88:132|80:88,1,77.0000023498536,0|8,0:0|0:0,0:0:0:0:
52,24,16350,2,0,P|132:12|208:64,2,154.000004699707
86,110,17259,2,0,P|86:148|72:184,1,77.0000023498536
32,268,17623,1,8,0:0:0:0:
84,344,17805,1,0,0:0:0:0:
84,344,17896,1,0,0:0:0:0:
84,344,17987,6,0,P|140:348|172:340,1,77.0000023498536,4|0,0:0|0:0,0:0:0:0:
236,292,18350,2,0,L|236:204,1,77.0000023498536,8|0,0:0|0:0,0:0:0:0:
316,172,18714,2,0,L|316:260,1,77.0000023498536
400,292,19078,1,8,0:0:0:0:
476,244,19259,2,0,P|492:196|476:140,1,77.0000023498536
412,116,19623,2,0,P|396:164|412:220,1,77.0000023498536,0|8,0:0|0:0,0:0:0:0:
476,244,19987,2,0,P|492:196|476:140,1,77.0000023498536
412,116,20350,2,0,P|396:164|412:220,1,77.0000023498536,0|8,0:0|0:0,0:0:0:0:
344,264,20714,1,0,0:0:0:0:
344,264,20805,1,0,0:0:0:0:
344,264,20896,6,0,P|288:248|248:248,1,77.0000023498536,4|0,0:0|0:0,0:0:0:0:
180,268,21259,2,0,P|120:256|96:236,1,77.0000023498536,8|0,0:0|0:0,0:0:0:0:
104,156,21623,2,0,P|104:104|88:64,2,77.0000023498536,0|0|8,0:0|0:0|0:0,0:0:0:0:
28,104,22168,2,0,P|40:28|128:16,1,154.000004699707
188,52,22714,1,8,0:0:0:0:
276,28,22896,2,0,L|376:40,1,77.0000023498536
412,108,23259,2,0,L|312:120,1,77.0000023498536,0|8,0:0|0:0,0:0:0:0:
272,184,23623,1,0,0:0:0:0:
272,184,23714,1,0,0:0:0:0:
272,184,23805,6,0,P|296:224|304:260,1,70,4|0,0:0|0:0,0:0:0:0:
276,324,24168,2,0,P|230:335|193:332,1,70,8|0,0:0|0:0,0:0:0:0:
180,256,24532,2,0,P|136:284|128:320,1,70
136,384,24896,2,0,P|96:380|60:344,1,70,8|0,0:0|0:0,0:0:0:0:
40,288,25259,5,0,0:0:0:0:
40,288,25441,1,0,0:0:0:0:
84,216,25623,2,0,P|80:160|12:116,2,140,8|0|8,0:0|0:0|0:0,0:0:0:0:
0,204,26532,1,0,0:0:0:0:
14,116,26714,6,0,L|30:36,1,70
108,28,27078,1,8,0:0:0:0:
108,28,27259,1,0,0:0:0:0:
160,92,27441,2,0,P|216:100|244:92,1,70
308,68,27805,2,0,P|356:56|396:64,1,70,8|0,0:0|0:0,0:0:0:0:
444,108,28168,5,0,0:0:0:0:
444,108,28350,1,0,0:0:0:0:
384,168,28532,1,8,0:0:0:0:
428,240,28714,2,0,P|452:296|416:372,2,140,0|2|0,0:0|0:0|0:0,0:0:0:0:
368,300,29623,6,0,L|288:308,1,70,4|0,0:0|0:0,0:0:0:0:
220,276,29987,1,8,0:0:0:0:
220,276,30168,1,0,0:0:0:0:
164,340,30350,2,0,P|208:360|252:352,1,70
220,276,30714,2,0,P|176:256|132:264,1,70,8|0,0:0|0:0,0:0:0:0:
88,308,31078,6,0,P|72:272|76:220,1,70
137,190,31441,2,0,P|153:226|149:278,1,70,8|0,0:0|0:0,0:0:0:0:
70,241,31805,2,0,P|52:176|4:116,1,140,0|8,0:0|0:0,0:0:0:0:
8,119,32714,1,0,0:0:0:0:
8,119,32896,1,8,0:0:0:0:
72,68,33078,2,0,L|164:76,1,70
216,116,33441,2,0,L|300:124,1,70,0|8,0:0|0:0,0:0:0:0:
360,160,33805,1,0,0:0:0:0:
424,104,33987,6,0,P|444:172|400:236,1,140,0|8,0:0|0:0,0:0:0:0:
336,268,34532,2,0,P|288:264|220:304,1,105
212,320,34896,2,0,L|128:324,2,70,0|8|0,0:0|0:0|0:0,0:0:0:0:
140,324,35441,1,4,0:0:0:0:
96,140,35805,6,0,P|144:152|196:132,1,89.2500017023087
216,112,36168,2,0,P|272:88|344:108,2,119.000002269745,8|0|0,0:0|0:0|0:0,0:0:0:0:
280,176,37078,1,0,0:0:0:0:
368,180,37259,2,0,L|456:180,1,59.5000011348725
480,256,37623,2,0,B|500:312|500:312|488:388,1,119.000002269745,8|0,0:0|0:0,0:0:0:0:
412,324,38168,6,0,P|364:308|280:324,1,119.000002269745
212,348,38714,2,0,P|144:352|88:324,2,119.000002269745,0|8|0,0:0|0:0|0:0,0:0:0:0:
228,260,39623,1,0,0:0:0:0:
184,184,39805,6,0,B|144:160|144:160|72:148,1,119.000002269745,2|0,0:0|0:0,0:0:0:0:
128,76,40350,2,0,P|180:84|264:56,1,119.000002269745,2|0,0:0|0:0,0:0:0:0:
312,8,40896,2,0,P|336:68|316:124,1,119.000002269745,2|4,0:0|0:0,0:0:0:0:
292,192,41441,1,0,0:0:0:0:
356,240,41623,2,0,L|428:260,1,66.4999982242585,8|0,0:0|0:0,0:0:0:0:
492,224,41987,2,0,P|496:280|440:336,1,132.999996448517,0|8,0:0|0:0,0:0:0:0:
368,352,42532,1,0,0:0:0:0:
292,328,42714,6,0,B|224:308|224:348|148:324,1,132.999996448517,0|8,0:0|0:0,0:0:0:0:
184,252,43259,1,0,0:0:0:0:
108,224,43441,1,0,0:0:0:0:
108,224,43623,1,0,0:0:0:0:
108,224,43805,1,8,0:0:0:0:
120,144,43987,2,0,P|104:68|140:24,1,132.999996448517,2|0,0:0|0:0,0:0:0:0:
180,92,44532,2,0,L|252:100,1,66.4999982242585,8|0,0:0|0:0,0:0:0:0:
292,164,44896,2,0,P|348:132|420:164,1,132.999996448517,0|8,0:0|0:0,0:0:0:0:
356,212,45441,1,0,0:0:0:0:
420,260,45623,6,0,P|364:292|292:260,1,132.999996448517,0|8,0:0|0:0,0:0:0:0:
240,224,46168,1,0,0:0:0:0:
180,276,46350,2,0,P|128:284|104:296,2,66.4999982242585,0|0|8,0:0|0:0|0:0,0:0:0:0:
180,276,46896,1,2,0:0:0:0:
76,60,47441,2,0,P|136:72|160:64,1,66.4999982242585,8|0,0:0|0:0,0:0:0:0:
212,40,47805,2,0,P|260:36|356:64,1,132.999996448517,0|8,0:0|0:0,0:0:0:0:
368,132,48350,1,0,0:0:0:0:
308,184,48532,6,0,P|304:276|320:340,1,132.999996448517,0|8,0:0|0:0,0:0:0:0:
388,344,49078,1,0,0:0:0:0:
448,292,49259,2,0,P|408:256|384:252,1,66.4999982242585
316,264,49623,1,8,0:0:0:0:
244,232,49805,2,0,L|96:236,1,132.999996448517,2|0,0:0|0:0,0:0:0:0:
76,164,50350,2,0,P|76:120|100:88,1,66.4999982242585,8|0,0:0|0:0,0:0:0:0:
152,56,50714,2,0,L|304:56,1,132.999996448517,2|8,0:0|0:0,0:0:0:0:
328,124,51259,1,0,0:0:0:0:
340,204,51441,6,0,P|372:264|356:344,2,132.999996448517,0|8|0,0:0|0:0|0:0,0:0:0:0:
188,252,52532,1,8,0:0:0:0:
256,192,52623,12,0,53987,0:0:0:0:
84,264,54350,6,0,P|112:220|116:184,1,77.0000023498536,4|0,0:0|0:0,0:0:0:0:
124,104,54714,1,8,0:0:0:0:
176,28,54896,2,0,L|256:32,1,77.0000023498536
320,96,55259,1,0,0:0:0:0:
392,40,55441,2,0,L|476:44,1,77.0000023498536,8|0,0:0|0:0,0:0:0:0:
436,132,55805,6,0,P|416:176|420:228,1,77.0000023498536,2|0,0:0|0:0,0:0:0:0:
452,288,56168,1,8,0:0:0:0:
400,364,56350,2,0,P|328:368|240:348,1,154.000004699707
176,296,56896,1,8,0:0:0:0:
260,260,57078,2,0,P|252:196|224:156,1,77.0000023498536,0|4,0:0|0:0,0:0:0:0:
184,120,57441,5,0,3:0:0:0:
184,120,57532,1,0,3:0:0:0:
184,120,57623,1,8,0:0:0:0:
236,44,57805,2,0,P|280:32|324:44,1,77.0000023498536
396,72,58168,2,0,P|456:80|488:64,1,77.0000023498536,0|8,0:0|0:0,0:0:0:0:
470,74,58532,1,0,0:0:0:0:
480,168,58714,6,0,P|492:260|476:328,1,154.000004699707,2|8,0:0|0:0,0:0:0:0:
392,296,59259,1,0,0:0:0:0:
392,296,59441,2,0,P|328:300|272:332,1,115.50000352478
256,360,59805,2,0,L|172:344,1,77.0000023498536,8|0,0:0|0:0,0:0:0:0:
104,296,60168,5,4,0:0:0:0:
184,252,60350,1,0,0:0:0:0:
180,345,60532,1,8,0:0:0:0:
104,296,60714,1,0,0:0:0:0:
184,252,60896,1,0,0:0:0:0:
104,204,61078,1,0,0:0:0:0:
104,204,61259,1,8,0:0:0:0:
104,204,61441,6,0,P|104:136|192:80,1,154.000004699707
256,104,61987,2,0,L|336:104,1,77.0000023498536,8|0,0:0|0:0,0:0:0:0:
404,44,62350,2,0,P|428:96|380:184,1,154.000004699707,0|8,0:0|0:0,0:0:0:0:
264,316,63078,6,0,L|352:332,1,77.0000023498536,6|0,0:0|0:0,0:0:0:0:
404,264,63441,2,0,L|312:248,1,77.0000023498536,8|0,0:0|0:0,0:0:0:0:
236,244,63805,1,2,0:0:0:0:
236,244,63987,1,0,0:0:0:0:
160,296,64168,2,0,P|144:248|152:208,1,77.0000023498536,8|0,0:0|0:0,0:0:0:0:
184,136,64532,6,0,P|180:92|156:56,3,77.0000023498536,2|0|10|0,0:0|0:0|0:0|0:0,0:0:0:0:
92,120,65259,1,2,0:0:0:0:
64,208,65441,2,2,L|76:296,1,77.0000023498536,2|10,0:0|0:0,0:0:0:0:
74,284,65805,1,2,0:0:0:0:
148,336,65987,6,0,P|220:320|320:344,1,154.000004699707,4|8,0:0|0:0,0:0:0:0:
388,360,66532,2,0,L|388:276,2,77.0000023498536
468,312,67078,1,8,0:0:0:0:
468,312,67259,1,0,0:0:0:0:
468,312,67441,6,0,P|472:256|400:196,1,154.000004699707,2|8,0:0|0:0,0:0:0:0:
312,180,67987,2,0,P|324:140|360:112,1,77.0000023498536
424,60,68350,1,0,0:0:0:0:
424,60,68532,1,8,0:0:0:0:
424,60,68714,1,0,0:0:0:0:
240,52,69078,6,0,L|160:48,1,77.0000023498536,0|8,0:0|0:0,0:0:0:0:
84,96,69441,1,0,0:0:0:0:
128,176,69623,2,0,P|132:228|120:256,1,77.0000023498536
56,316,69987,2,0,P|96:344|136:336,1,77.0000023498536,8|0,0:0|0:0,0:0:0:0:
208,304,70350,6,0,P|256:288|352:336,1,154.000004699707,2|8,0:0|0:0,0:0:0:0:
436,360,70896,2,0,P|432:292|432:188,1,154.000004699707
464,120,71441,1,8,0:0:0:0:
431,206,71623,1,0,0:0:0:0:
320,60,71987,6,0,P|360:40|416:60,1,77.0000023498536,0|8,0:0|0:0,0:0:0:0:
372,136,72350,2,0,P|332:156|276:136,1,77.0000023498536
224,104,72714,1,0,0:0:0:0:
224,104,72896,1,8,0:0:0:0:
176,24,73078,2,0,P|132:88|164:172,1,154.000004699707
188,244,73623,2,0,L|160:324,1,77.0000023498536,8|0,0:0|0:0,0:0:0:0:
256,308,73987,2,0,P|304:292|416:328,1,154.000004699707,0|8,0:0|0:0,0:0:0:0:
440,136,74714,6,0,P|384:104|276:124,1,154.000004699707,4|8,0:0|0:0,0:0:0:0:
224,168,75259,1,0,0:0:0:0:
132,148,75441,2,0,P|80:88|52:-8,1,154.000004699707,0|8,0:0|0:0,0:0:0:0:
148,28,75987,1,0,0:0:0:0:
148,28,76168,6,0,P|204:44|244:36,1,77.0000023498536,2|0,0:0|0:0,0:0:0:0:
312,24,76532,2,0,L|396:24,1,77.0000023498536,8|0,0:0|0:0,0:0:0:0:
436,104,76896,2,0,L|344:104,1,77.0000023498536
412,180,77259,2,0,L|316:180,1,77.0000023498536,8|0,0:0|0:0,0:0:0:0:
244,172,77623,6,0,P|264:244|356:268,1,154.000004699707,4|8,0:0|0:0,0:0:0:0:
396,340,78168,1,0,0:0:0:0:
316,384,78350,2,0,B|288:368|288:368|232:368,1,77.0000023498536
188,296,78714,2,0,B|160:312|160:312|104:312,1,77.0000023498536,8|0,0:0|0:0,0:0:0:0:
52,244,79078,5,2,0:0:0:0:
52,244,79259,1,0,0:0:0:0:
104,168,79441,2,0,P|108:104|96:76,1,77.0000023498536,8|0,0:0|0:0,0:0:0:0:
168,28,79805,1,0,0:0:0:0:
168,28,79987,1,0,0:0:0:0:
240,84,80168,2,0,P|284:96|328:72,1,77.0000023498536,8|0,0:0|0:0,0:0:0:0:
384,24,80532,6,0,P|436:104|444:188,1,154.000004699707,4|8,0:0|0:0,0:0:0:0:
436,252,81078,1,0,0:0:0:0:
360,308,81259,2,0,P|296:300|192:320,1,154.000004699707,0|8,0:0|0:0,0:0:0:0:
120,348,81805,2,0,P|96:320|136:212,1,154.000004699707
208,176,82350,2,0,P|208:120|192:88,1,77.0000023498536,8|0,0:0|0:0,0:0:0:0:
284,60,82714,2,0,P|284:116|300:148,1,77.0000023498536
376,96,83078,1,8,0:0:0:0:
376,96,83259,1,0,0:0:0:0:
432,168,83441,6,0,L|448:352,1,154.000004699707,2|8,0:0|0:0,0:0:0:0:
364,368,83987,1,0,0:0:0:0:
288,316,84168,2,0,P|216:288|136:340,1,154.000004699707,0|8,0:0|0:0,0:0:0:0:
68,364,84714,1,0,0:0:0:0:
36,276,84896,6,0,L|24:192,1,77.0000023498536,4|0,0:0|0:0,0:0:0:0:
64,116,85259,1,8,0:0:0:0:
64,116,85441,1,0,0:0:0:0:
152,140,85623,2,0,P|204:128|228:104,1,77.0000023498536
252,28,85987,2,0,P|296:12|336:20,1,77.0000023498536,8|0,0:0|0:0,0:0:0:0:
404,64,86350,6,0,P|432:128|388:216,1,157.500006008148,4|0,0:0|0:0,0:0:0:0:
312,200,87078,2,0,P|240:216|208:252,1,122.5,2|0,0:0|0:0,0:0:0:0:
