osu file format v14

[General]
AudioFilename: KawaiiS.mp3
AudioLeadIn: 0
PreviewTime: 54350
Countdown: 0
SampleSet: None
StackLeniency: 0.4
Mode: 0
LetterboxInBreaks: 0
WidescreenStoryboard: 1

[Editor]
Bookmarks: 1441,1623,2896,7259,9441,11714,12532,13987,16350,19259,22168,26896,32714,35441,35805,37623,38350,57259,60168
DistanceSpacing: 1.5
BeatDivisor: 4
GridSize: 4
TimelineZoom: 2.5

[Metadata]
Title:Hitorigoto -TV MIX-
TitleUnicode:ヒトリゴト -TV MIX-
Artist:ClariS
ArtistUnicode:ClariS
Creator:-NekoNya
Version:DAISUKI IMOUTO MANGA
Source:エロマンガ先生
Tags:eromanga sensei ero manga eromanga-sensei eromangasensei opening tv size
BeatmapID:1303288
BeatmapSetID:610672

[Difficulty]
HPDrainRate:6
CircleSize:4
OverallDifficulty:8
ApproachRate:9
SliderMultiplier:1.6
SliderTickRate:2

[Events]
//Background and Video events
0,0,"821027.jpg",0,0
//Break Periods
//Storyboard Layer 0 (Background)
//Storyboard Layer 1 (Fail)
//Storyboard Layer 2 (Pass)
//Storyboard Layer 3 (Foreground)
//Storyboard Sound Samples

[TimingPoints]
-922,363.636363636364,4,1,1,100,1,0
168,-100,4,1,1,50,0,0
532,-66.6666666666667,4,1,1,75,0,0
896,-133.333333333333,4,1,1,60,0,0
1987,-66.6666666666667,4,1,1,75,0,0
2350,-133.333333333333,4,1,1,60,0,0
3441,-66.6666666666667,4,1,1,75,0,0
3805,-133.333333333333,4,1,1,60,0,0
6350,-66.6666666666667,4,1,1,75,0,0
6714,-133.333333333333,4,1,1,60,0,0
7441,-100,4,1,1,50,0,0
7805,-66.6666666666667,4,1,1,75,0,0
8168,-133.333333333333,4,1,1,60,0,0
8896,-100,4,1,1,50,0,0
9259,-66.6666666666667,4,1,1,75,0,0
9623,-133.333333333333,4,1,1,60,0,0
10350,-100,4,1,1,50,0,0
10714,-90.9090909090909,4,1,1,55,0,0
11441,-76.9230769230769,4,1,1,60,0,0
12168,-90.9090909090909,4,2,3,70,0,0
13987,-90.9090909090909,4,1,8,70,0,0
14078,-90.9090909090909,4,2,3,5,0,0
14168,-90.9090909090909,4,2,3,70,0,0
23805,-100,4,2,3,55,0,0
35441,-111.111111111111,4,2,3,60,0,0
37623,-111.111111111111,4,1,8,60,0,0
37805,-111.111111111111,4,2,3,60,0,0
41259,-100,4,2,3,65,0,0
54350,-83.3333333333333,4,2,2,75,0,1
60168,-83.3333333333333,4,1,7,75,0,1
60350,-83.3333333333333,4,2,2,75,0,1
87623,-83.3333333333333,4,2,2,10,0,1
87714,-83.3333333333333,4,2,2,80,0,1
87759,-83.3333333333333,4,2,2,10,0,0

[Colours]
Combo1 : 0,193,97
Combo2 : 255,15,255
Combo3 : 221,221,221
Combo4 : 234,234,0
Combo5 : 255,135,15

[HitObjects]
64,124,168,6,0,P|88:96|180:112,1,120
128,160,532,1,0,0:0:0:0:
288,168,714,1,0,0:0:0:0:
288,168,896,2,0,P|320:204|324:264,1,90.0000034332277
280,312,1259,2,0,P|232:320|179:293,1,90.0000034332277
160,236,1623,2,0,P|172:189|220:153,1,90.0000034332277
244,236,1987,5,0,0:0:0:0:
308,56,2168,1,0,0:0:0:0:
308,56,2350,2,0,P|364:72|436:52,2,120.000004577637
240,16,3259,1,0,0:0:0:0:
240,16,3441,5,0,0:0:0:0:
64,124,3623,1,0,0:0:0:0:
112,184,3805,2,0,P|120:220|116:264,1,60.0000022888184
60,292,4168,2,0,P|100:264|180:260,1,120.000004577637
236,300,4714,1,0,0:0:0:0:
316,208,4896,6,0,B|320:156|320:156|328:132|328:132|328:68,1,120.000004577637
408,116,5441,2,0,B|408:158|408:158|400:182|400:182|396:234,1,120.000004577637
372,316,5987,2,0,P|328:308|292:316,1,60.0000022888184
200,360,6350,5,0,0:0:0:0:
120,212,6532,1,0,0:0:0:0:
120,212,6714,2,0,P|120:148|108:100,1,90.0000034332277
68,64,7078,2,0,P|128:88|176:84,1,90.0000034332277
228,52,7441,2,0,P|292:48|332:108,1,120
328,164,7805,5,0,0:0:0:0:
468,72,7987,1,0,0:0:0:0:
440,152,8168,2,0,P|436:181|438:211,1,60.0000022888184
496,272,8532,2,0,P|448:244|376:252,1,120.000004577637
296,316,9078,1,0,0:0:0:0:
296,316,9259,5,0,0:0:0:0:
184,192,9441,1,0,0:0:0:0:
244,132,9623,2,0,P|292:120|320:120,1,60.0000022888184
381,139,9987,2,0,P|429:151|457:151,1,60.0000022888184
392,48,10350,1,0,0:0:0:0:
392,48,10532,1,0,0:0:0:0:
228,20,10714,6,0,P|240:112|216:228,1,176.000005371094
148,288,11259,1,0,0:0:0:0:
280,348,11441,2,0,P|332:316|428:312,1,155.999992858887
464,372,11805,2,0,P|448:304|460:232,1,103.999995239258
472,108,12168,5,4,0:0:0:0:
388,44,12350,1,0,0:0:0:0:
256,92,12532,2,0,P|192:100|160:88,1,88.000002685547,8|0,0:0|0:0,0:0:0:0:
80,36,12896,1,0,0:0:0:0:
212,24,13078,1,0,0:0:0:0:
72,120,13259,1,8,0:0:0:0:
132,208,13441,6,0,P|144:260|132:312,1,88.000002685547
56,364,13805,2,0,P|108:328|196:332,1,132.00000402832
260,360,14168,2,0,B|260:304|260:304|272:240|272:240|272:180,1,176.000005371094
308,88,14714,1,8,0:0:0:0:
392,204,14896,1,0,0:0:0:0:
392,204,14987,1,0,0:0:0:0:
392,204,15078,6,0,L|392:324,1,88.000002685547,4|0,0:0|0:0,0:0:0:0:
260,360,15441,1,8,0:0:0:0:
364,384,15623,1,0,0:0:0:0:
316,240,15805,1,0,0:0:0:0:
428,356,15987,1,0,0:0:0:0:
256,284,16168,1,8,0:0:0:0:
324,160,16350,6,0,P|360:128|420:128,1,88.000002685547
488,176,16714,2,0,P|464:134|476:75,1,88.000002685547,0|8,0:0|0:0,0:0:0:0:
336,28,17078,2,0,P|276:16|164:60,1,176.000005371094
108,140,17623,1,8,0:0:0:0:
184,264,17805,1,0,0:0:0:0:
184,264,17896,1,0,0:0:0:0:
184,264,17987,6,0,P|240:248|288:252,1,88.000002685547,4|0,0:0|0:0,0:0:0:0:
356,312,18350,1,8,0:0:0:0:
356,312,18532,1,0,0:0:0:0:
452,224,18714,2,0,L|464:132,1,88.000002685547
428,52,19078,1,8,0:0:0:0:
320,112,19259,6,0,P|272:112|228:96,1,88.000002685547
88,32,19623,2,0,P|136:32|180:48,1,88.000002685547,0|8,0:0|0:0,0:0:0:0:
196,204,19987,2,0,P|140:224|192:184,1,176.000005371094
272,240,20532,1,8,0:0:0:0:
356,136,20714,1,0,0:0:0:0:
356,136,20805,1,0,0:0:0:0:
356,136,20896,6,0,B|364:184|364:184|356:232,1,88.000002685547,4|0,0:0|0:0,0:0:0:0:
428,300,21259,2,0,B|421:261|421:261|429:213,1,88.000002685547,8|0,0:0|0:0,0:0:0:0:
496,128,21623,1,0,0:0:0:0:
420,12,21805,1,0,0:0:0:0:
356,136,21987,1,8,0:0:0:0:
236,52,22168,6,0,P|192:44|64:84,1,176.000005371094
48,184,22714,1,8,0:0:0:0:
128,280,22896,2,0,P|172:264|232:272,1,88.000002685547
284,344,23259,2,0,P|327:345|368:329,1,88.000002685547,0|8,0:0|0:0,0:0:0:0:
428,240,23623,1,0,0:0:0:0:
428,240,23714,1,0,0:0:0:0:
428,240,23805,6,0,B|417:193|417:193|424:152,1,80,4|0,0:0|0:0,0:0:0:0:
448,24,24168,1,8,0:0:0:0:
352,32,24350,1,0,0:0:0:0:
272,84,24532,2,0,P|224:96|188:92,1,80
100,48,24896,1,8,0:0:0:0:
164,188,25078,1,0,0:0:0:0:
116,272,25259,6,0,P|100:320|104:360,1,80
216,332,25623,2,0,P|232:284|228:244,1,80,8|0,0:0|0:0,0:0:0:0:
80,276,25987,2,0,P|64:324|68:364,1,80
252,328,26350,2,0,P|268:280|264:240,1,80,8|0,0:0|0:0,0:0:0:0:
192,192,26714,6,0,P|264:212|356:180,1,160,4|8,0:0|0:0,0:0:0:0:
420,128,27259,1,0,0:0:0:0:
376,268,27441,1,0,0:0:0:0:
332,96,27623,1,0,0:0:0:0:
192,192,27805,1,8,0:0:0:0:
192,192,27987,1,0,0:0:0:0:
152,68,28168,6,0,P|208:48|240:56,1,80
332,96,28532,1,8,0:0:0:0:
264,224,28714,2,0,L|260:312,1,80
332,368,29078,1,0,0:0:0:0:
356,232,29259,1,8,0:0:0:0:
200,176,29441,1,0,0:0:0:0:
200,176,29623,6,0,B|160:180|160:180|120:168,1,80,4|0,0:0|0:0,0:0:0:0:
28,68,29987,1,8,0:0:0:0:
48,144,30168,1,0,0:0:0:0:
64,224,30350,2,0,P|72:272|52:324,1,80
8,380,30714,1,8,0:0:0:0:
164,328,30896,1,0,0:0:0:0:
256,360,31078,6,0,P|304:368|356:348,1,80
432,248,31441,2,0,P|384:240|332:260,1,80,8|0,0:0|0:0,0:0:0:0:
256,360,31805,1,0,0:0:0:0:
392,312,31987,1,0,0:0:0:0:
472,368,32168,1,8,0:0:0:0:
480,200,32350,1,0,0:0:0:0:
354,247,32532,5,4,0:0:0:0:
208,184,32714,2,0,B|168:180|168:180|116:184,1,80,0|8,0:0|0:0,0:0:0:0:
20,264,33078,1,0,0:0:0:0:
104,340,33259,1,0,0:0:0:0:
40,172,33441,1,0,0:0:0:0:
208,184,33623,1,8,0:0:0:0:
20,264,33805,1,0,0:0:0:0:
192,324,33987,6,0,B|236:316|236:316|292:328,1,80
348,380,34350,1,8,0:0:0:0:
468,296,34532,2,0,L|476:200,1,80
448,124,34896,1,0,0:0:0:0:
468,296,35078,1,8,0:0:0:0:
340,216,35259,1,0,0:0:0:0:
340,216,35441,6,0,B|300:224|300:224|260:224,1,71.9999978027344,4|0,0:0|0:0,0:0:0:0:
136,156,35805,1,2,0:0:0:0:
104,236,35987,1,0,0:0:0:0:
72,96,36168,2,0,P|140:68|208:108,1,143.999995605469,8|2,0:0|0:0,0:0:0:0:
268,224,36714,1,0,0:0:0:0:
456,160,36896,6,0,P|484:88|440:20,1,143.999995605469,2|2,0:0|0:0,0:0:0:0:
267,95,37441,2,0,P|238:159|267:223,1,143.999995605469
380,312,37987,1,2,0:0:0:0:
384,188,38168,6,0,B|352:164|352:164|304:160,1,71.9999978027344,0|2,0:0|0:0,0:0:0:0:
267,223,38532,1,0,0:0:0:0:
144,152,38714,2,0,B|108:148|108:148|64:160,1,71.9999978027344
32,280,39078,1,8,0:0:0:0:
32,280,39259,1,0,0:0:0:0:
144,336,39441,2,0,P|188:344|236:324,1,71.9999978027344
324,260,39805,6,0,P|348:236|324:268,1,143.999995605469,2|0,0:0|0:0,0:0:0:0:
180,272,40350,1,0,0:0:0:0:
244,168,40532,2,0,P|272:148|324:144,2,47.9999985351563,8|2|0,3:0|3:0|3:0,3:0:0:0:
152,192,40896,2,0,P|124:212|72:216,2,47.9999985351563,8|2|0,3:0|3:0|3:0,3:0:0:0:
248,80,41259,6,0,P|308:72|344:100,1,80,4|0,0:0|0:0,0:0:0:0:
428,172,41623,1,8,0:0:0:0:
284,143,41805,1,0,0:0:0:0:
352,256,41987,2,0,P|360:300|352:352,1,80
228,360,42350,1,8,0:0:0:0:
352,256,42532,1,0,0:0:0:0:
228,192,42714,6,0,P|188:204|124:180,1,80
76,52,43078,1,8,0:0:0:0:
184,128,43259,1,0,0:0:0:0:
292,28,43441,1,0,0:0:0:0:
348,108,43623,2,0,P|360:152|352:196,1,80,0|8,0:0|0:0,0:0:0:0:
276,240,43987,6,0,P|324:204|424:212,1,160,4|0,0:0|0:0,0:0:0:0:
484,320,44532,1,8,0:0:0:0:
419,209,44714,1,0,0:0:0:0:
352,324,44896,2,0,P|304:336|256:328,1,80
152,252,45259,1,8,0:0:0:0:
276,240,45441,1,0,0:0:0:0:
112,192,45623,6,0,P|84:224|84:280,1,80
276,240,45987,2,0,P|304:208|304:152,1,80,8|0,0:0|0:0,0:0:0:0:
272,36,46350,1,0,0:0:0:0:
228,172,46532,1,0,0:0:0:0:
180,32,46714,1,8,0:0:0:0:
56,112,46896,6,0,P|128:136|200:100,1,160,4|0,0:0|0:0,0:0:0:0:
320,32,47441,2,0,B|360:24|360:24|416:32,1,80,8|0,0:0|0:0,0:0:0:0:
480,144,47805,1,0,0:0:0:0:
364,104,47987,1,0,0:0:0:0:
324,192,48168,2,0,P|312:240|320:292,1,80,8|0,0:0|0:0,0:0:0:0:
388,332,48532,6,0,P|336:292|224:300,1,160,0|8,0:0|0:0,0:0:0:0:
112,364,49078,1,0,0:0:0:0:
112,228,49259,1,0,0:0:0:0:
200,372,49441,1,0,0:0:0:0:
64,296,49623,1,8,0:0:0:0:
188,184,49805,6,0,P|160:152|96:148,1,80,0|4,0:0|0:0,0:0:0:0:
28,156,50168,1,0,0:0:0:0:
112,228,50350,1,8,0:0:0:0:
248,124,50532,1,0,0:0:0:0:
248,124,50714,2,0,P|304:100|428:104,1,160,0|8,0:0|0:0,0:0:0:0:
472,212,51259,1,0,0:0:0:0:
348,280,51441,6,0,B|312:292|312:292|252:280,1,80
189,231,51805,2,0,B|153:219|153:219|93:231,1,80,8|0,0:0|0:0,0:0:0:0:
36,320,52168,1,0,0:0:0:0:
20,224,52350,1,0,0:0:0:0:
64,84,52532,2,0,P|112:56|160:64,1,80,8|0,0:0|0:0,0:0:0:0:
256,132,52896,5,2,0:0:0:0:
352,56,53078,1,2,0:0:0:0:
276,8,53259,1,8,0:0:0:0:
344,144,53441,2,0,P|356:188|352:248,1,80,4|0,0:0|0:0,0:0:0:0:
328,312,53805,1,2,0:0:0:0:
216,252,53987,2,8,L|176:300,3,40
104,340,54350,6,0,P|112:280|96:216,1,95.9999970703126,4|0,0:0|0:0,0:0:0:0:
56,140,54714,1,8,0:0:0:0:
172,44,54896,1,0,0:0:0:0:
148,176,55078,1,0,0:0:0:0:
92,32,55259,1,0,0:0:0:0:
228,124,55441,2,0,P|280:136|344:124,1,95.9999970703126,8|0,0:0|0:0,0:0:0:0:
420,68,55805,5,2,0:0:0:0:
360,224,55987,1,0,0:0:0:0:
460,168,56168,1,8,0:0:0:0:
321,131,56350,1,0,0:0:0:0:
488,96,56532,1,2,0:0:0:0:
336,56,56714,1,0,0:0:0:0:
360,224,56896,1,8,0:0:0:0:
264,292,57078,2,0,P|208:304|160:288,1,95.9999970703126,0|4,0:0|0:0,0:0:0:0:
171,294,57441,5,0,0:0:0:0:
88,208,57623,1,8,0:0:0:0:
40,312,57805,1,0,0:0:0:0:
176,200,57987,2,0,P|184:152|172:96,1,95.9999970703126
72,60,58350,1,8,0:0:0:0:
232,16,58532,1,0,0:0:0:0:
284,108,58714,6,0,B|332:112|332:112|384:92,1,95.9999970703126,2|0,0:0|0:0,0:0:0:0:
460,8,59078,1,8,0:0:0:0:
348,24,59259,1,0,0:0:0:0:
456,140,59441,1,0,0:0:0:0:
388,232,59623,2,0,P|372:280|396:348,1,95.9999970703126,0|8,0:0|0:0,0:0:0:0:
484,380,59987,6,0,P|400:328|300:336,1,191.999994140625
200,368,60532,1,8,0:0:0:0:
164,208,60714,1,0,0:0:0:0:
252,296,60896,1,0,0:0:0:0:
80,352,61078,1,0,0:0:0:0:
200,368,61259,1,8,0:0:0:0:
72,264,61441,6,0,P|64:176|84:132,1,95.9999970703126,0|2,0:0|0:0,0:0:0:0:
124,72,61805,1,0,0:0:0:0:
4,128,61987,1,8,0:0:0:0:
60,4,62168,1,0,0:0:0:0:
192,108,62350,2,0,P|284:144|376:72,1,191.999994140625,0|8,0:0|0:0,0:0:0:0:
359,101,63078,5,4,0:0:0:0:
396,260,63259,1,0,0:0:0:0:
320,348,63441,2,0,P|276:368|216:352,1,95.9999970703126,8|0,0:0|0:0,0:0:0:0:
144,228,63805,1,2,0:0:0:0:
132,344,63987,1,0,0:0:0:0:
208,184,64168,2,0,P|164:152|96:168,1,95.9999970703126,8|0,0:0|0:0,0:0:0:0:
20,204,64532,5,2,0:0:0:0:
88,36,64714,1,0,0:0:0:0:
124,152,64896,1,10,0:0:0:0:
8,80,65078,1,0,0:0:0:0:
20,204,65259,1,2,0:0:0:0:
160,80,65441,1,2,0:0:0:0:
112,224,65623,1,10,0:0:0:0:
88,36,65805,1,2,0:0:0:0:
268,40,65987,5,4,0:0:0:0:
268,40,66168,2,0,L|288:160,1,95.9999970703126,0|8,0:0|0:0,0:0:0:0:
360,256,66532,1,0,0:0:0:0:
492,200,66714,2,0,P|464:140|408:120,1,95.9999970703126,8|0,0:0|0:0,0:0:0:0:
283,134,67078,1,8,0:0:0:0:
416,200,67259,1,0,0:0:0:0:
252,284,67441,6,0,P|200:296|148:292,1,95.9999970703126,10|0,0:0|0:0,0:0:0:0:
36,216,67805,1,8,0:0:0:0:
120,100,67987,2,0,P|140:140|128:200,1,95.9999970703126,0|10,0:0|0:0,0:0:0:0:
52,308,68350,1,0,0:0:0:0:
157,293,68532,1,8,0:0:0:0:
220,164,68714,6,0,B|268:144|268:144|332:152,1,95.9999970703126,0|4,0:0|0:0,0:0:0:0:
311,149,69078,1,0,0:0:0:0:
400,264,69259,1,8,0:0:0:0:
400,84,69441,1,0,0:0:0:0:
480,204,69623,1,8,0:0:0:0:
480,204,69805,1,0,0:0:0:0:
380,344,69987,2,0,P|308:356|268:340,1,95.9999970703126,8|0,0:0|0:0,0:0:0:0:
172,264,70350,5,10,0:0:0:0:
328,276,70532,1,0,0:0:0:0:
156,360,70714,1,8,0:0:0:0:
260,228,70896,2,0,P|264:164|256:112,1,95.9999970703126,0|10,0:0|0:0,0:0:0:0:
176,16,71259,1,0,0:0:0:0:
316,44,71441,1,8,0:0:0:0:
148,128,71623,2,0,B|100:136|100:136|48:124,1,95.9999970703126,0|4,0:0|0:0,0:0:0:0:
53,125,71987,5,0,0:0:0:0:
176,16,72168,1,8,0:0:0:0:
148,128,72350,1,0,0:0:0:0:
252,228,72532,2,0,L|244:328,1,95.9999970703126
92,300,72896,1,8,0:0:0:0:
196,168,73078,2,0,P|232:148|304:172,1,95.9999970703126,0|2,0:0|0:0,0:0:0:0:
380,220,73441,5,0,0:0:0:0:
244,323,73623,1,8,0:0:0:0:
284,155,73805,1,0,0:0:0:0:
368,308,73987,2,0,P|444:280|448:164,1,191.999994140625,0|8,0:0|0:0,0:0:0:0:
457,179,74714,5,4,0:0:0:0:
392,84,74896,1,0,0:0:0:0:
288,136,75078,2,0,P|248:148|176:124,1,95.9999970703126,8|0,0:0|0:0,0:0:0:0:
116,56,75441,1,0,0:0:0:0:
116,56,75623,1,0,0:0:0:0:
240,72,75805,1,8,0:0:0:0:
140,216,75987,1,0,0:0:0:0:
232,284,76168,6,0,P|288:300|344:288,1,95.9999970703126
388,196,76532,2,0,P|332:180|276:192,1,95.9999970703126,8|0,0:0|0:0,0:0:0:0:
232,284,76896,1,0,0:0:0:0:
232,284,77078,1,0,0:0:0:0:
136,172,77259,2,0,L|132:44,1,95.9999970703126,8|0,0:0|0:0,0:0:0:0:
44,4,77623,6,0,L|48:220,1,191.999994140625,4|8,0:0|0:0,0:0:0:0:
116,288,78168,1,0,0:0:0:0:
228,260,78350,2,0,P|296:256|336:280,1,95.9999970703126
388,360,78714,1,8,0:0:0:0:
416,196,78896,1,0,0:0:0:0:
348,104,79078,6,0,P|288:88|224:120,1,95.9999970703126
156,152,79441,2,0,P|96:168|32:136,1,95.9999970703126,8|0,0:0|0:0,0:0:0:0:
104,44,79805,1,0,0:0:0:0:
104,44,79987,1,0,0:0:0:0:
256,96,80168,2,0,L|260:212,1,95.9999970703126,8|0,0:0|0:0,0:0:0:0:
316,292,80532,6,0,P|364:336|328:280,1,191.999994140625,4|8,0:0|0:0,0:0:0:0:
224,332,81078,1,0,0:0:0:0:
120,288,81259,2,0,P|52:280|8:304,1,95.9999970703126
148,376,81623,1,8,0:0:0:0:
164,188,81805,1,0,0:0:0:0:
248,112,81987,6,0,P|296:104|348:124,1,95.9999970703126
420,204,82350,2,0,P|372:212|320:192,1,95.9999970703126,8|0,0:0|0:0,0:0:0:0:
248,112,82714,1,0,0:0:0:0:
248,112,82896,1,0,0:0:0:0:
144,228,83078,2,0,P|144:284|136:328,1,95.9999970703126,8|0,0:0|0:0,0:0:0:0:
36,192,83441,6,0,P|56:112|176:68,1,191.999994140625,4|8,0:0|0:0,0:0:0:0:
244,128,83987,1,0,0:0:0:0:
384,52,84168,2,0,P|444:44|492:68,1,95.9999970703126
352,164,84532,1,8,0:0:0:0:
304,28,84714,1,0,0:0:0:0:
424,164,84896,6,0,P|412:212|360:236,1,95.9999970703126
248,240,85259,1,8,0:0:0:0:
352,164,85441,1,0,0:0:0:0:
192,136,85623,1,0,0:0:0:0:
192,136,85805,1,0,0:0:0:0:
200,304,85987,2,0,P|264:316|312:292,1,95.9999970703126,8|0,0:0|0:0,0:0:0:0:
152,228,86350,6,0,P|84:232|152:240,1,191.999994140625,4|0,0:0|0:0,0:0:0:0:
248,240,86896,1,0,0:0:0:0:
300,128,87078,2,0,P|336:80|464:132,1,191.999994140625,2|0,0:0|0:0,0:0:0:0:
424,228,87623,6,0,B|420:268,4,23.9999992675781,0|0|4|0|0,0:0|0:0|0:0|0:0|0:0,0:0:0:0:
