osu file format v14

[General]
AudioFilename: audio.mp3
AudioLeadIn: 0
PreviewTime: 54361
Countdown: 0
SampleSet: Soft
StackLeniency: 0.3
Mode: 0
LetterboxInBreaks: 0
WidescreenStoryboard: 1

[Editor]
DistanceSpacing: 1.3
BeatDivisor: 4
GridSize: 4
TimelineZoom: 1.7

[Metadata]
Title:Hitorigoto -TV MIX-
TitleUnicode:ヒトリゴト -TV MIX-
Artist:ClariS
ArtistUnicode:ClariS
Creator:[C u r i]
Version:Kalibe's Hard
Source:エロマンガ先生
Tags:Akitoshi Kalibe captin1 Ero Manga Sensei 和泉紗霧 Izumi Sagiri 和泉正宗 Masamune op Opening TV Size
BeatmapID:1262523
BeatmapSetID:596910

[Difficulty]
HPDrainRate:5
CircleSize:3.8
OverallDifficulty:6
ApproachRate:7.5
SliderMultiplier:1.4
SliderTickRate:1

[Events]
//Background and Video events
0,0,"279e4633.jpg",0,0
Video,-369,"eromanga movie.avi"
//Break Periods
//Storyboard Layer 0 (Background)
//Storyboard Layer 1 (Fail)
//Storyboard Layer 2 (Pass)
//Storyboard Layer 3 (Foreground)
//Storyboard Sound Samples

[TimingPoints]
543,363.636363636364,4,2,2,70,1,0
1906,-100,4,2,2,5,0,0
1997,-100,4,2,2,70,0,0
3361,-100,4,2,2,5,0,0
3452,-100,4,2,2,70,0,0
4816,-100,4,2,2,5,0,0
4906,-100,4,2,2,70,0,0
7725,-100,4,2,2,5,0,0
7816,-100,4,2,2,70,0,0
9179,-100,4,2,2,5,0,0
9270,-100,4,2,2,70,0,0
10634,-100,4,2,2,5,0,0
10725,-100,4,2,2,60,0,0
12179,-100,4,2,2,65,0,0
12452,-100,4,2,2,5,0,0
12543,-100,4,2,2,65,0,0
23816,-111.111111111111,4,2,2,55,0,0
29088,-111.111111111111,4,2,2,65,0,0
29634,-111.111111111111,4,2,2,55,0,0
34906,-111.111111111111,4,2,2,65,0,0
35452,-125,4,2,2,50,0,0
41270,-111.111111111111,4,2,2,60,0,0
52906,-111.111111111111,4,2,2,65,0,0
53997,-99.9999999999999,4,2,2,65,0,0
54270,-99.9999999999999,4,2,2,5,0,0
54361,-90.9090909090909,4,2,2,75,0,1
74270,-90.9090909090909,4,2,2,5,0,1
74361,-90.9090909090909,4,2,2,75,0,1
87724,-90.9090909090909,4,2,2,65,0,0

[Colours]
Combo1 : 255,255,38
Combo2 : 208,208,208
Combo3 : 255,117,186
Combo4 : 119,255,119

[HitObjects]
80,364,543,5,8,0:0:0:0:
80,364,725,1,8,0:0:0:0:
16,300,906,2,0,P|87:311|172:332,1,140,0|0,0:0|0:0,0:0:0:0:
228,274,1452,2,0,P|253:271|308:262,2,70,2|0|0,0:1|0:0|0:0,0:0:0:0:
147,230,1997,5,8,0:0:0:0:
147,230,2179,1,8,0:0:0:0:
208,162,2361,2,0,P|271:139|331:182,1,140,0|0,0:0|0:0,0:0:0:0:
379,251,2906,2,0,P|367:298|359:326,2,70,2|0|0,0:1|0:0|0:0,0:0:0:0:
434,178,3452,5,8,0:0:0:0:
434,178,3634,1,8,0:0:0:0:
473,96,3816,2,0,P|480:171|488:247,1,140,0|0,0:0|0:0,0:0:0:0:
511,322,4361,2,0,P|463:306|430:298,1,70,2|0,0:1|0:0,0:0:0:0:
358,335,4725,1,0,0:0:0:0:
284,282,4906,6,0,B|222:259|210:309|146:277,1,140,12|0,0:0|0:0,0:0:0:0:
101,198,5452,1,2,0:0:0:0:
35,260,5633,2,0,P|45:306|56:361,2,93.3333333333333,8|8|8,0:0|0:3|0:0,0:0:0:0:
40,141,6361,5,8,0:0:0:0:
40,141,6543,1,8,0:0:0:0:
113,87,6725,2,0,P|179:75|257:60,1,140,0|0,0:0|0:0,0:0:0:0:
332,21,7270,2,0,P|367:28|402:37,1,70,2|0,0:1|0:0,0:0:0:0:
477,86,7634,1,0,0:0:0:0:
396,129,7816,5,8,0:0:0:0:
396,129,7997,1,8,0:0:0:0:
446,204,8179,2,0,P|381:164|322:178,1,140,0|0,0:0|0:0,0:0:0:0:
248,231,8725,2,0,L|177:217,1,70,2|0,0:1|0:0,0:0:0:0:
104,165,9088,1,0,0:0:0:0:
62,246,9270,5,8,0:0:0:0:
62,246,9452,1,8,0:0:0:0:
112,321,9634,2,0,P|163:339|241:304,1,140,0|0,0:0|0:0,0:0:0:0:
320,265,10179,2,0,P|361:277|393:287,2,70,2|0|0,0:1|0:0|0:0,0:0:0:0:
243,215,10725,6,0,P|214:152|234:87,1,140,12|0,0:0|0:0,0:0:0:0:
312,39,11270,1,0,0:0:0:0:
312,39,11452,2,0,P|352:46|412:56,2,93.3333333333333,10|8|2,0:0|0:0|0:0,0:0:0:0:
208,102,12179,6,0,B|138:128|138:80|72:101,1,140,4|8,0:0|0:0,0:0:0:0:
9,168,12725,1,0,0:0:0:0:
62,240,12906,2,0,P|105:215|132:212,1,70,2|0,0:0|0:0,0:0:0:0:
207,249,13270,1,8,0:0:0:0:
168,331,13452,6,0,B|117:343|82:353|82:353|35:325,1,140,2|2,0:0|0:0,0:0:0:0:
62,240,13997,1,8,3:0:0:0:
141,195,14179,2,0,L|219:211,1,70,2|0,0:0|3:0,0:0:0:0:
264,304,14543,2,0,L|332:289,1,70,2|8,0:1|0:3,0:0:0:0:
403,233,14906,1,2,0:0:0:0:
408,336,15088,6,0,P|420:300|420:264,1,70,4|0,0:0|0:0,0:0:0:0:
332,208,15452,2,0,P|320:172|320:136,1,70,8|0,0:0|0:0,0:0:0:0:
352,55,15815,2,0,P|388:43|424:43,1,70,2|0,0:0|0:0,0:0:0:0:
501,109,16178,1,8,0:0:0:0:
460,191,16361,6,0,P|378:180|329:210,1,140,2|2,0:0|0:0,0:0:0:0:
292,290,16906,1,8,3:0:0:0:
224,228,17088,2,0,P|171:238|150:242,1,70,2|0,0:0|3:0,0:0:0:0:
100,336,17452,2,0,P|65:329|31:322,1,70,2|8,0:0|0:0,0:0:0:0:
116,252,17816,1,8,3:0:0:0:
40,202,17997,6,0,P|17:158|44:71,1,140,4|8,0:0|0:0,0:0:0:0:
106,11,18543,1,0,0:0:0:0:
174,71,18725,2,0,L|151:151,1,70,2|0,0:0|0:0,0:0:0:0:
75,183,19088,1,8,0:0:0:0:
130,255,19270,6,0,B|190:284|206:229|269:259,1,140,2|2,0:0|0:0,0:0:0:0:
330,321,19816,1,8,3:0:0:0:
409,277,19997,2,0,B|417:248|417:248|403:210,1,70,2|0,0:0|3:0,0:0:0:0:
324,164,20361,2,0,B|316:135|316:135|330:97,1,70,2|8,0:0|3:0,0:0:0:0:
396,34,20725,1,2,0:0:0:0:
396,34,20906,6,0,P|307:46|229:57,1,140,4|8,0:0|0:0,0:0:0:0:
204,127,21452,1,2,0:0:0:0:
128,76,21634,2,0,P|134:44|147:-2,2,70,0|2|8,3:0|0:0|0:0,0:0:0:0:
83,155,22179,6,0,P|140:113|206:128,1,140,2|2,0:0|0:0,0:0:0:0:
269,190,22725,1,8,3:0:0:0:
188,248,22906,2,0,L|139:236,2,35,2|0|0,0:0|0:0|3:0,0:0:0:0:
280,304,23270,2,0,L|320:298,2,35,2|0|0,0:0|0:0|1:0,0:0:0:0:
208,360,23634,1,2,1:2:0:0:
208,360,23816,6,0,P|158:367|92:325,2,125.999996154785,4|8|0,0:0|0:0|3:0,0:0:0:0:
280,304,24725,1,2,0:0:0:0:
362,334,24906,2,0,L|426:324,1,62.9999980773926,8|2,0:0|0:0,0:0:0:0:
427,235,25270,6,0,L|295:254,2,125.999996154785,0|8|0,0:0|0:0|3:0,0:0:0:0:
499,184,26179,1,2,0:0:0:0:
428,130,26361,2,0,P|383:122|349:116,1,62.9999980773926,8|2,0:0|0:0,0:0:0:0:
292,168,26725,5,2,0:1:0:0:
250,90,26906,2,0,P|264:38|275:8,2,62.9999980773926,2|8|0,0:0|0:0|0:0,0:0:0:0:
186,152,27452,2,0,P|169:113|162:86,1,62.9999980773926,0|2,0:0|0:0,0:0:0:0:
98,32,27816,2,0,P|81:71|74:98,1,62.9999980773926,8|0,0:0|0:0,0:0:0:0:
10,150,28179,5,4,0:0:0:0:
10,150,28361,2,0,P|11:172|31:219,1,62.9999980773926,2|8,0:0|0:0,0:0:0:0:
85,275,28725,2,0,B|153:293|153:293|203:268,1,125.999996154785,2|2,0:0|0:0,0:0:0:0:
278,222,29270,1,8,0:0:0:0:
180,192,29452,5,8,0:3:0:0:
180,192,29543,1,8,0:3:0:0:
180,192,29634,2,0,B|232:168|240:224|308:188,1,125.999996154785,4|8,0:0|0:0,0:0:0:0:
375,143,30179,1,2,0:0:0:0:
375,143,30361,2,0,L|447:157,1,62.9999980773926,0|2,3:0|0:0,0:0:0:0:
488,82,30725,2,0,L|426:69,1,62.9999980773926,8|0,0:0|0:0,0:0:0:0:
357,15,31088,6,0,P|304:54|246:46,1,125.999996154785,0|8,3:0|0:0,0:0:0:0:
162,20,31634,1,2,0:0:0:0:
162,20,31816,2,0,P|152:52|143:86,1,62.9999980773926,0|2,3:0|0:0,0:0:0:0:
71,130,32179,2,0,P|79:160|88:190,1,62.9999980773926,8|2,0:0|0:0,0:0:0:0:
154,249,32543,5,2,0:1:0:0:
71,217,32725,1,2,0:0:0:0:
26,292,32906,2,0,P|45:333|55:362,1,62.9999980773926,8|0,0:0|0:0,0:0:0:0:
136,327,33270,2,0,P|165:338|193:352,1,62.9999980773926,0|2,3:0|0:0,0:0:0:0:
269,305,33634,2,0,P|298:293|326:279,1,62.9999980773926,8|0,0:0|0:0,0:0:0:0:
408,228,33997,5,2,0:0:0:0:
408,228,34179,2,0,L|416:165,1,62.9999980773926,0|8,3:0|0:0,0:0:0:0:
459,88,34543,2,0,P|397:120|340:102,1,125.999996154785,2|2,0:0|0:0,0:0:0:0:
277,50,35088,1,8,0:0:0:0:
200,93,35270,1,8,0:3:0:0:
200,93,35361,1,8,0:3:0:0:
200,93,35452,6,0,P|181:156|201:202,2,112,4|2|8,0:0|0:0|0:0,0:0:0:0:
331,198,36543,2,0,L|316:262,1,56,0|8,0:0|0:3,0:0:0:0:
333,335,36906,6,0,P|288:290|228:300,1,112,4|0,0:0|3:0,0:0:0:0:
175,342,37452,1,0,0:0:0:0:
175,342,37634,2,0,P|120:340|85:298,1,112,8|2,0:0|0:0,0:0:0:0:
119,221,38179,1,8,0:3:0:0:
69,152,38361,6,0,P|53:74|40:25,2,112,4|2|8,0:0|0:0|0:0,0:0:0:0:
199,257,39452,2,0,P|210:216|217:189,1,56,2|8,0:0|0:3,0:0:0:0:
273,142,39816,5,4,0:0:0:0:
288,236,39997,2,0,P|299:195|306:168,1,56,8|4,0:3|0:3,0:0:0:0:
366,126,40361,1,0,0:0:0:0:
432,192,40543,6,0,L|468:199,2,37.3333333333333,8|8|8,0:0|0:3|0:3,0:0:0:0:
412,264,40906,2,0,L|368:252,2,37.3333333333333,8|0|0,0:0|3:0|3:0,0:0:0:0:
464,320,41270,6,0,P|384:309|345:334,1,125.999996154785,4|8,0:0|0:0,0:0:0:0:
268,369,41816,1,2,0:0:0:0:
268,369,41997,2,0,P|189:353|127:340,1,125.999996154785,0|8,3:0|0:0,0:0:0:0:
86,276,42543,1,2,0:0:0:0:
86,276,42725,6,0,P|144:296|200:271,1,125.999996154785,0|8,3:0|0:0,0:0:0:0:
263,210,43270,1,0,0:0:0:0:
187,164,43452,2,0,L|111:179,1,62.9999980773926,2|0,0:0|0:0,0:0:0:0:
44,138,43816,1,8,0:0:0:0:
108,68,43997,2,0,L|169:80,1,62.9999980773926,2|0,0:0|3:0,0:0:0:0:
230,144,44361,5,2,0:0:0:0:
305,98,44543,2,0,P|318:66|322:32,1,62.9999980773926,8|2,0:0|0:0,0:0:0:0:
396,104,44906,2,0,P|406:170|416:236,1,125.999996154785,0|8,3:0|0:0,0:0:0:0:
457,306,45452,1,2,0:0:0:0:
457,306,45634,6,0,P|408:267|342:274,1,125.999996154785,0|8,3:0|0:0,0:0:0:0:
277,324,46179,1,0,0:0:0:0:
204,264,46361,2,0,L|186:191,1,62.9999980773926,2|2,0:0|0:0,0:0:0:0:
238,129,46725,1,8,0:0:0:0:
164,64,46906,2,0,P|117:57|88:52,1,62.9999980773926,10|4,0:0|0:0,0:0:0:0:
31,108,47270,5,2,0:0:0:0:
31,108,47452,2,0,P|25:137|37:175,1,62.9999980773926,8|2,0:0|0:0,0:0:0:0:
100,226,47816,2,0,L|173:209,1,62.9999980773926,0|2,3:0|0:0,0:0:0:0:
226,151,48179,1,8,0:0:0:0:
295,207,48361,1,2,0:0:0:0:
271,292,48543,6,0,P|212:317|151:290,1,125.999996154785,0|10,3:0|0:0,0:0:0:0:
100,226,49088,1,0,3:0:0:0:
164,163,49270,2,0,P|182:159|236:150,1,62.9999980773926,2|0,0:0|3:0,0:0:0:0:
295,207,49634,2,0,P|325:212|357:218,1,62.9999980773926,10|0,0:0|0:0,0:0:0:0:
448,184,49997,6,0,P|466:140|430:72,1,125.999996154785,2|8,0:1|0:0,0:0:0:0:
356,28,50543,1,2,0:0:0:0:
356,28,50725,2,0,P|310:32|282:41,1,62.9999980773926,0|2,3:0|0:0,0:0:0:0:
220,96,51088,2,0,P|188:94|157:87,1,62.9999980773926,8|2,0:0|0:0,0:0:0:0:
56,48,51452,6,0,P|72:116|92:192,1,125.999996154785,2|8,0:1|0:0,0:0:0:0:
164,210,51997,1,2,0:0:0:0:
164,210,52179,2,0,P|151:247|141:274,1,62.9999980773926,2|2,0:1|0:0,0:0:0:0:
74,326,52543,1,8,0:0:0:0:
156,372,52725,1,8,0:3:0:0:
156,372,52816,1,8,0:3:0:0:
156,372,52906,6,0,P|192:371|219:356,1,62.9999980773926,12|10,0:0|0:0,0:0:0:0:
284,300,53270,1,0,3:0:0:0:
384,332,53452,2,0,B|408:272|368:272|384:208,1,125.999996154785,12|0,0:0|0:0,0:0:0:0:
428,128,53997,6,0,P|384:156|324:136,1,105,2|0,0:0|0:0,0:0:0:0:
316,136,54361,6,0,L|296:220,1,77.0000023498536,4|2,0:0|0:0,0:0:0:0:
229,284,54725,2,0,L|209:208,1,77.0000023498536,8|2,0:0|0:0,0:0:0:0:
137,140,55088,1,8,0:0:0:0:
221,194,55270,1,0,0:0:0:0:
141,255,55452,2,0,P|90:269|61:280,1,77.0000023498536,8|0,0:0|3:0,0:0:0:0:
140,352,55816,5,10,0:0:0:0:
140,352,55997,2,0,P|191:337|220:327,1,77.0000023498536,0|8,3:0|0:0,0:0:0:0:
299,276,56361,2,0,P|356:288|384:296,1,77.0000023498536,0|2,0:0|0:0,0:0:0:0:
463,248,56724,1,0,0:0:0:0:
373,203,56906,1,8,0:0:0:0:
291,261,57088,1,0,0:0:0:0:
227,182,57270,6,0,P|215:146|207:104,1,77.0000023498536,4|0,0:0|0:0,0:0:0:0:
166,15,57634,2,0,P|202:26|240:34,1,77.0000023498536,8|0,0:0|0:0,0:0:0:0:
336,63,57997,1,8,0:0:0:0:
423,14,58179,1,0,0:0:0:0:
336,63,58361,2,0,P|323:102|330:140,1,77.0000023498536,8|4,0:0|3:0,0:0:0:0:
393,213,58725,5,2,0:0:0:0:
393,213,58906,2,0,P|350:219|308:237,1,77.0000023498536,0|8,0:0|0:0,0:0:0:0:
244,298,59270,2,0,P|164:321|105:273,1,154.000004699707,0|0,0:0|0:0,0:0:0:0:
38,213,59816,1,8,0:0:0:0:
123,161,59997,1,2,0:0:0:0:
38,213,60179,6,0,P|26:183|24:129,1,77.0000023498536,4|0,0:0|3:0,0:0:0:0:
94,67,60543,2,0,P|124:55|178:53,1,77.0000023498536,8|0,0:0|3:0,0:0:0:0:
233,128,60906,1,10,0:0:0:0:
329,106,61088,1,0,0:0:0:0:
407,168,61270,1,8,0:0:0:0:
329,106,61452,6,0,P|317:146|304:192,1,77.0000023498536,0|4,0:0|0:0,0:0:0:0:
229,244,61816,1,0,0:0:0:0:
229,244,61997,2,0,P|244:280|259:314,1,77.0000023498536,8|0,0:0|0:0,0:0:0:0:
350,358,62361,2,0,B|393:331|442:341|442:341|401:298,1,154.000004699707,8|10,0:0|0:0,0:0:0:0:
328,231,62906,1,0,0:0:0:0:
408,170,63088,6,0,L|495:193,1,77.0000023498536,6|0,0:0|0:0,0:0:0:0:
471,89,63452,2,0,L|396:69,1,77.0000023498536,8|0,0:0|0:0,0:0:0:0:
314,127,63816,2,0,B|236:162|236:100|163:128,1,154.000004699707,6|10,0:0|0:0,0:0:0:0:
95,55,64361,1,0,0:0:0:0:
24,125,64543,6,0,P|16:174|31:210,1,77.0000023498536,6|2,0:0|0:0,0:0:0:0:
110,250,64906,1,10,0:0:0:0:
38,320,65088,2,0,P|113:300|206:277,1,154.000004699707,2|10,0:0|0:0,0:0:0:0:
271,226,65634,1,10,0:0:0:0:
321,312,65816,1,10,0:0:0:0:
321,312,65906,1,0,0:0:0:0:
321,312,65997,6,0,P|367:322|403:330,1,77.0000023498536,14|0,0:0|0:0,0:0:0:0:
508,268,66361,2,0,P|470:259|432:251,1,77.0000023498536,8|2,0:0|0:0,0:0:0:0:
349,194,66725,1,8,0:0:0:0:
440,233,66906,1,0,3:0:0:0:
357,176,67088,1,8,0:0:0:0:
271,228,67270,1,0,3:0:0:0:
177,190,67452,6,0,P|149:146|182:49,1,154.000004699707,8|8,0:0|0:0,0:0:0:0:
268,16,67997,2,0,P|311:24|358:34,1,77.0000023498536,0|2,3:0|0:0,0:0:0:0:
425,89,68361,1,0,0:0:0:0:
345,150,68543,1,8,0:0:0:0:
248,121,68725,1,2,0:0:0:0:
175,53,68906,6,0,P|115:68|87:75,1,77.0000023498536,4|0,0:0|0:0,0:0:0:0:
28,142,69270,2,0,P|87:157|116:164,1,77.0000023498536,8|0,0:0|0:0,0:0:0:0:
189,212,69634,1,8,0:0:0:0:
158,306,69816,1,0,3:0:0:0:
64,273,69997,1,8,0:0:0:0:
94,178,70179,1,0,3:0:0:0:
189,212,70361,6,0,B|255:177|274:244|340:196,1,154.000004699707,2|8,0:0|0:0,0:0:0:0:
431,166,70906,2,0,P|414:214|403:246,1,77.0000023498536,0|2,3:0|0:0,0:0:0:0:
476,310,71270,1,0,0:0:0:0:
392,254,71452,1,8,0:0:0:0:
348,344,71634,1,2,0:0:0:0:
259,297,71816,6,0,P|230:300|184:318,1,77.0000023498536,4|0,0:0|0:0,0:0:0:0:
102,372,72179,2,0,P|99:343|81:297,1,77.0000023498536,8|0,0:0|0:0,0:0:0:0:
1,237,72543,1,10,0:0:0:0:
82,178,72725,1,0,3:0:0:0:
163,235,72906,1,8,0:0:0:0:
236,167,73088,1,0,3:0:0:0:
322,219,73270,6,0,P|337:164|345:131,1,77.0000023498536,4|2,0:0|0:0,0:0:0:0:
370,48,73634,2,0,P|332:57|295:67,1,77.0000023498536,8|2,0:0|0:0,0:0:0:0:
225,138,73997,2,0,B|189:117|189:117|129:160|81:129,1,154.000004699707,8|8,0:0|0:0,0:0:0:0:
9,64,74543,1,0,0:0:0:0:
84,131,74725,6,0,P|107:225|79:271,1,154.000004699707,6|8,0:0|0:0,0:0:0:0:
17,347,75270,1,0,0:0:0:0:
105,299,75452,2,0,P|157:312|197:325,1,77.0000023498536,10|0,0:0|0:0,0:0:0:0:
267,368,75816,2,0,P|319:355|359:342,1,77.0000023498536,8|0,0:0|0:0,0:0:0:0:
427,296,76179,6,0,P|342:309|293:270,2,154.000004699707,4|8|10,0:0|0:0|0:0,0:0:0:0:
502,229,77088,1,0,3:0:0:0:
502,229,77270,2,0,L|423:208,1,77.0000023498536,10|0,0:0|3:0,0:0:0:0:
501,140,77634,6,0,P|414:157|341:177,1,154.000004699707,4|8,0:0|0:0,0:0:0:0:
273,237,78179,1,2,0:0:0:0:
185,188,78361,2,0,P|171:159|171:115,1,77.0000023498536,8|0,0:0|3:0,0:0:0:0:
255,59,78725,2,0,P|270:93|268:132,1,77.0000023498536,8|0,0:0|3:0,0:0:0:0:
205,209,79088,6,0,P|108:239|57:212,1,154.000004699707,6|10,0:0|0:0,0:0:0:0:
20,309,79634,1,0,0:0:0:0:
20,309,79725,1,0,0:0:0:0:
20,309,79816,2,0,P|43:296|97:289,1,77.0000023498536,2|0,0:0|3:0,0:0:0:0:
182,245,80179,2,0,P|205:258|259:265,1,77.0000023498536,8|0,0:0|3:0,0:0:0:0:
329,333,80543,6,0,P|360:293|345:187,1,154.000004699707,6|8,0:0|0:0,0:0:0:0:
289,115,81088,1,0,0:0:0:0:
360,44,81270,2,0,L|450:61,1,77.0000023498536,2|0,0:0|3:0,0:0:0:0:
479,149,81634,2,0,L|403:134,1,77.0000023498536,8|2,0:0|0:0,0:0:0:0:
332,205,81997,6,0,L|498:240,1,154.000004699707,4|8,0:0|0:0,0:0:0:0:
412,309,82543,1,0,0:0:0:0:
331,249,82725,2,0,P|282:256|252:265,1,77.0000023498536,2|0,0:0|3:0,0:0:0:0:
177,325,83088,2,0,P|128:318|98:309,1,77.0000023498536,8|0,0:0|3:0,0:0:0:0:
19,252,83452,6,0,P|107:267|154:223,1,154.000004699707,6|10,0:0|0:0,0:0:0:0:
209,146,83997,1,0,0:0:0:0:
209,146,84179,2,0,P|187:140|118:131,1,77.0000023498536,8|2,0:0|0:0,0:0:0:0:
0,88,84543,2,0,P|38:83|75:73,1,77.0000023498536,8|2,0:0|0:0,0:0:0:0:
164,27,84906,6,0,B|244:67|232:-5|320:35,1,154.000004699707,6|8,0:0|0:0,0:0:0:0:
387,97,85452,1,0,0:0:0:0:
387,97,85634,2,0,L|366:178,1,77.0000023498536,2|0,1:2|1:3,0:0:0:0:
321,260,85997,2,0,L|332:304,3,38.5000011749268,10|8|8|8,0:0|0:0|0:0|0:0,0:0:0:0:
339,330,86361,5,6,0:0:0:0:
256,192,86452,12,8,87724,0:0:0:0:
