osu file format v14

[General]
AudioFilename: audio.mp3
AudioLeadIn: 0
PreviewTime: 54361
Countdown: 0
SampleSet: Soft
StackLeniency: 0.3
Mode: 0
LetterboxInBreaks: 0
WidescreenStoryboard: 0

[Editor]
DistanceSpacing: 0.6
BeatDivisor: 4
GridSize: 4
TimelineZoom: 1.7

[Metadata]
Title:Hitorigoto -TV MIX-
TitleUnicode:ヒトリゴト -TV MIX-
Artist:ClariS
ArtistUnicode:ClariS
Creator:[C u r i]
Version:Eroi
Source:エロマンガ先生
Tags:Akitoshi Kalibe captin1 Ero Manga Sensei 和泉紗霧 Izumi Sagiri 和泉正宗 Masamune op Opening TV Size
BeatmapID:1262049
BeatmapSetID:596910

[Difficulty]
HPDrainRate:6
CircleSize:4
OverallDifficulty:8
ApproachRate:9
SliderMultiplier:1.6
SliderTickRate:1

[Events]
//Background and Video events
0,0,"279e4633.jpg",0,0
Video,-369,"eromanga movie.avi"
//Break Periods
//Storyboard Layer 0 (Background)
//Storyboard Layer 1 (Fail)
//Storyboard Layer 2 (Pass)
//Storyboard Layer 3 (Foreground)
//Storyboard Sound Samples

[TimingPoints]
543,363.636363636364,4,2,2,70,1,0
543,-100,4,2,2,70,0,0
1906,-100,4,2,2,5,0,0
1997,-100,4,2,2,70,0,0
3361,-100,4,2,2,5,0,0
3452,-100,4,2,2,70,0,0
4816,-100,4,2,2,5,0,0
4906,-100,4,2,2,70,0,0
7725,-100,4,2,2,5,0,0
7816,-100,4,2,2,70,0,0
9179,-100,4,2,2,5,0,0
9270,-100,4,2,2,70,0,0
10634,-100,4,2,2,5,0,0
10725,-100,4,2,2,60,0,0
12179,-100,4,2,2,65,0,0
12452,-100,4,2,2,5,0,0
12543,-100,4,2,2,65,0,0
23816,-100,4,2,2,55,0,0
29088,-100,4,2,2,65,0,0
29634,-100,4,2,2,55,0,0
34906,-100,4,2,2,65,0,0
35452,-125,4,2,2,50,0,0
41270,-100,4,2,2,60,0,0
52906,-100,4,2,2,65,0,0
54361,-90.9090909090909,4,2,2,75,0,1
58543,-90.9090909090909,4,2,2,35,0,1
58724,-90.9090909090909,4,2,2,75,0,1
74270,-90.9090909090909,4,2,2,5,0,1
74361,-90.9090909090909,4,2,2,75,0,1
87724,-90.9090909090909,4,2,2,65,0,0

[Colours]
Combo1 : 255,255,38
Combo2 : 208,208,208
Combo3 : 255,117,186
Combo4 : 119,255,119

[HitObjects]
165,43,543,5,8,0:0:0:0:
148,223,725,1,8,0:0:0:0:
148,223,1452,2,0,P|237:186|313:262,1,200,2|0,0:1|0:0,0:0:0:0:
313,269,1997,5,8,0:0:0:0:
136,304,2179,1,8,0:0:0:0:
136,304,2906,2,0,P|151:181|158:91,1,200,2|0,0:1|0:0,0:0:0:0:
154,81,3452,5,8,0:0:0:0:
224,270,3634,1,8,0:0:0:0:
224,270,4361,2,0,P|150:209|62:246,1,200,2|0,0:1|0:0,0:0:0:0:
54,269,4906,5,12,0:0:0:0:
77,71,5088,2,0,L|67:173,1,80
136,304,5452,1,2,0:0:0:0:
317,338,5633,2,0,P|263:364|194:334,2,106.666666666667,8|0|0,0:0|0:0|0:0,0:0:0:0:
380,89,6361,5,8,0:0:0:0:
419,249,6543,1,8,0:0:0:0:
419,249,7270,2,0,L|368:42,1,200,2|0,0:1|0:0,0:0:0:0:
365,31,7816,5,8,0:0:0:0:
193,113,7997,1,8,0:0:0:0:
193,113,8725,2,0,P|241:108|276:234,1,200,2|0,0:1|0:0,0:0:0:0:
266,246,9270,5,8,0:0:0:0:
284,42,9452,1,8,0:0:0:0:
284,42,10179,2,0,P|185:35|89:114,1,200,2|0,0:1|0:0,0:0:0:0:
93,110,10725,5,12,0:0:0:0:
86,276,10906,2,0,L|89:189,1,80,0|2,0:0|0:0,0:0:0:0:
93,110,11270,1,0,0:0:0:0:
243,158,11452,2,0,P|204:168|150:155,1,80,10|0,0:0|0:0,0:0:0:0:
58,32,11816,1,0,1:0:0:0:
77,26,11906,1,0,1:0:0:0:
97,25,11997,1,0,1:0:0:0:
116,29,12088,1,0,1:0:0:0:
135,37,12179,6,0,P|199:55|260:16,1,120,4|0,0:0|0:0,0:0:0:0:
247,9,12543,2,0,L|238:101,1,80,8|0,0:0|0:0,0:0:0:0:
319,229,12906,2,0,L|311:149,1,80,2|0,0:0|0:0,0:0:0:0:
248,284,13270,1,8,0:0:0:0:
414,299,13452,6,0,L|404:217,1,80,2|0,0:0|3:0,0:0:0:0:
336,334,13816,2,0,L|326:254,1,80,2|8,0:0|3:0,0:0:0:0:
258,364,14179,2,0,L|248:284,1,80,2|0,0:0|3:0,0:0:0:0:
122,146,14543,2,0,P|198:152|239:87,1,160,2|2,0:1|0:0,0:0:0:0:
45,90,15088,5,4,0:0:0:0:
110,242,15270,1,0,0:0:0:0:
139,37,15452,2,0,L|129:116,1,80,8|0,0:0|0:0,0:0:0:0:
107,265,15816,1,2,0:0:0:0:
45,90,15997,1,0,0:0:0:0:
214,126,16179,1,8,0:0:0:0:
100,321,16361,6,0,L|109:241,1,80,2|0,0:0|3:0,0:0:0:0:
334,244,16725,2,0,L|260:275,1,80,2|8,0:0|3:0,0:0:0:0:
150,77,17088,2,0,L|213:125,1,80,2|0,0:0|3:0,0:0:0:0:
109,241,17452,1,2,0:0:0:0:
213,125,17634,1,8,0:0:0:0:
260,275,17816,1,8,3:0:0:0:
434,142,17997,6,0,P|387:139|340:175,1,80,4|0,0:0|0:0,0:0:0:0:
500,312,18361,2,0,L|487:216,1,80,8|0,0:0|0:0,0:0:0:0:
418,346,18725,1,2,0:0:0:0:
459,159,18906,1,0,0:0:0:0:
507,342,19088,1,8,0:0:0:0:
339,307,19270,6,0,L|239:320,1,80,2|0,0:0|3:0,0:0:0:0:
113,213,19634,2,0,L|192:223,1,80,2|8,0:0|3:0,0:0:0:0:
185,383,19997,2,0,L|172:283,1,80,2|0,0:0|3:0,0:0:0:0:
283,159,20361,2,0,L|258:322,1,160,2|2,0:0|0:0,0:0:0:0:
288,125,20906,5,4,0:0:0:0:
272,238,21088,1,0,0:0:0:0:
338,62,21270,2,0,P|294:46|255:54,1,80,8|2,0:0|0:0,0:0:0:0:
134,184,21634,1,0,3:0:0:0:
288,125,21816,1,2,0:0:0:0:
167,11,21997,1,8,0:0:0:0:
123,208,22179,6,0,L|205:194,1,80,2|4,0:0|3:2,0:0:0:0:
108,290,22543,2,0,L|190:276,1,80,2|8,0:0|3:0,0:0:0:0:
92,374,22906,2,0,L|174:360,1,80,2|0,0:0|3:0,0:0:0:0:
28,312,23270,1,2,0:0:0:0:
257,330,23452,1,0,1:0:0:0:
286,325,23542,1,0,1:0:0:0:
316,321,23633,1,2,1:2:0:0:
346,317,23724,1,0,1:0:0:0:
375,313,23815,5,4,0:0:0:0:
375,313,24179,2,0,P|388:276|382:212,1,80,8|2,0:0|0:0,0:0:0:0:
264,45,24543,2,0,P|275:83|298:115,1,80,0|2,3:0|0:0,0:0:0:0:
510,195,24906,2,0,P|479:171|441:159,1,80,8|2,0:0|0:0,0:0:0:0:
223,222,25270,2,0,P|262:222|300:210,1,80,0|2,0:0|0:0,0:0:0:0:
442,31,25634,2,0,P|409:53|385:85,1,80,8|2,0:0|0:0,0:0:0:0:
375,313,25997,2,0,P|388:276|382:212,1,80,0|2,3:0|0:0,0:0:0:0:
264,45,26361,2,0,P|275:83|298:115,1,80,8|2,0:0|0:0,0:0:0:0:
494,109,26725,5,2,0:1:0:0:
298,115,26906,1,2,0:0:0:0:
390,5,27088,2,0,L|382:118,1,80,8|0,0:0|0:0,0:0:0:0:
504,281,27452,2,0,L|498:201,1,80,0|2,0:0|0:0,0:0:0:0:
375,313,27816,1,8,0:0:0:0:
389,119,27997,1,0,0:0:0:0:
451,352,28179,5,4,0:0:0:0:
334,195,28361,2,0,L|235:213,1,80,2|8,0:0|0:0,0:0:0:0:
101,336,28725,2,0,L|179:350,1,80,2|0,0:0|0:0,0:0:0:0:
341,343,29088,1,2,0:0:0:0:
179,350,29270,1,8,0:0:0:0:
255,209,29452,1,8,0:3:0:0:
255,209,29543,1,8,0:3:0:0:
255,209,29634,5,4,0:0:0:0:
255,209,29997,2,0,P|254:138|231:109,1,80,8|2,0:0|0:0,0:0:0:0:
99,69,30361,2,0,P|160:103|197:98,1,80,0|2,3:0|0:0,0:0:0:0:
300,5,30725,2,0,P|239:41|225:75,1,80,8|0,0:0|0:0,0:0:0:0:
266,208,31088,6,0,P|266:168|250:132,1,80,0|2,3:0|0:0,0:0:0:0:
150,27,31452,2,0,P|150:66|167:102,1,80,8|2,0:0|0:0,0:0:0:0:
312,42,31816,2,0,P|241:43|212:66,1,80,0|2,3:0|0:0,0:0:0:0:
109,191,32179,2,0,P|180:190|209:167,1,80,8|2,0:0|0:0,0:0:0:0:
312,42,32543,5,2,0:1:0:0:
143,114,32725,1,2,0:0:0:0:
266,208,32906,2,0,P|266:168|250:132,1,80,8|2,0:0|0:0,0:0:0:0:
105,266,33270,2,0,L|196:262,1,80,0|2,3:0|0:0,0:0:0:0:
330,136,33634,2,0,L|250:132,1,80,8|0,0:0|0:0,0:0:0:0:
396,268,33997,5,2,0:0:0:0:
333,60,34179,2,0,P|320:98|330:136,1,80,0|8,3:0|0:0,0:0:0:0:
488,113,34543,2,0,L|309:138,1,160,2|2,0:0|0:0,0:0:0:0:
351,343,35088,1,8,0:0:0:0:
447,195,35270,1,8,0:3:0:0:
447,195,35361,1,8,0:3:0:0:
447,195,35452,5,4,0:0:0:0:
447,195,35816,2,0,L|309:211,2,128,2|8|0,0:0|0:0|0:0,0:0:0:0:
447,195,36725,1,8,0:3:0:0:
351,343,36906,6,0,P|280:345|228:303,2,128,4|0|8,0:0|3:0|0:0,0:0:0:0:
351,343,37997,1,2,0:0:0:0:
235,313,38179,1,8,0:3:0:0:
337,136,38361,6,0,L|345:264,2,128,4|2|8,0:0|0:0|0:0,0:0:0:0:
337,136,39452,1,2,0:0:0:0:
229,211,39634,1,8,0:3:0:0:
333,72,39816,6,0,L|337:136,1,64,4|8,0:0|0:3,0:0:0:0:
344,263,40179,1,4,0:3:0:0:
344,263,40543,2,0,L|286:272,2,42.6666666666667,8|8|8,0:0|0:3|0:3,0:0:0:0:
403,199,40906,2,0,L|449:192,2,42.6666666666667,8|0|0,0:0|3:0|3:0,0:0:0:0:
336,135,41270,5,4,0:0:0:0:
478,189,41452,1,2,0:0:0:0:
348,296,41634,2,0,L|342:204,1,80,8|2,0:0|0:0,0:0:0:0:
484,109,41997,2,0,L|478:188,1,80,0|2,3:0|0:0,0:0:0:0:
336,135,42361,1,8,0:0:0:0:
477,188,42543,1,2,0:0:0:0:
348,323,42725,6,0,P|301:334|255:306,1,80,0|2,3:0|0:0,0:0:0:0:
174,154,43088,1,8,0:0:0:0:
314,255,43270,1,0,0:0:0:0:
167,335,43452,1,2,0:0:0:0:
176,128,43634,2,0,L|266:137,1,80,0|8,0:0|0:0,0:0:0:0:
411,163,43997,2,0,L|331:170,1,80,2|0,0:0|3:0,0:0:0:0:
491,160,44361,5,2,0:0:0:0:
407,321,44543,2,0,P|394:289|408:223,1,80,8|2,0:0|0:0,0:0:0:0:
501,83,44906,2,0,P|505:122|491:159,1,80,0|2,3:0|0:0,0:0:0:0:
331,169,45270,1,8,0:0:0:0:
501,83,45452,1,2,0:0:0:0:
319,8,45634,6,0,L|325:97,1,80,0|2,3:0|0:0,0:0:0:0:
490,61,45997,1,8,0:0:0:0:
324,87,46179,1,0,0:0:0:0:
490,159,46361,1,2,0:0:0:0:
301,78,46543,2,0,P|258:79|204:119,1,80,2|8,0:0|0:0,0:0:0:0:
368,242,46906,2,0,L|362:162,1,80,10|4,0:0|0:0,0:0:0:0:
306,308,47270,5,2,0:0:0:0:
454,157,47452,2,0,L|459:236,1,80,8|2,0:0|0:0,0:0:0:0:
230,335,47816,2,0,P|268:347|307:340,1,80,0|2,3:0|0:0,0:0:0:0:
136,254,48179,1,8,0:0:0:0:
306,340,48361,1,2,0:0:0:0:
279,152,48543,6,0,L|284:231,1,80,0|2,3:0|0:0,0:0:0:0:
128,368,48906,2,0,L|133:288,1,80,10|0,0:0|3:0,0:0:0:0:
230,335,49270,1,2,0:0:0:0:
29,254,49452,2,0,L|34:333,1,80,0|10,3:0|0:0,0:0:0:0:
23,172,49816,1,0,0:0:0:0:
92,54,49997,6,0,B|133:38|172:55|172:55|218:72|272:46,1,160,2|8,0:1|0:0,0:0:0:0:
132,130,50543,1,2,0:0:0:0:
280,42,50725,2,0,L|275:137,1,80,0|2,3:0|0:0,0:0:0:0:
139,239,51088,2,0,L|134:159,1,80,8|2,0:0|0:0,0:0:0:0:
144,321,51452,5,2,0:1:0:0:
296,271,51634,1,2,0:0:0:0:
134,159,51816,2,0,L|139:239,1,80,8|2,0:0|0:0,0:0:0:0:
339,204,52179,2,0,P|301:191|256:202,1,80,2|2,0:1|0:0,0:0:0:0:
147,350,52543,2,0,P|186:356|223:344,1,80,8|8,0:0|0:3,0:0:0:0:
275,290,52816,1,8,0:3:0:0:
275,290,52906,5,12,0:0:0:0:
254,38,53088,2,0,L|261:149,1,80,10|0,0:0|3:0,0:0:0:0:
466,247,53452,2,0,P|380:187|324:218,1,160,12|0,0:0|0:0,0:0:0:0:
296,271,53906,2,0,L|296:300,8,20,2|2|2|0|0|0|0|0|0,0:0|0:0|0:0|0:0|0:0|0:0|0:0|0:0|0:0,0:0:0:0:
338,203,54361,5,4,0:0:0:0:
254,358,54543,1,2,0:0:0:0:
178,203,54725,2,0,P|219:190|262:197,1,88.000002685547,8|2,0:0|0:0,0:0:0:0:
378,344,55088,1,8,0:0:0:0:
225,272,55270,1,0,0:0:0:0:
417,270,55452,1,8,0:0:0:0:
273,349,55634,1,0,3:0:0:0:
439,263,55816,5,10,0:0:0:0:
261,198,55997,1,0,3:0:0:0:
467,257,56179,1,8,0:0:0:0:
274,367,56361,2,0,L|267:269,1,88.000002685547,0|2,0:0|0:0,0:0:0:0:
250,62,56725,1,0,0:1:0:0:
267,279,56906,1,8,0:0:0:0:
431,155,57088,1,0,0:0:0:0:
259,168,57270,5,4,0:0:0:0:
431,155,57452,1,0,0:0:0:0:
232,172,57634,2,0,L|122:180,1,88.000002685547,8|0,0:0|0:0,0:0:0:0:
344,161,57997,1,8,0:0:0:0:
144,178,58179,1,0,0:0:0:0:
294,232,58361,1,8,0:0:0:0:
148,92,58543,1,4,3:0:0:0:
97,287,58725,5,2,0:0:0:0:
294,232,58906,1,0,0:0:0:0:
71,215,59088,1,8,0:0:0:0:
244,383,59270,2,0,L|233:296,1,88.000002685547,0|2,0:0|3:2,0:0:0:0:
31,354,59634,1,0,0:0:0:0:
233,296,59816,1,8,0:0:0:0:
84,139,59997,1,2,0:0:0:0:
134,376,60179,5,4,0:0:0:0:
318,313,60361,1,0,3:0:0:0:
101,217,60543,2,0,L|117:303,1,88.000002685547,8|0,0:0|3:0,0:0:0:0:
318,313,60906,1,10,0:0:0:0:
117,303,61088,1,0,0:0:0:0:
320,234,61270,1,8,0:0:0:0:
161,367,61452,1,0,0:0:0:0:
389,374,61634,5,4,0:0:0:0:
250,267,61816,1,0,0:0:0:0:
400,188,61997,2,0,L|412:275,1,88.000002685547,8|0,0:0|0:0,0:0:0:0:
238,354,62361,2,0,L|251:267,1,88.000002685547,8|0,0:0|0:0,0:0:0:0:
394,154,62725,2,0,P|447:148|497:170,1,88.000002685547,10|0,0:0|0:0,0:0:0:0:
250,267,63088,6,0,L|225:68,2,176.000005371094,6|8|6,0:0|0:0|0:0,0:0:0:0:
389,374,63997,1,0,0:0:0:0:
316,161,64179,2,0,L|329:248,1,88.000002685547,10|0,0:0|0:0,0:0:0:0:
146,200,64543,1,6,0:0:0:0:
330,249,64725,1,2,0:0:0:0:
165,287,64906,1,10,0:0:0:0:
316,161,65088,1,2,0:0:0:0:
150,86,65270,5,8,0:3:0:0:
343,86,65452,1,10,0:0:0:0:
250,267,65634,1,10,0:0:0:0:
233,62,65816,1,10,0:0:0:0:
165,287,65997,5,14,0:0:0:0:
311,325,66179,1,0,0:0:0:0:
367,165,66361,2,0,P|326:150|282:155,1,88.000002685547,8|2,0:0|0:0,0:0:0:0:
435,60,66725,1,8,0:0:0:0:
416,239,66906,1,0,3:0:0:0:
439,35,67088,1,8,0:0:0:0:
506,226,67270,1,0,3:0:0:0:
283,155,67452,5,8,0:0:0:0:
492,127,67634,1,2,0:0:0:0:
283,155,67816,1,8,0:0:0:0:
422,325,67997,2,0,L|415:238,1,88.000002685547,0|2,3:0|0:0,0:0:0:0:
201,164,68361,1,0,0:0:0:0:
342,288,68543,1,8,0:0:0:0:
377,108,68725,1,2,0:0:0:0:
218,259,68906,5,4,0:0:0:0:
295,84,69088,1,0,0:0:0:0:
118,169,69270,2,0,P|161:178|202:164,1,88.000002685547,8|0,0:0|0:0,0:0:0:0:
34,87,69634,1,8,0:0:0:0:
99,270,69816,1,0,3:0:0:0:
137,63,69997,1,8,0:0:0:0:
9,210,70179,1,0,3:0:0:0:
154,35,70361,5,2,0:0:0:0:
218,259,70543,1,0,0:0:0:0:
9,210,70725,1,8,0:0:0:0:
154,35,70906,2,0,P|203:26|247:47,1,88.000002685547,0|2,3:0|0:0,0:0:0:0:
118,169,71270,1,0,0:0:0:0:
295,84,71452,1,8,0:0:0:0:
95,182,71634,1,2,0:0:0:0:
286,324,71816,5,4,0:0:0:0:
189,119,71997,1,0,0:0:0:0:
406,129,72179,2,0,L|396:240,1,88.000002685547,8|0,0:0|0:0,0:0:0:0:
267,356,72543,1,10,0:0:0:0:
480,250,72725,1,0,3:0:0:0:
283,275,72906,1,8,0:0:0:0:
512,323,73088,1,0,3:0:0:0:
267,356,73270,5,4,0:0:0:0:
480,250,73452,1,2,0:0:0:0:
250,187,73634,2,0,L|260:298,1,88.000002685547,8|2,0:0|0:0,0:0:0:0:
296,118,73997,2,0,P|229:104|168:158,1,132.00000402832,8|0,0:0|0:0,0:0:0:0:
168,161,74361,2,0,L|160:73,1,88.000002685547,8|0,0:0|0:0,0:0:0:0:
175,242,74725,5,6,0:0:0:0:
25,173,74906,1,0,0:0:0:0:
161,74,75088,1,8,0:0:0:0:
175,242,75270,1,0,0:0:0:0:
5,158,75452,2,0,L|110:162,1,88.000002685547,10|0,0:0|0:0,0:0:0:0:
288,239,75816,2,0,L|200:242,1,88.000002685547,8|0,0:0|0:0,0:0:0:0:
0,44,76179,6,0,L|199:56,1,176.000005371094,4|8,0:0|0:0,0:0:0:0:
92,161,76725,1,0,0:0:0:0:
295,70,76906,1,10,0:0:0:0:
295,70,76997,1,8,0:3:0:0:
295,70,77088,1,0,3:0:0:0:
92,161,77270,1,10,0:0:0:0:
269,302,77452,1,0,3:0:0:0:
381,107,77634,6,0,P|283:101|243:180,1,176.000005371094,4|8,0:0|0:0,0:0:0:0:
416,193,78179,1,2,0:0:0:0:
295,70,78361,1,8,0:0:0:0:
366,278,78543,1,0,3:0:0:0:
381,107,78725,1,8,0:0:0:0:
359,356,78906,1,0,3:0:0:0:
200,164,79088,6,0,L|297:153,1,88.000002685547,6|0,0:0|0:0,0:0:0:0:
503,202,79452,2,0,L|406:191,1,88.000002685547,10|0,0:0|0:0,0:0:0:0:
371,19,79816,2,0,L|382:116,1,88.000002685547,2|0,0:0|3:0,0:0:0:0:
254,241,80179,1,8,0:0:0:0:
298,73,80361,1,0,3:0:0:0:
503,202,80543,6,0,P|423:278|349:249,1,176.000005371094,6|8,0:0|0:0,0:0:0:0:
466,113,81088,1,0,0:0:0:0:
364,331,81270,2,0,L|351:224,1,88.000002685547,2|0,0:0|3:0,0:0:0:0:
485,348,81634,1,8,0:0:0:0:
347,164,81816,1,2,0:0:0:0:
265,379,81997,6,0,P|338:366|352:345,1,88.000002685547,4|2,0:0|0:0,0:0:0:0:
425,144,82361,2,0,P|382:139|346:163,1,88.000002685547,8|2,0:0|0:0,0:0:0:0:
202,294,82725,2,0,L|308:304,1,88.000002685547,2|0,0:1|3:0,0:0:0:0:
451,159,83088,1,8,0:0:0:0:
253,225,83270,1,0,3:0:0:0:
449,269,83452,6,0,B|474:247|474:247|331:233,1,176.000005371094,6|10,0:0|0:0,0:0:0:0:
451,159,83997,1,0,0:0:0:0:
253,225,84179,2,0,L|152:216,1,88.000002685547,8|2,0:0|0:0,0:0:0:0:
366,334,84543,2,0,L|453:326,1,88.000002685547,8|2,0:0|0:0,0:0:0:0:
242,369,84906,5,6,0:0:0:0:
331,233,85088,1,0,3:0:0:0:
164,217,85270,2,0,P|163:264|180:303,1,88.000002685547,8|0,0:0|0:0,0:0:0:0:
378,161,85634,1,2,1:2:0:0:
376,150,85724,1,0,1:3:0:0:
375,139,85815,1,0,1:3:0:0:
373,128,85906,1,0,1:3:0:0:
372,117,85997,2,0,L|365:58,1,44.0000013427735,10|8,0:0|0:0,0:0:0:0:
253,225,86179,2,0,L|260:166,1,44.0000013427735,8|8,0:0|0:0,0:0:0:0:
473,245,86361,5,6,0:0:0:0:
256,192,86452,12,8,87724,0:0:0:0:
