osu file format v14

[General]
AudioFilename: audio.mp3
AudioLeadIn: 0
PreviewTime: 54361
Countdown: 0
SampleSet: Soft
StackLeniency: 0.3
Mode: 0
LetterboxInBreaks: 0
WidescreenStoryboard: 0

[Editor]
DistanceSpacing: 0.6
BeatDivisor: 4
GridSize: 4
TimelineZoom: 1.7

[Metadata]
Title:Hitorigoto -TV MIX-
TitleUnicode:ヒトリゴト -TV MIX-
Artist:ClariS
ArtistUnicode:ClariS
Creator:[C u r i]
Version:captin's Insane
Source:エロマンガ先生
Tags:Akitoshi Kalibe captin1 Ero Manga Sensei 和泉紗霧 Izumi Sagiri 和泉正宗 Masamune op Opening TV Size
BeatmapID:1262895
BeatmapSetID:596910

[Difficulty]
HPDrainRate:5.5
CircleSize:4
OverallDifficulty:7.5
ApproachRate:8.5
SliderMultiplier:1.6
SliderTickRate:2

[Events]
//Background and Video events
0,0,"279e4633.jpg",0,0
Video,-369,"eromanga movie.avi"
//Break Periods
//Storyboard Layer 0 (Background)
//Storyboard Layer 1 (Fail)
//Storyboard Layer 2 (Pass)
//Storyboard Layer 3 (Foreground)
//Storyboard Sound Samples

[TimingPoints]
543,363.636363636364,4,2,2,65,1,0
543,-125,4,2,2,65,0,0
12179,-111.111111111111,4,2,2,65,0,0
23816,-111.111111111111,4,2,2,55,0,0
29088,-111.111111111111,4,2,2,65,0,0
29634,-111.111111111111,4,2,2,55,0,0
34906,-111.111111111111,4,2,2,65,0,0
35452,-142.857142857143,4,2,2,50,0,0
41270,-111.111111111111,4,2,2,60,0,0
52906,-111.111111111111,4,2,2,65,0,0
54361,-100,4,2,2,75,0,1
87724,-100,4,2,2,65,0,0

[Colours]
Combo1 : 255,255,38
Combo2 : 208,208,208
Combo3 : 255,117,186
Combo4 : 119,255,119

[HitObjects]
84,151,543,5,8,0:0:0:0:
61,261,725,1,8,0:0:0:0:
187,240,1452,2,2,P|123:247|61:261,1,128,2|0,0:1|0:0,0:1:0:0:
277,280,1997,5,8,0:0:0:0:
247,141,2179,1,8,0:0:0:0:
373,161,2906,2,2,P|309:155|247:141,1,128,2|0,0:1|0:0,0:1:0:0:
436,90,3452,5,8,0:0:0:0:
403,275,3633,1,8,0:0:0:0:
277,254,4361,2,2,P|340:260|403:275,1,128,2|0,0:1|0:0,0:1:0:0:
170,276,4906,5,12,0:0:0:0:
170,276,5088,2,0,L|145:132,1,128,0|2,0:0|0:0,0:0:0:0:
230,37,5633,2,0,B|242:91|242:91|227:146,2,85.3333333333333,12|8|8,0:0|0:0|0:0,0:0:0:0:
422,104,6361,5,8,0:0:0:0:
316,134,6543,1,8,0:0:0:0:
292,259,7270,2,2,P|309:197|316:134,1,128,2|0,0:1|0:0,0:1:0:0:
80,156,7815,5,8,0:0:0:0:
214,190,7997,1,8,0:0:0:0:
237,315,8724,2,2,P|220:253|214:190,1,128,2|0,0:1|0:0,0:1:0:0:
475,228,9270,5,8,0:0:0:0:
305,256,9452,1,8,0:0:0:0:
280,130,10179,2,2,P|297:192|305:256,1,128,2|0,0:1|0:0,0:1:0:0:
80,217,10724,5,12,0:0:0:0:
80,217,10906,2,0,L|224:200,1,128,0|0,0:0|0:0,0:0:0:0:
220,306,11452,1,10,0:0:0:0:
150,108,11633,1,0,0:0:0:0:
150,108,11724,1,0,0:0:0:0:
150,108,11815,1,0,1:0:0:0:
275,142,11997,1,0,1:0:0:0:
101,267,12179,6,0,P|70:246|61:144,2,143.999995605469,12|8|10,0:0|0:0|0:0,0:0:0:0:
266,234,13088,1,0,0:0:0:0:
126,188,13270,1,8,0:0:0:0:
253,260,13452,6,0,L|262:339,1,71.9999978027344,2|0,0:0|1:0,0:0:0:0:
399,217,13815,2,0,L|390:296,1,71.9999978027344,2|8,0:0|0:0,0:0:0:0:
223,133,14179,2,0,L|232:54,1,71.9999978027344,2|8,0:0|0:0,0:0:0:0:
366,104,14543,2,0,L|357:25,1,71.9999978027344,0|8,0:1|0:0,0:0:0:0:
237,155,14906,1,2,0:0:0:0:
237,155,14997,1,0,0:0:0:0:
237,155,15088,6,0,L|135:129,1,71.9999978027344,12|0,0:0|0:0,0:0:0:0:
354,250,15452,2,0,L|456:224,1,71.9999978027344,8|0,0:0|0:0,0:0:0:0:
259,367,15815,1,10,0:0:0:0:
269,194,15997,1,0,0:0:0:0:
377,333,16179,1,8,0:0:0:0:
193,265,16361,6,0,L|180:192,1,71.9999978027344,2|8,0:0|0:0,0:0:0:0:
342,54,16724,2,0,L|329:127,1,71.9999978027344,2|8,0:0|0:0,0:0:0:0:
275,321,17088,2,0,L|288:248,1,71.9999978027344,2|8,0:0|0:0,0:0:0:0:
237,71,17452,2,0,L|250:144,1,71.9999978027344,2|8,0:0|0:0,0:0:0:0:
174,297,17815,1,8,0:3:0:0:
20,208,17997,6,0,B|57:183|57:183|158:178,2,143.999995605469,12|8|10,0:0|0:0|0:0,0:0:0:0:
96,132,18906,1,0,0:0:0:0:
145,289,19088,1,8,0:0:0:0:
59,136,19270,6,0,L|76:56,1,71.9999978027344,2|8,0:0|0:0,0:0:0:0:
244,169,19633,2,0,L|227:249,1,71.9999978027344,2|8,0:0|0:0,0:0:0:0:
116,271,19997,2,0,L|133:191,1,71.9999978027344,2|8,0:0|0:0,0:0:0:0:
301,304,20361,2,0,L|284:384,1,71.9999978027344,2|8,0:0|0:0,0:0:0:0:
412,264,20724,1,2,0:0:0:0:
412,264,20815,1,0,0:0:0:0:
412,264,20906,6,0,L|395:182,1,71.9999978027344,12|0,0:0|0:0,0:0:0:0:
475,26,21270,2,0,P|469:63|449:110,1,71.9999978027344,8|2,0:0|0:0,0:0:0:0:
291,198,21633,1,8,0:0:0:0:
310,36,21815,1,2,0:0:0:0:
412,169,21997,1,8,0:0:0:0:
225,148,22179,6,0,L|142:140,1,71.9999978027344,2|12,0:0|0:0,0:0:0:0:
19,50,22543,2,0,L|102:42,1,71.9999978027344,2|8,0:0|0:0,0:0:0:0:
246,173,22906,1,2,0:0:0:0:
246,173,22997,1,0,0:0:0:0:
246,173,23088,1,12,0:0:0:0:
132,199,23270,1,2,0:0:0:0:
236,47,23452,2,0,L|242:9,3,35.9999989013672,0|0|2|0,1:0|1:0|1:2|1:0,0:0:0:0:
310,74,23815,6,0,L|385:61,1,71.9999978027344,12|0,0:0|0:0,0:0:0:0:
487,181,24179,2,0,P|476:222|460:257,1,71.9999978027344,8|2,0:0|0:0,0:0:0:0:
300,215,24543,1,0,0:0:0:0:
391,275,24724,1,2,0:0:0:0:
299,330,24906,1,8,0:0:0:0:
409,281,25088,1,2,0:0:0:0:
319,197,25270,6,0,L|240:183,1,71.9999978027344,0|2,0:0|0:0,0:0:0:0:
138,276,25633,2,0,P|147:319|161:352,1,71.9999978027344,8|2,0:0|0:0,0:0:0:0:
247,224,25997,1,0,0:0:0:0:
142,175,26179,1,2,0:0:0:0:
48,251,26361,2,0,L|30:334,1,71.9999978027344,8|2,0:0|0:0,0:0:0:0:
176,196,26724,5,0,0:1:0:0:
50,65,26906,1,2,0:0:0:0:
105,176,27088,1,8,0:0:0:0:
181,106,27270,1,2,0:0:0:0:
115,206,27452,1,0,0:0:0:0:
182,73,27634,1,2,0:0:0:0:
277,201,27815,2,0,L|261:284,1,71.9999978027344,8|2,0:0|0:0,0:0:0:0:
463,155,28179,5,0,0:0:0:0:
463,155,28361,2,0,P|418:158|372:177,1,71.9999978027344,2|8,0:0|0:0,0:0:0:0:
289,308,28724,2,0,L|273:171,1,107.999996704102,2|0,0:0|0:0,0:0:0:0:
249,170,29088,1,2,0:0:0:0:
368,249,29270,1,10,0:0:0:0:
205,345,29452,1,8,0:3:0:0:
205,345,29543,1,8,0:3:0:0:
205,345,29633,6,0,L|135:331,1,71.9999978027344,12|2,0:0|0:0,0:0:0:0:
25,226,29997,2,0,P|62:216|99:211,1,71.9999978027344,8|2,0:0|0:0,0:0:0:0:
277,287,30361,1,0,0:0:0:0:
157,287,30543,1,2,0:0:0:0:
245,175,30724,1,8,0:0:0:0:
278,312,30906,1,2,0:0:0:0:
213,178,31088,6,0,L|203:101,1,71.9999978027344,0|2,3:0|0:0,0:0:0:0:
366,218,31452,2,0,P|361:257|348:304,1,71.9999978027344,8|2,0:0|0:0,0:0:0:0:
155,258,31815,1,0,0:0:0:0:
283,228,31997,1,2,0:0:0:0:
126,240,32179,2,0,L|137:157,1,71.9999978027344,8|2,0:0|0:0,0:0:0:0:
71,29,32543,5,0,0:1:0:0:
112,148,32724,1,2,0:0:0:0:
182,63,32906,1,8,0:0:0:0:
87,159,33088,1,2,0:0:0:0:
207,73,33270,1,0,0:0:0:0:
62,169,33452,1,2,0:0:0:0:
194,261,33633,2,0,L|272:243,1,71.9999978027344,8|2,0:0|0:0,0:0:0:0:
465,198,33997,5,2,0:0:0:0:
465,198,34179,2,0,P|427:182|386:172,1,71.9999978027344,2|8,0:0|0:0,0:0:0:0:
255,113,34543,2,0,L|277:233,1,107.999996704102,2|0,0:0|0:0,0:0:0:0:
264,244,34906,1,2,0:0:0:0:
397,174,35088,1,10,0:0:0:0:
230,129,35270,1,8,0:3:0:0:
342,291,35452,6,0,L|466:310,1,111.999996582031,12|2,0:0|0:0,0:0:0:0:
222,325,36179,2,0,P|190:330|149:340,1,55.9999982910157,8|0,0:3|0:0,0:0:0:0:
16,264,36543,2,0,P|56:271|88:281,1,55.9999982910157,0|8,0:0|0:3,0:0:0:0:
159,208,36906,2,0,L|148:82,2,111.999996582031,8|8|8,0:0|0:0|0:3,0:0:0:0:
305,156,37997,2,0,L|231:143,1,55.9999982910157,2|8,0:0|0:3,0:0:0:0:
394,103,38361,6,0,P|430:134|508:136,1,111.999996582031,12|2,0:0|0:0,0:0:0:0:
305,144,39088,1,8,0:3:0:0:
386,201,39270,1,0,0:0:0:0:
386,201,39452,2,0,L|397:277,1,55.9999982910157,2|8,0:0|0:3,0:0:0:0:
466,302,39815,2,0,L|455:378,1,55.9999982910157,0|8,1:0|0:3,0:0:0:0:
317,300,40179,1,8,0:0:0:0:
87,338,40543,2,0,L|37:326,2,37.3333321940105,8|8|8,0:0|0:3|0:3,0:0:0:0:
182,241,40906,2,0,L|232:229,2,37.3333321940105,8|0|0,0:0|3:0|3:0,0:0:0:0:
338,293,41270,6,0,L|422:304,1,71.9999978027344,12|2,0:0|0:0,0:0:0:0:
266,352,41633,1,8,0:0:0:0:
239,202,41815,1,2,0:0:0:0:
391,276,41997,2,0,L|319:266,1,71.9999978027344,8|2,0:0|0:0,0:0:0:0:
156,237,42361,1,8,0:0:0:0:
246,114,42543,1,2,0:0:0:0:
310,252,42724,6,0,L|300:323,1,71.9999978027344,8|2,0:0|0:0,0:0:0:0:
133,220,43088,1,8,0:0:0:0:
238,144,43270,1,2,0:0:0:0:
258,318,43452,1,10,0:0:0:0:
97,231,43633,2,0,L|85:146,1,71.9999978027344,2|8,0:0|0:0,0:0:0:0:
257,67,43997,6,0,L|279:219,1,143.999995605469,2|2,0:0|0:0,0:0:0:0:
234,299,44543,1,8,0:0:0:0:
376,259,44724,1,2,0:0:0:0:
233,328,44906,2,0,L|156:312,1,71.9999978027344,8|2,0:0|0:0,0:0:0:0:
123,183,45270,1,8,0:0:0:0:
265,223,45451,1,2,0:0:0:0:
122,154,45633,6,0,L|45:170,1,71.9999978027344,8|2,0:0|0:0,0:0:0:0:
209,73,45997,1,8,0:0:0:0:
189,239,46179,1,2,0:0:0:0:
82,131,46361,1,10,0:0:0:0:
213,92,46543,2,0,L|303:113,1,71.9999978027344,2|8,0:0|0:0,0:0:0:0:
503,147,46906,6,0,L|362:179,1,143.999995605469,14|2,0:0|0:0,0:0:0:0:
279,359,47452,1,8,0:0:0:0:
256,161,47633,1,2,0:0:0:0:
302,335,47815,2,0,P|316:290|320:255,1,71.9999978027344,8|2,0:0|0:0,0:0:0:0:
162,117,48179,1,8,0:0:0:0:
186,317,48360,1,2,0:0:0:0:
139,141,48542,6,0,P|125:186|121:221,1,71.9999978027344,8|2,0:0|0:0,0:0:0:0:
313,167,48906,1,8,0:0:0:0:
210,66,49088,1,2,0:0:0:0:
200,247,49270,1,8,0:0:0:0:
334,181,49452,2,0,L|430:166,1,71.9999978027344,2|8,0:0|0:0,0:0:0:0:
507,55,49815,6,0,P|478:26|369:27,1,143.999995605469,2|2,0:0|0:0,0:0:0:0:
328,211,50361,1,8,0:0:0:0:
427,99,50543,1,2,0:0:0:0:
294,37,50724,2,0,L|311:117,1,71.9999978027344,8|2,0:0|0:0,0:0:0:0:
214,244,51088,2,0,L|231:164,1,71.9999978027344,8|2,0:0|0:0,0:0:0:0:
91,117,51452,5,10,0:0:0:0:
167,347,51815,1,8,0:0:0:0:
397,271,52179,1,10,0:0:0:0:
321,41,52543,1,8,0:0:0:0:
181,243,52724,5,0,0:0:0:0:
181,243,52815,1,0,0:0:0:0:
181,243,52906,1,12,0:0:0:0:
363,161,53088,2,0,L|275:150,1,71.9999978027344,14|0,0:0|3:0,0:0:0:0:
103,279,53452,2,0,L|257:301,1,143.999995605469,12|0,0:0|0:0,0:0:0:0:
452,175,53997,2,0,P|397:168|333:198,1,107.999996704102,0|0,0:0|0:0,0:0:0:0:
329,215,54361,5,12,0:0:0:0:
397,315,54543,1,2,0:0:0:0:
483,173,54724,2,0,L|471:83,1,80,8|2,0:0|0:0,0:0:0:0:
280,27,55088,1,8,0:0:0:0:
339,138,55270,1,0,3:0:0:0:
433,74,55452,1,8,0:0:0:0:
271,40,55633,1,0,3:0:0:0:
285,212,55815,6,0,L|303:304,2,80,10|0|8,0:0|3:0|0:0,0:0:0:0:
73,179,56361,2,0,P|101:139|216:139,1,160,0|2,0:0|3:2,0:0:0:0:
111,275,56906,1,8,0:0:0:0:
29,92,57088,1,2,3:2:0:0:
193,162,57270,5,12,0:0:0:0:
80,198,57452,1,0,0:0:0:0:
204,131,57633,2,0,L|290:147,1,80,8|0,0:0|0:0,0:0:0:0:
482,294,57997,2,0,L|396:310,1,80,8|0,0:0|3:0,0:0:0:0:
276,347,58361,1,8,0:0:0:0:
302,169,58543,1,0,3:0:0:0:
407,253,58724,6,0,L|391:337,2,80,10|0|8,0:0|0:0|0:0,0:0:0:0:
339,180,59270,2,0,B|292:166|292:166|177:186,1,160,0|2,0:0|3:2,0:0:0:0:
176,95,59815,1,8,0:0:0:0:
281,250,59997,1,2,3:2:0:0:
107,243,60179,6,0,L|13:256,1,80,12|0,0:0|3:0,0:0:0:0:
215,164,60543,2,0,P|235:203|243:248,1,80,8|0,0:0|3:0,0:0:0:0:
139,355,60906,1,10,0:0:0:0:
101,203,61088,1,0,0:0:0:0:
218,267,61270,1,8,0:0:0:0:
72,310,61452,1,0,0:0:0:0:
163,157,61633,6,0,L|250:144,1,80,12|0,0:0|0:0,0:0:0:0:
433,254,61997,1,8,0:0:0:0:
311,213,62179,1,0,0:0:0:0:
441,103,62361,2,0,L|460:277,1,160,8|10,0:0|0:0,0:0:0:0:
163,277,63088,6,0,P|117:248|131:137,2,160,14|10|14,0:0|0:0|0:0,0:0:0:0:
338,158,64179,1,10,0:0:0:0:
162,239,64543,5,14,0:0:0:0:
262,336,64724,1,2,0:0:0:0:
241,160,64906,1,10,0:0:0:0:
75,230,65088,1,2,0:0:0:0:
243,308,65270,1,10,0:0:0:0:
226,80,65452,1,10,0:0:0:0:
30,236,65633,1,10,0:0:0:0:
262,336,65815,1,10,0:0:0:0:
199,113,65997,5,14,0:0:0:0:
151,228,66179,1,0,0:0:0:0:
360,176,66361,2,0,L|253:164,1,80,8|0,0:0|0:0,0:0:0:0:
71,219,66724,2,0,L|178:231,1,80,8|2,0:0|3:2,0:0:0:0:
279,205,67088,1,8,0:0:0:0:
192,95,67270,1,2,3:2:0:0:
155,254,67452,6,0,L|175:337,2,80,8|0|8,0:0|0:0|0:0,0:0:0:0:
279,205,67997,2,0,B|347:230|368:180|441:215,1,160,0|2,0:0|3:2,0:0:0:0:
512,288,68543,1,8,0:0:0:0:
394,107,68724,1,2,0:0:0:0:
342,257,68906,5,12,0:0:0:0:
468,193,69088,1,0,0:0:0:0:
351,92,69270,2,0,L|365:185,1,80,8|0,0:0|0:0,0:0:0:0:
261,344,69633,1,8,0:0:0:0:
287,202,69815,1,2,3:2:0:0:
234,363,69997,1,8,0:0:0:0:
392,320,70179,1,2,3:2:0:0:
245,177,70361,6,0,L|159:190,2,80,10|0|8,0:0|0:0|0:0,0:0:0:0:
301,268,70906,2,0,B|342:237|342:237|356:125,1,160,0|2,0:0|3:2,0:0:0:0:
305,33,71452,1,8,0:0:0:0:
463,175,71633,1,2,3:2:0:0:
310,240,71815,6,0,L|300:150,1,80,12|0,0:0|0:0,0:0:0:0:
441,16,72179,2,0,P|436:58|423:110,1,80,8|0,0:0|0:0,0:0:0:0:
229,211,72543,1,8,0:0:0:0:
354,98,72724,1,2,3:2:0:0:
316,284,72906,1,8,0:0:0:0:
180,148,73088,1,2,3:2:0:0:
383,188,73270,6,0,L|393:278,1,80,12|0,0:0|0:0,0:0:0:0:
206,357,73633,1,8,0:0:0:0:
249,207,73815,1,0,0:0:0:0:
427,290,73997,2,0,B|385:314|385:314|264:293,1,160,8|8,0:0|0:0,0:0:0:0:
30,254,74543,1,0,3:0:0:0:
30,254,74724,6,0,P|71:208|181:241,1,160,14|8,0:0|0:0,0:0:0:0:
181,332,75270,1,0,0:0:0:0:
53,174,75452,2,0,L|65:81,1,80,10|0,0:0|0:0,0:0:0:0:
245,57,75815,1,8,0:0:0:0:
183,201,75997,1,0,0:0:0:0:
59,66,76179,6,0,L|152:86,1,80,12|0,0:0|0:0,0:0:0:0:
382,180,76543,2,0,L|289:200,1,80,8|0,0:0|0:0,0:0:0:0:
72,290,76906,2,0,L|165:310,1,80,8|2,0:0|3:2,0:0:0:0:
303,239,77270,1,8,0:0:0:0:
196,140,77452,1,2,3:2:0:0:
175,322,77633,6,0,B|285:346|285:346|332:321,1,160,12|8,0:0|0:0,0:0:0:0:
259,158,78179,1,2,0:0:0:0:
87,283,78361,2,0,L|248:261,1,160,8|8,0:0|0:0,0:0:0:0:
455,87,78906,1,2,3:2:0:0:
328,52,79088,5,14,0:0:0:0:
332,261,79270,1,0,0:0:0:0:
431,119,79452,1,8,0:0:0:0:
251,62,79633,1,0,0:0:0:0:
352,299,79815,2,0,L|468:321,1,80,8|2,0:0|3:2,0:0:0:0:
212,203,80179,1,8,0:0:0:0:
276,355,80361,1,2,3:2:0:0:
19,311,80543,6,0,P|58:273|163:279,1,160,14|8,0:0|0:0,0:0:0:0:
276,355,81088,1,0,0:0:0:0:
309,153,81270,1,8,0:0:0:0:
178,250,81452,1,2,3:2:0:0:
361,348,81633,1,8,0:0:0:0:
300,126,81815,6,0,L|207:139,1,80,2|12,3:2|0:0,0:0:0:0:
9,221,82179,2,0,P|43:239|104:258,1,80,2|8,0:0|0:0,0:0:0:0:
214,114,82543,1,2,0:0:0:0:
64,85,82724,2,2,L|81:173,1,80,10|0,0:0|3:0,0:1:0:0:
180,370,83088,2,0,L|197:282,1,80,8|0,0:0|3:0,0:0:0:0:
425,203,83452,6,0,B|371:184|371:184|265:209,1,160,14|8,0:0|0:0,0:0:0:0:
118,242,83997,1,0,0:0:0:0:
298,304,84179,1,8,0:0:0:0:
214,119,84361,1,2,3:2:0:0:
96,264,84543,1,8,0:0:0:0:
283,187,84724,1,2,3:2:0:0:
166,41,84906,6,0,L|181:141,1,80,14|0,0:0|0:0,0:0:0:0:
240,337,85270,2,0,L|255:237,1,80,8|0,0:0|0:0,0:0:0:0:
289,44,85633,2,0,L|274:144,1,80,2|0,1:2|1:3,0:0:0:0:
378,319,85997,2,0,L|363:219,1,80,10|8,0:0|0:0,0:0:0:0:
147,118,86361,5,6,1:2:0:0:
256,192,86452,12,8,87724,0:0:0:0:
