osu file format v14

[General]
AudioFilename: audio.mp3
AudioLeadIn: 0
PreviewTime: 54361
Countdown: 0
SampleSet: Soft
StackLeniency: 0.3
Mode: 0
LetterboxInBreaks: 0
WidescreenStoryboard: 0

[Editor]
Bookmarks: 12746,24383,33110,41837,54928,66564
DistanceSpacing: 1
BeatDivisor: 4
GridSize: 4
TimelineZoom: 1.7

[Metadata]
Title:Hitorigoto -TV MIX-
TitleUnicode:ヒトリゴト -TV MIX-
Artist:ClariS
ArtistUnicode:ClariS
Creator:[C u r i]
Version:Akitoshi's Normal
Source:エロマンガ先生
Tags:Akitoshi Kalibe captin1 Ero Manga Sensei 和泉紗霧 Izumi Sagiri 和泉正宗 Masamune op Opening TV Size
BeatmapID:1262588
BeatmapSetID:596910

[Difficulty]
HPDrainRate:4
CircleSize:3.3
OverallDifficulty:4
ApproachRate:5
SliderMultiplier:1.1
SliderTickRate:1

[Events]
//Background and Video events
0,0,"279e4633.jpg",0,0
Video,-369,"eromanga movie.avi"
//Break Periods
//Storyboard Layer 0 (Background)
//Storyboard Layer 1 (Fail)
//Storyboard Layer 2 (Pass)
//Storyboard Layer 3 (Foreground)
//Storyboard Sound Samples

[TimingPoints]
543,363.636363636364,4,2,2,70,1,0
1906,-100,4,2,2,5,0,0
1997,-100,4,2,2,70,0,0
3361,-100,4,2,2,5,0,0
3452,-100,4,2,2,70,0,0
4816,-100,4,2,2,5,0,0
4906,-100,4,2,2,70,0,0
7725,-100,4,2,2,5,0,0
7816,-100,4,2,2,70,0,0
9179,-100,4,2,2,5,0,0
9270,-100,4,2,2,70,0,0
10634,-100,4,2,2,5,0,0
10725,-100,4,2,2,60,0,0
12179,-100,4,2,2,65,0,0
12452,-100,4,2,2,5,0,0
12543,-100,4,2,2,65,0,0
23816,-100,4,2,2,55,0,0
29088,-100,4,2,2,65,0,0
29634,-100,4,2,2,55,0,0
34906,-100,4,2,2,65,0,0
35452,-100,4,2,2,50,0,0
41270,-100,4,2,2,60,0,0
52906,-100,4,2,2,65,0,0
53997,-100,4,2,2,65,0,0
54361,-100,4,2,2,75,0,1
74270,-100,4,2,2,5,0,1
74361,-100,4,2,2,75,0,1
87724,-100,4,2,2,65,0,0

[Colours]
Combo1 : 255,255,38
Combo2 : 208,208,208
Combo3 : 255,117,186
Combo4 : 119,255,119

[HitObjects]
1,124,543,6,0,P|34:94|173:157,1,220,8|0,0:0|0:0,0:0:0:0:
200,261,1634,1,0,0:0:0:0:
273,342,1997,2,0,L|401:333,1,110,8|0,0:0|0:0,0:0:0:0:
464,259,2725,2,0,L|455:131,1,110,0|0,0:0|0:0,0:0:0:0:
381,68,3452,6,0,B|327:58|276:88|276:88|222:116|146:96,1,220,8|0,0:0|0:0,0:0:0:0:
63,66,4543,1,0,0:0:0:0:
17,165,4906,2,0,L|33:341,1,165,12|2,0:0|0:0,0:0:0:0:
70,368,5634,2,0,P|115:371|217:282,1,165,8|0,0:0|0:0,0:0:0:0:
231,254,6361,6,0,B|284:239|284:239|378:248|378:248|455:229,1,220,8|0,0:0|0:0,0:0:0:0:
489,129,7452,1,0,0:0:0:0:
414,47,7816,2,0,L|289:40,1,110,8|0,0:0|0:0,0:0:0:0:
233,125,8543,2,0,L|108:132,1,110,0|0,0:0|0:0,0:0:0:0:
40,203,9270,6,0,P|38:278|135:225,1,220,8|0,0:0|0:0,0:0:0:0:
123,131,10361,1,0,0:0:0:0:
198,50,10725,2,0,B|308:34|308:34|384:55,1,165,12|0,0:0|0:0,0:0:0:0:
402,82,11452,2,0,P|372:118|407:245,1,165,10|0,0:0|1:0,0:0:0:0:
424,268,12179,6,0,P|389:301|319:313,1,110,4|8,0:0|0:0,0:0:0:0:
231,264,12906,2,0,P|184:252|117:277,1,110,2|8,0:0|0:0,0:0:0:0:
77,297,13452,1,2,0:0:0:0:
12,208,13816,1,2,0:0:0:0:
45,103,14179,1,2,0:0:0:0:
141,49,14543,2,0,L|257:46,1,110,2|2,0:1|0:0,0:0:0:0:
305,48,15088,6,0,P|340:84|351:149,1,110,4|8,0:0|0:0,0:0:0:0:
334,250,15816,2,0,P|298:285|233:296,1,110,2|8,0:0|0:0,0:0:0:0:
185,296,16361,1,2,0:0:0:0:
78,267,16725,1,2,0:0:0:0:
28,169,17088,1,2,0:0:0:0:
74,68,17452,2,0,P|122:51|184:61,1,110,2|8,0:0|3:0,0:0:0:0:
214,101,17997,6,0,L|347:99,1,110,4|8,0:0|0:0,0:0:0:0:
434,100,18725,2,0,L|436:233,1,110,2|8,0:0|0:0,0:0:0:0:
435,265,19270,1,2,0:0:0:0:
349,334,19634,1,2,0:0:0:0:
239,333,19997,1,2,0:0:0:0:
168,248,20361,2,0,P|107:240|53:263,1,110,2|2,0:0|0:0,0:0:0:0:
22,293,20906,6,0,L|14:169,1,110,4|8,0:0|0:0,0:0:0:0:
45,77,21634,2,0,P|93:91|165:73,1,110,0|8,3:0|0:0,0:0:0:0:
194,47,22179,1,2,0:0:0:0:
300,73,22543,1,2,0:0:0:0:
342,174,22906,1,2,0:0:0:0:
330,283,23270,2,0,B|450:274,1,110,2|2,0:0|1:2,0:0:0:0:
484,242,23816,6,0,P|485:185|452:120,1,110,4|8,0:0|0:0,0:0:0:0:
385,60,24543,1,0,3:0:0:0:
278,31,24906,1,8,0:0:0:0:
175,70,25270,2,0,L|44:64,2,110,0|8|0,0:0|0:0|3:0,0:0:0:0:
238,159,26361,1,8,0:0:0:0:
181,253,26725,6,0,P|171:301|187:367,1,110,2|8,0:1|0:0,0:0:0:0:
293,363,27452,2,0,P|303:315|287:249,1,110,0|8,0:0|0:0,0:0:0:0:
238,159,28179,2,0,B|129:177|129:177|68:164,2,165,4|2|8,0:0|0:0|0:0,0:0:0:0:
315,79,29634,6,0,P|367:65|431:83,1,110,4|8,0:0|0:0,0:0:0:0:
498,155,30361,1,0,3:0:0:0:
498,265,30725,1,8,0:0:0:0:
420,342,31088,2,0,L|297:354,2,110,0|8|0,3:0|0:0|3:0,0:0:0:0:
498,265,32179,1,8,0:0:0:0:
408,201,32543,6,0,B|353:191|353:191|294:208,1,110,2|8,0:1|0:0,0:0:0:0:
197,244,33270,2,0,B|142:254|142:254|83:237,1,110,0|8,3:0|0:0,0:0:0:0:
35,143,33997,2,0,L|43:326,2,165,2|2|8,0:0|0:0|0:0,0:0:0:0:
105,57,35452,6,0,B|223:32|199:107|333:72,1,220,4|8,0:0|0:0,0:0:0:0:
417,25,36543,1,0,0:0:0:0:
480,116,36906,2,0,L|478:239,1,110,4|0,0:0|3:0,0:0:0:0:
423,321,37634,2,0,L|300:319,1,110,8|2,0:0|0:0,0:0:0:0:
207,287,38361,6,0,B|195:220|195:220|223:151|223:151|212:74,1,220,4|8,0:0|0:0,0:0:0:0:
117,18,39452,1,2,0:0:0:0:
22,74,39816,2,0,L|5:196,1,110,4|4,0:0|0:3,0:0:0:0:
109,222,40543,2,0,L|126:344,1,110,8|8,0:0|0:0,0:0:0:0:
230,361,41270,6,0,P|290:363|346:329,1,110,4|8,0:0|0:0,0:0:0:0:
375,305,41816,1,2,0:0:0:0:
375,305,41997,2,0,L|358:183,1,110,0|8,3:0|0:0,0:0:0:0:
345,86,42725,1,0,3:0:0:0:
249,31,43088,1,8,0:0:0:0:
162,98,43452,2,0,P|111:104|50:81,1,110,2|8,0:0|0:0,0:0:0:0:
15,57,43997,1,2,0:0:0:0:
15,57,44179,6,0,L|20:192,1,110,0|8,3:0|0:0,0:0:0:0:
26,227,44725,1,2,0:0:0:0:
26,227,44906,2,0,B|77:242|77:242|149:222,1,110,0|8,3:0|0:0,0:0:0:0:
235,182,45634,1,0,3:0:0:0:
332,233,45997,1,8,0:0:0:0:
332,343,46361,2,0,P|379:358|448:340,1,110,2|8,0:0|0:0,0:0:0:0:
484,317,46906,1,10,0:0:0:0:
484,317,47088,6,0,L|470:190,1,110,4|8,0:0|0:0,0:0:0:0:
466,158,47634,1,2,0:0:0:0:
466,158,47816,2,0,P|419:143|350:161,1,110,0|8,3:0|0:0,0:0:0:0:
274,223,48543,1,0,3:0:0:0:
167,241,48906,1,10,0:0:0:0:
73,183,49270,2,0,L|76:69,1,110,2|10,0:0|0:0,0:0:0:0:
113,31,49816,1,0,0:0:0:0:
113,31,49997,6,0,P|154:23|224:50,1,110,2|8,0:1|0:0,0:0:0:0:
295,122,50725,1,0,3:0:0:0:
295,231,51088,1,8,0:0:0:0:
217,308,51452,2,0,L|89:305,1,110,2|8,0:1|0:0,0:0:0:0:
30,226,52179,2,0,L|33:98,1,110,2|8,0:1|0:0,0:0:0:0:
49,65,52725,1,8,0:3:0:0:
49,65,52906,2,0,P|104:39|204:75,2,165,12|12|0,0:0|0:0|0:0,0:0:0:0:
123,146,54361,6,0,P|173:174|246:165,1,110,4|8,0:0|0:0,0:0:0:0:
331,148,55088,2,0,L|339:212,1,55,8|0,0:0|0:0,0:0:0:0:
379,239,55452,2,0,L|371:303,1,55,8|0,0:0|3:0,0:0:0:0:
350,343,55816,2,0,P|419:330|509:374,2,165,10|0|8,0:0|0:0|0:0,0:0:0:0:
241,359,57270,6,0,P|227:301|240:233,1,110,4|8,0:0|0:0,0:0:0:0:
298,163,57997,2,0,L|356:161,1,55,8|0,0:0|0:0,0:0:0:0:
390,120,58361,2,0,L|448:122,1,55,8|4,0:0|3:0,0:0:0:0:
488,155,58725,2,0,P|501:83|456:4,2,165,2|0|8,0:0|0:0|0:0,0:0:0:0:
422,243,60179,6,0,L|292:247,1,110,4|8,0:0|0:0,0:0:0:0:
201,246,60906,1,10,0:0:0:0:
118,172,61270,1,8,0:0:0:0:
149,66,61634,2,0,P|200:49|269:67,1,110,4|8,0:0|0:0,0:0:0:0:
340,126,62361,1,8,0:0:0:0:
336,236,62725,1,10,0:0:0:0:
228,257,63088,6,0,L|102:265,1,110,6|8,0:0|0:0,0:0:0:0:
122,374,63816,2,0,L|248:366,1,110,6|10,0:0|0:0,0:0:0:0:
319,300,64543,2,0,L|388:309,2,55,6|2|10,0:0|0:0|0:0,0:0:0:0:
268,278,65088,2,0,P|289:223|277:165,1,110,2|10,0:0|0:0,0:0:0:0:
252,126,65634,1,10,0:0:0:0:
300,28,65997,6,0,P|351:15|408:27,1,110,14|8,0:0|0:0,0:0:0:0:
504,80,66725,2,0,L|498:139,1,55,8|0,0:0|3:0,0:0:0:0:
451,164,67088,2,0,L|457:223,1,55,8|0,0:0|3:0,0:0:0:0:
483,267,67452,2,0,P|416:238|324:280,2,165,8|0|8,0:0|3:0|0:0,0:0:0:0:
411,350,68906,6,0,P|360:378|292:374,1,110,4|8,0:0|0:0,0:0:0:0:
243,290,69634,2,0,L|174:284,1,55,8|0,0:0|3:0,0:0:0:0:
143,252,69997,2,0,L|74:258,1,55,8|0,0:0|3:0,0:0:0:0:
39,283,70361,2,0,L|26:114,2,165,2|0|8,0:0|3:0|0:0,0:0:0:0:
110,367,71816,6,0,P|162:379|215:365,1,110,4|8,0:0|0:0,0:0:0:0:
310,309,72543,1,10,0:0:0:0:
310,199,72906,1,8,0:0:0:0:
215,142,73270,2,0,P|161:128|108:138,1,110,4|8,0:0|0:0,0:0:0:0:
17,200,73997,1,8,0:0:0:0:
17,310,74361,1,8,0:0:0:0:
110,367,74725,6,0,L|234:354,2,110,6|8|10,0:0|0:0|0:0,0:0:0:0:
17,310,75816,1,8,0:0:0:0:
96,234,76179,2,0,P|140:216|212:222,1,110,4|8,0:0|0:0,0:0:0:0:
307,249,76906,2,0,P|351:267|423:261,1,110,10|10,0:0|0:0,0:0:0:0:
464,244,77452,1,0,3:0:0:0:
464,244,77634,6,0,L|454:119,1,110,4|8,0:0|0:0,0:0:0:0:
449,85,78179,1,0,0:0:0:0:
449,85,78361,2,0,P|399:68|338:75,1,110,8|8,0:0|0:0,0:0:0:0:
233,88,79088,2,0,P|183:105|122:98,1,110,6|10,0:0|0:0,0:0:0:0:
23,59,79816,2,0,P|15:106|38:168,1,110,2|8,0:0|0:0,0:0:0:0:
81,203,80361,1,0,3:0:0:0:
81,203,80543,6,0,L|78:316,1,110,6|8,0:0|0:0,0:0:0:0:
115,360,81088,1,0,0:0:0:0:
115,360,81270,2,0,P|167:370|232:348,1,110,2|8,0:0|0:0,0:0:0:0:
257,250,81997,2,0,L|379:254,1,110,4|8,0:0|0:0,0:0:0:0:
477,260,82725,1,2,0:1:0:0:
509,155,83088,1,8,0:0:0:0:
463,54,83452,6,0,P|407:29|338:39,1,110,6|10,0:0|0:0,0:0:0:0:
261,79,84179,2,0,P|205:104|136:94,1,110,8|8,0:0|0:0,0:0:0:0:
110,84,84725,1,2,0:0:0:0:
110,84,84906,2,0,L|117:210,1,110,6|8,0:0|0:0,0:0:0:0:
127,303,85634,1,2,1:2:0:0:
224,353,85997,1,10,0:0:0:0:
329,322,86361,5,6,0:0:0:0:
256,192,86543,12,8,87724,0:0:0:0:
