osu file format v14

[General]
AudioFilename: eromanga.mp3
AudioLeadIn: 0
PreviewTime: -1
Countdown: 0
SampleSet: Soft
StackLeniency: 0.7
Mode: 0
LetterboxInBreaks: 0
WidescreenStoryboard: 1

[Editor]
Bookmarks: 3445,5081,9263,10899,12172,23808,35445,41263,44172,47081,49990,53081,54354,65990,74717,83445,86354,87808,89263
DistanceSpacing: 1.1
BeatDivisor: 4
GridSize: 8
TimelineZoom: 1.2

[Metadata]
Title:Hitorigoto -TV MIX-
TitleUnicode:ヒトリゴト -TV MIX-
Artist:ClariS
ArtistUnicode:ClariS
Creator:[ Maker ]
Version:eromanga
Source:エロマンガ先生
Tags:eromangasensei opening tv size
BeatmapID:1286153
BeatmapSetID:609014

[Difficulty]
HPDrainRate:5.5
CircleSize:4
OverallDifficulty:8
ApproachRate:9.2
SliderMultiplier:1.9
SliderTickRate:1

[Events]
//Background and Video events
0,0,"49397576_p0.jpg",0,0
//Break Periods
//Storyboard Layer 0 (Background)
//Storyboard Layer 1 (Fail)
//Storyboard Layer 2 (Pass)
//Storyboard Layer 3 (Foreground)
//Storyboard Sound Samples

[TimingPoints]
536,363.636363636364,4,2,1,80,1,0
5081,-83.3333333333333,4,2,1,80,0,0
19235,-100,4,2,1,80,0,0
20899,-83.3333333333333,4,2,1,80,0,0
21263,-71.4285714285714,4,2,1,80,0,0
21626,-100,4,2,1,80,0,0
23808,-100,4,2,1,60,0,0
28354,-71.4285714285714,4,2,1,60,0,0
28717,-100,4,2,1,60,0,0
34172,-71.4285714285714,4,2,1,60,0,0
34536,-100,4,2,1,60,0,0
35445,-125,4,2,1,50,0,0
41263,-100,4,2,1,60,0,0
44172,-71.4285714285714,4,2,1,60,0,0
44536,-100,4,2,1,60,0,0
46536,-90.9090909090909,4,2,1,60,0,0
46899,-100,4,2,1,60,0,0
47081,-71.4285714285714,4,2,1,60,0,0
47445,-100,4,2,1,60,0,0
52899,-125,4,2,1,60,0,0
53081,-100,4,2,1,60,0,0
53808,-83.3333333333333,4,2,1,60,0,0
54354,-90.9090909090909,4,2,1,80,0,1
65899,-90.9090909090909,4,2,1,80,0,0
65990,-90.9090909090909,4,2,1,80,0,1
86354,-100,4,2,1,70,0,0

[Colours]
Combo1 : 52,164,178
Combo2 : 254,194,206
Combo3 : 179,220,233
Combo4 : 235,142,173

[HitObjects]
32,328,536,5,4,1:2:0:0:
240,168,717,1,0,1:0:0:0:
176,344,899,6,0,P|208:328|304:328,1,95
96,232,1263,2,0,P|32:216|-16:216,1,95
240,168,1626,2,0,P|288:152|336:152,1,95
332,151,1990,5,0,1:0:0:0:
176,344,2172,1,0,1:0:0:0:
160,168,2354,6,0,P|144:120|144:72,1,95
256,248,2717,2,0,P|272:296|272:344,1,95
332,151,3081,2,0,P|320:104|320:40,1,95
318,57,3445,5,0,1:0:0:0:
448,280,3626,1,0,1:0:0:0:
332,151,3808,5,0,0:0:0:0:
272,340,3990,1,0,0:0:0:0:
160,168,4172,2,0,P|112:168|48:184,1,95
256,232,4536,2,0,P|304:248|368:248,1,95
232,56,4899,5,4,1:2:0:0:
348,250,5081,2,0,P|360:104|296:64,1,227.999993041992
216,280,5626,6,0,B|234:243|224:176,1,95,4|0,3:0|0:0,0:0:0:0:
160,144,5869,2,0,B|96:152|48:216,1,113.999996520996,4|0,3:0|0:0,0:0:0:0:
58,273,6111,2,0,B|90:321|160:335,1,113.999996520996,4|0,3:0|0:0,0:0:0:0:
272,343,6354,5,4,1:2:0:0:
278,97,6536,1,0,1:0:0:0:
216,280,6717,2,0,P|216:229|239:163,1,113.999996520996
345,143,7081,2,0,B|401:174|423:246,1,113.999996520996
379,317,7445,2,0,P|330:342|258:339,1,113.999996520996
151,333,7808,5,0,1:0:0:0:
192,64,7990,1,0,1:0:0:0:
62,198,8172,6,0,P|46:262|62:342,1,113.999996520996
191,176,8536,2,0,P|199:112|190:57,1,113.999996520996
320,216,8900,2,0,P|312:280|328:336,1,113.999996520996
323,327,9263,5,0,1:0:0:0:
400,72,9445,1,0,1:0:0:0:
472,208,9626,1,0,0:0:0:0:
392,160,9808,1,0,0:0:0:0:
480,304,9990,1,0,0:0:0:0:
400,256,10172,1,0,0:0:0:0:
323,327,10354,2,0,P|312:272|320:208,1,113.999996520996
472,128,10717,1,4,1:2:0:0:
400,256,10899,2,0,P|296:224|312:104,1,227.999993041992
388,155,11445,6,0,B|370:215|296:226,1,113.999996520996,4|0,3:0|0:0,0:0:0:0:
215,185,11687,2,0,B|175:134|203:66,1,113.999996520996,4|0,3:0|0:0,0:0:0:0:
285,18,11929,2,0,B|348:12|390:65,1,113.999996520996,4|0,3:0|0:0,0:0:0:0:
469,197,12172,6,0,P|477:253|453:325,1,113.999996520996,4|0,0:0|0:0,0:0:0:0:
330,384,12536,2,0,P|258:384|178:352,1,113.999996520996,8|0,0:0|0:0,0:0:0:0:
129,237,12899,1,2,0:0:0:0:
198,77,13081,1,0,0:0:0:0:
298,228,13263,1,8,0:0:0:0:
129,237,13445,6,0,P|129:301|145:381,1,113.999996520996,0|2,0:0|0:0,0:0:0:0:
213,163,13808,2,0,P|140:147|97:147,1,113.999996520996,0|8,0:0|0:0,0:0:0:0:
298,228,14172,2,0,P|310:171|311:115,1,113.999996520996,0|2,0:0|0:0,0:0:0:0:
218,298,14536,1,0,0:0:0:0:
311,115,14717,1,8,0:0:0:0:
100,146,14899,1,0,0:0:0:0:
100,146,14990,1,0,0:0:0:0:
100,146,15081,6,0,L|25:158,2,56.9999982604981,4|0|0,0:0|0:0|0:0,0:0:0:0:
311,115,15445,2,0,P|367:119|422:135,1,113.999996520996,8|2,0:0|0:0,0:0:0:0:
220,171,15809,1,0,0:0:0:0:
422,135,15990,1,0,0:0:0:0:
331,328,16172,1,8,0:0:0:0:
220,171,16354,6,0,P|203:109|167:36,1,113.999996520996,0|2,0:0|0:0,0:0:0:0:
158,264,16717,2,0,P|232:260|274:249,1,113.999996520996,0|8,0:0|0:0,0:0:0:0:
59,223,17081,2,0,P|61:280|75:335,1,113.999996520996,0|2,0:0|0:0,0:0:0:0:
112,112,17445,2,0,P|50:128|-22:164,1,113.999996520996,0|8,0:0|0:0,0:0:0:0:
220,171,17808,1,0,0:0:0:0:
220,171,17990,6,0,P|272:176|320:216,1,113.999996520996,4|0,0:0|0:0,0:0:0:0:
158,264,18354,2,0,P|101:263|56:216,1,113.999996520996,8|0,0:0|0:0,0:0:0:0:
192,72,18717,1,2,0:0:0:0:
318,213,18899,1,0,0:0:0:0:
360,24,19081,1,8,0:0:0:0:
192,152,19263,6,0,P|151:153|87:145,1,95,0|2,0:0|0:0,0:0:0:0:
318,213,19626,2,0,P|358:213|422:229,1,95,0|8,0:0|0:0,0:0:0:0:
200,280,19991,2,0,P|200:336|208:392,1,95,0|2,0:0|0:0,0:0:0:0:
318,213,20354,1,0,0:0:0:0:
204,374,20536,1,8,0:0:0:0:
97,147,20717,1,0,0:0:0:0:
97,147,20808,1,0,0:0:0:0:
97,147,20899,6,0,P|96:72|112:8,1,113.999996520996,4|0,0:0|0:0,0:0:0:0:
240,216,21263,2,0,P|184:232|104:232,1,132.999995941162,8|0,0:0|0:0,0:0:0:0:
224,80,21626,1,2,0:0:0:0:
376,176,21808,1,0,0:0:0:0:
272,328,21990,1,8,0:0:0:0:
109,232,22172,2,0,P|99:182|99:134,1,95,0|8,0:0|0:0,0:0:0:0:
283,234,22536,2,0,P|283:282|267:338,1,95
200,160,22899,5,2,0:0:0:0:
240,136,22989,1,2,0:0:0:0:
288,120,23080,1,2,0:0:0:0:
192,288,23263,5,0,0:0:0:0:
160,312,23354,1,0,0:0:0:0:
128,336,23445,2,0,L|81:343,1,47.5,10|2,0:0|0:0,0:0:0:0:
200,240,23626,5,0,0:0:0:0:
243,218,23717,1,0,0:0:0:0:
288,200,23808,2,0,P|352:200|392:208,1,95,4|0,0:0|0:0,0:0:0:0:
164,300,24172,6,0,P|146:258|142:195,1,95
200,166,24536,2,0,B|256:171|308:215,1,95
297,272,24900,2,0,P|265:309|213:342,1,95
104,344,25263,6,0,P|57:334|13:316,1,95,2|0,0:0|0:0,0:0:0:0:
0,240,25626,2,0,P|40:200|80:176,1,95
144,200,25990,2,0,P|158:256|157:310,1,95
192,144,26354,2,0,B|240:128|304:144,1,95
160,292,26717,5,2,0:0:0:0:
292,252,26899,1,0,0:0:0:0:
252,380,27081,1,8,0:0:0:0:
380,336,27263,1,0,0:0:0:0:
236,304,27445,1,2,0:0:0:0:
268,172,27626,1,0,0:0:0:0:
368,256,27808,1,8,0:0:0:0:
408,120,27990,1,0,0:0:0:0:
144,116,28172,5,2,0:0:0:0:
144,116,28354,2,0,P|112:168|156:248,1,132.999995941162,0|8,0:0|0:0,0:0:0:0:
367,255,28717,2,0,P|323:236|277:230,1,95,0|2,0:0|0:0,0:0:0:0:
144,116,29081,1,0,0:0:0:0:
304,76,29263,1,8,0:0:0:0:
276,229,29445,1,8,0:0:0:0:
264,268,29536,1,8,0:0:0:0:
248,308,29626,6,0,P|214:362|186:391,1,95,4|0,0:0|0:0,0:0:0:0:
228,149,29990,2,0,P|273:155|328:185,1,95
323,250,30354,2,0,B|289:294|224:315,1,95
181,276,30718,2,0,P|166:229|166:167,1,95
195,80,31081,6,0,P|218:37|248:1,1,95,2|0,0:0|0:0,0:0:0:0:
324,10,31445,2,0,P|353:63|359:121,1,95
321,160,31808,2,0,P|272:158|219:146,1,95
360,222,32172,2,0,B|361:272|327:329,1,95
227,148,32535,5,2,0:0:0:0:
226,285,32717,1,0,0:0:0:0:
115,210,32899,1,8,0:0:0:0:
120,345,33081,1,0,0:0:0:0:
192,216,33263,1,2,0:0:0:0:
272,352,33444,1,0,0:0:0:0:
360,222,33626,1,8,0:0:0:0:
452,352,33808,1,0,0:0:0:0:
448,96,33990,5,2,0:0:0:0:
448,96,34172,2,0,P|388:72|304:84,1,132.999995941162,0|8,0:0|0:0,0:0:0:0:
359,315,34536,2,0,P|367:267|358:217,1,95,0|2,0:0|0:0,0:0:0:0:
320,77,34899,1,0,0:0:0:0:
168,124,35081,1,8,0:0:0:0:
216,272,35263,1,8,0:0:0:0:
232,304,35354,1,8,0:0:0:0:
248,336,35445,6,0,P|304:320|384:320,1,114,4|0,0:0|0:0,0:0:0:0:
456,148,36172,2,0,P|360:148|296:132,1,152,8|0,0:0|0:0,0:0:0:0:
264,204,36717,1,0,0:0:0:0:
320,272,36899,6,0,P|320:320|304:360,1,76,2|0,0:0|0:0,0:0:0:0:
184,240,37263,1,0,0:0:0:0:
168,320,37445,1,0,0:0:0:0:
76,148,37626,2,0,P|156:148|228:132,1,152,8|0,0:0|0:0,0:0:0:0:
348,48,38171,1,0,0:0:0:0:
408,104,38354,6,0,P|408:152|424:192,1,76,0|0,0:0|0:0,0:0:0:0:
360,232,38717,2,0,P|361:269|351:306,1,76,0|0,0:0|0:0,0:0:0:0:
288,352,39081,2,0,P|240:352|200:368,1,76
160,304,39444,2,0,P|122:305|85:295,1,76,0|0,0:0|0:0,0:0:0:0:
308,68,39808,5,2,0:0:0:0:
375,215,39990,1,2,0:0:0:0:
392,116,40172,1,8,0:0:0:0:
302,162,40354,1,2,0:0:0:0:
224,32,40536,6,2,L|160:20,2,50.6666666666667
308,68,40899,2,2,L|372:80,2,50.6666666666667
224,120,41263,6,0,P|217:218|263:299,1,190
337,181,41808,1,0,0:0:0:0:
460,233,41990,2,0,P|447:162|422:109,1,95,2|0,0:0|0:0,0:0:0:0:
357,271,42354,2,0,P|365:318|389:362,1,95,8|0,0:0|0:0,0:0:0:0:
259,296,42717,2,0,P|246:225|221:172,1,95,2|0,0:0|0:0,0:0:0:0:
147,328,43081,5,0,0:0:0:0:
27,224,43263,2,0,P|14:153|20:95,1,95,2|0,0:0|0:0,0:0:0:0:
139,222,43626,1,0,0:0:0:0:
145,248,43716,1,0,0:0:0:0:
148,275,43807,1,0,0:0:0:0:
149,302,43898,1,0,0:0:0:0:
147,328,43990,2,0,L|194:328,1,47.5
357,271,44172,2,0,P|342:188|315:128,1,132.999995941162,2|0,0:0|0:0,0:0:0:0:
323,143,44536,5,0,0:0:0:0:
194,328,44717,1,0,0:0:0:0:
357,271,44899,2,0,P|416:272|464:288,1,95,2|0,0:0|0:0,0:0:0:0:
256,232,45263,2,0,P|208:232|160:216,1,95,8|0,0:0|0:0,0:0:0:0:
323,143,45626,6,0,P|384:144|424:120,1,95,2|0,0:0|0:0,0:0:0:0:
128,112,45990,1,0,0:0:0:0:
256,232,46172,1,0,0:0:0:0:
288,48,46354,1,0,0:0:0:0:
288,48,46536,2,0,P|196:30|128:119,1,209.000006378174
413,129,47081,2,0,P|416:56|384:0,1,132.999995941162,4|8,0:0|0:0,0:0:0:0:
388,4,47445,5,0,0:0:0:0:
296,208,47626,1,0,0:0:0:0:
232,80,47808,2,0,P|200:40|136:8,1,95,2|0,0:0|0:0,0:0:0:0:
163,16,48172,1,0,0:0:0:0:
213,235,48354,1,0,0:0:0:0:
213,235,48536,6,0,P|256:288|368:272,1,190,2|0,0:0|0:0,0:0:0:0:
480,168,49081,1,2,0:0:0:0:
480,168,49263,1,2,0:0:0:0:
352,136,49445,1,2,0:0:0:0:
352,136,49626,1,2,0:0:0:0:
424,344,49809,1,0,0:0:0:0:
424,344,49990,6,0,P|360:372|276:280,1,190,2|8,0:0|0:0,0:0:0:0:
256,144,50536,1,0,0:0:0:0:
256,144,50717,2,0,P|200:144|164:188,1,95,2|0,0:0|0:0,0:0:0:0:
32,352,51081,2,0,P|88:348|128:308,1,95,8|0,0:0|0:0,0:0:0:0:
232,216,51445,6,8,L|172:224,1,47.5
64,280,51626,2,8,L|120:272,1,47.5
256,208,51808,2,8,P|200:208|160:240,1,95
32,352,52172,2,0,P|88:352|136:312,1,95,2|0,0:0|0:0,0:0:0:0:
336,232,52536,2,8,P|329:176|312:128,1,95
192,48,52899,6,0,L|136:72,1,38
24,184,53081,2,8,P|72:192|128:152,1,95,8|8,0:1|0:0,0:0:0:0:
304,40,53445,1,0,0:0:0:0:
304,40,53536,1,0,0:0:0:0:
304,40,53626,1,0,0:0:0:0:
304,40,53717,1,0,0:0:0:0:
304,40,53808,6,0,P|240:168|344:232,1,284.999991302491
