osu file format v14

[General]
AudioFilename: audio.mp3
AudioLeadIn: 0
PreviewTime: 131668
Countdown: 0
SampleSet: None
StackLeniency: 1
Mode: 1
LetterboxInBreaks: 0
WidescreenStoryboard: 0

[Editor]
Bookmarks: 12172,23808
DistanceSpacing: 1
BeatDivisor: 2
GridSize: 32
TimelineZoom: 1

[Metadata]
Title:Hitorigoto
TitleUnicode:ヒトリゴト
Artist:ClariS
ArtistUnicode:ClariS
Creator:Vulkin
Version:Kantan
Source:エロマンガ先生
Tags:eromanga sensei ero manga 和泉 正宗 紗霧 いずみ まさむね さぎり izumi masamune sagiri 妹 imouto op tv size opening
BeatmapID:1601937
BeatmapSetID:761880

[Difficulty]
HPDrainRate:7
CircleSize:7
OverallDifficulty:3
ApproachRate:10
SliderMultiplier:1.4
SliderTickRate:1

[Events]
//Background and Video events
0,0,"eromanga_sensei-sagiri_izumi-anime-(17820).jpg",0,0
//Break Periods
//Storyboard Layer 0 (Background)
//Storyboard Layer 1 (Fail)
//Storyboard Layer 2 (Pass)
//Storyboard Layer 3 (Foreground)
//Storyboard Sound Samples

[TimingPoints]
759,363.636363636364,4,1,0,80,1,0
35668,-125,4,1,0,80,0,0
41486,-111.111111111111,4,1,0,80,0,0
54577,-100,4,1,0,80,0,1
65486,-100,4,1,0,80,0,0
66213,-100,4,1,0,80,0,1
89486,-100,4,1,0,80,0,0
112759,-125,4,1,0,80,0,0
118577,-111.111111111111,4,1,0,80,0,0
131668,-100,4,1,0,80,0,1
142577,-100,4,1,0,80,0,0
143304,-100,4,1,0,80,0,1
166577,-100,4,1,0,80,0,0
194940,363.636363636364,4,1,0,80,1,1
228394,-100,4,1,0,80,0,0

[HitObjects]
256,192,759,5,12,0:0:0:0:
256,192,1668,1,0,0:0:0:0:
256,192,2213,1,12,0:0:0:0:
256,192,3122,1,8,0:0:0:0:
256,192,3668,1,12,0:0:0:0:
256,192,5122,1,4,0:0:0:0:
256,192,5849,1,0,0:0:0:0:
256,192,6577,1,12,0:0:0:0:
256,192,7486,1,0,0:0:0:0:
256,192,8031,1,12,0:0:0:0:
256,192,8940,1,8,0:0:0:0:
256,192,9486,1,12,0:0:0:0:
256,192,10940,1,4,0:0:0:0:
256,192,11668,1,0,0:0:0:0:
256,192,12395,1,12,0:0:0:0:
256,192,13849,1,0,0:0:0:0:
256,192,14577,1,8,0:0:0:0:
256,192,15304,1,0,0:0:0:0:
256,192,16759,1,8,0:0:0:0:
256,192,17486,1,8,0:0:0:0:
256,192,17849,1,8,0:0:0:0:
256,192,18213,1,0,0:0:0:0:
256,192,19668,1,0,0:0:0:0:
256,192,20395,1,8,0:0:0:0:
256,192,21122,1,0,0:0:0:0:
256,192,22577,1,8,0:0:0:0:
256,192,23304,1,8,0:0:0:0:
256,192,23668,1,0,0:0:0:0:
256,192,24031,1,12,0:0:0:0:
256,192,25486,1,8,0:0:0:0:
256,192,26213,1,8,0:0:0:0:
256,192,26940,1,0,0:0:0:0:
256,192,28395,1,0,0:0:0:0:
256,192,28940,1,8,0:0:0:0:
256,192,29486,1,8,0:0:0:0:
256,192,29849,1,4,0:0:0:0:
256,192,31304,1,8,0:0:0:0:
256,192,32031,1,8,0:0:0:0:
256,192,32759,1,0,0:0:0:0:
256,192,34213,1,0,0:0:0:0:
256,192,34759,1,8,0:0:0:0:
256,192,35304,1,0,0:0:0:0:
256,192,35668,1,12,0:0:0:0:
256,192,37122,1,8,0:0:0:0:
256,192,38577,1,0,0:0:0:0:
256,192,39304,1,8,0:0:0:0:
256,192,40031,1,0,0:0:0:0:
256,192,41486,1,4,0:0:0:0:
256,192,42940,1,8,0:0:0:0:
256,192,43668,1,0,0:0:0:0:
256,192,44395,1,8,0:0:0:0:
256,192,45849,1,0,0:0:0:0:
256,192,46577,1,0,0:0:0:0:
256,192,47304,1,12,0:0:0:0:
256,192,48759,1,0,0:0:0:0:
256,192,49486,1,0,0:0:0:0:
256,192,49849,1,0,0:0:0:0:
256,192,50213,1,8,0:0:0:0:
256,192,50940,1,0,0:0:0:0:
256,192,51668,1,8,0:0:0:0:
256,192,53122,1,8,0:0:0:0:
256,192,53668,1,0,0:0:0:0:
256,192,54577,1,12,0:0:0:0:
256,192,56031,1,8,0:0:0:0:
256,192,56395,1,0,0:0:0:0:
256,192,56759,1,8,0:0:0:0:
256,192,57486,1,12,0:0:0:0:
256,192,58940,1,0,0:0:0:0:
256,192,59304,1,0,0:0:0:0:
256,192,59668,1,8,0:0:0:0:
256,192,60395,1,12,0:0:0:0:
256,192,61122,1,8,0:0:0:0:
256,192,61486,1,8,0:0:0:0:
256,192,61849,1,4,0:0:0:0:
256,192,62577,1,0,0:0:0:0:
256,192,62940,1,0,0:0:0:0:
256,192,63304,1,8,0:0:0:0:
256,192,63668,1,0,0:0:0:0:
256,192,64031,1,8,0:0:0:0:
256,192,64759,1,8,0:0:0:0:
256,192,65122,1,8,0:0:0:0:
256,192,65486,1,0,0:0:0:0:
256,192,66213,1,12,0:0:0:0:
256,192,67668,1,8,0:0:0:0:
256,192,68031,1,0,0:0:0:0:
256,192,68395,1,8,0:0:0:0:
256,192,69122,1,12,0:0:0:0:
256,192,70577,1,0,0:0:0:0:
256,192,70940,1,0,0:0:0:0:
256,192,71304,1,8,0:0:0:0:
256,192,72031,1,12,0:0:0:0:
256,192,73486,1,4,0:0:0:0:
256,192,74213,1,0,0:0:0:0:
256,192,74577,1,0,0:0:0:0:
256,192,74940,1,8,0:0:0:0:
256,192,75304,1,0,0:0:0:0:
256,192,75668,1,8,0:0:0:0:
256,192,76395,1,8,0:0:0:0:
256,192,76759,1,8,0:0:0:0:
256,192,77122,1,0,0:0:0:0:
256,192,77486,1,0,0:0:0:0:
256,192,77849,1,12,0:0:0:0:
256,192,78577,1,8,0:0:0:0:
256,192,79304,1,0,0:0:0:0:
256,192,79668,1,0,0:0:0:0:
256,192,80031,1,8,0:0:0:0:
256,192,80395,1,0,0:0:0:0:
256,192,80759,1,8,0:0:0:0:
256,192,81486,1,8,0:0:0:0:
256,192,81849,1,0,0:0:0:0:
256,192,82213,1,8,0:0:0:0:
256,192,83668,1,4,0:0:0:0:
256,192,84395,1,0,0:0:0:0:
256,192,84759,1,0,0:0:0:0:
256,192,85122,1,8,0:0:0:0:
256,192,85486,1,0,0:0:0:0:
256,192,85849,1,8,0:0:0:0:
256,192,86577,1,12,0:0:0:0:
256,192,87849,1,12,0:0:0:0:
256,192,88759,1,0,0:0:0:0:
256,192,89122,1,0,0:0:0:0:
256,192,89486,1,12,0:0:0:0:
