osu file format v14

[General]
AudioFilename: eromanga2.mp3
AudioLeadIn: 0
PreviewTime: 172
Countdown: 0
SampleSet: Soft
StackLeniency: 0.8
Mode: 0
LetterboxInBreaks: 0
WidescreenStoryboard: 1

[Editor]
DistanceSpacing: 1.2
BeatDivisor: 4
GridSize: 4
TimelineZoom: 1.5

[Metadata]
Title:Hitorigoto (TV Size)
TitleUnicode:ヒトリゴト (TV Size)
Artist:ClariS
ArtistUnicode:ClariS
Creator:pishifat
Version:Easy
Source:エロマンガ先生
Tags:eromanga sensei ero manga eromanga-sensei eromangasensei opening
BeatmapID:1576518
BeatmapSetID:604486

[Difficulty]
HPDrainRate:3
CircleSize:3
OverallDifficulty:2
ApproachRate:3
SliderMultiplier:0.999999999999999
SliderTickRate:1

[Events]
//Background and Video events
0,0,"61ea97175170bf44eea95348da930c2a.jpg",0,0
Video,-430,"eromanga opening.avi"
//Break Periods
//Storyboard Layer 0 (Background)
//Storyboard Layer 1 (Fail)
//Storyboard Layer 2 (Pass)
//Storyboard Layer 3 (Foreground)
//Storyboard Sound Samples

[TimingPoints]
536,363.636363636364,4,2,1,80,1,0
536,-125,4,2,1,80,0,0
899,-125,4,2,1,80,0,0
1445,-125,4,2,1,80,0,0
1808,-125,4,2,1,40,0,0
1990,-125,4,2,1,80,0,0
2899,-125,4,2,1,80,0,0
3263,-125,4,2,1,40,0,0
3445,-125,4,2,1,80,0,0
4354,-125,4,2,1,80,0,0
4717,-125,4,2,1,40,0,0
4899,-125,4,2,1,80,0,0
6354,-125,4,2,1,80,0,0
7263,-125,4,2,1,80,0,0
7626,-125,4,2,1,40,0,0
7808,-125,4,2,1,80,0,0
8717,-125,4,2,1,80,0,0
9081,-125,4,2,1,40,0,0
9263,-125,4,2,1,80,0,0
10172,-125,4,2,1,80,0,0
10536,-125,4,2,1,40,0,0
10717,-125,4,2,1,80,0,0
11445,-125,4,2,1,60,0,0
11536,-125,4,2,1,50,0,0
11626,-125,4,2,1,65,0,0
11717,-125,4,2,1,55,0,0
11808,-125,4,2,1,70,0,0
11899,-125,4,2,1,60,0,0
11990,-125,4,2,1,75,0,0
12081,-125,4,2,1,65,0,0
12172,-125,4,2,1,80,0,0
14808,-125,4,2,1,5,0,0
14899,-125,4,2,1,80,0,0
20626,-125,4,2,1,5,0,0
20717,-125,4,2,1,80,0,0
23808,-125,4,2,1,60,0,0
27445,-125,4,2,1,60,0,0
27808,-125,4,2,1,60,0,0
28172,-125,4,2,1,60,0,0
28717,-125,4,2,1,60,0,0
29263,-125,4,2,1,60,0,0
29990,-125,4,2,1,60,0,0
33263,-125,4,2,1,60,0,0
33626,-125,4,2,1,60,0,0
33990,-125,4,2,1,60,0,0
34536,-125,4,2,1,60,0,0
35081,-125,4,2,1,60,0,0
35445,-125,4,2,1,50,0,0
35808,-125,4,2,1,50,0,0
41263,-125,4,2,1,60,0,0
41626,-125,4,2,1,60,0,0
43445,-125,4,2,1,60,0,0
43990,-125,4,2,1,60,0,0
44536,-125,4,2,1,60,0,0
46354,-125,4,2,1,60,0,0
46899,-125,4,2,1,60,0,0
47445,-125,4,2,1,60,0,0
52717,-125,4,2,1,60,0,0
52899,-125,4,2,1,60,0,0
53081,-125,4,2,1,60,0,0
54172,-125,4,2,1,30,0,0
54354,-125,4,2,1,80,0,1
56717,-125,4,2,1,80,0,1
57445,-125,4,2,1,80,0,1
59626,-125,4,2,1,80,0,1
60354,-125,4,2,1,80,0,1
63081,-125,4,2,1,80,0,1
63808,-125,4,2,1,80,0,1
64536,-125,4,2,1,80,0,1
64899,-125,4,2,1,80,0,1
65263,-125,4,2,1,80,0,1
65626,-125,4,2,1,80,0,1
65899,-125,4,2,1,80,0,0
65990,-125,4,2,1,80,0,1
68354,-125,4,2,1,80,0,1
69081,-125,4,2,1,80,0,1
71263,-125,4,2,1,80,0,1
71899,-125,4,2,1,80,0,1
74717,-125,4,2,1,80,0,1
76172,-125,4,2,1,80,0,1
85808,-125,4,2,1,80,0,1
85990,-125,4,2,1,80,0,1
86172,-125,4,2,1,80,0,1
86354,-125,4,2,1,70,0,0

[Colours]
Combo1 : 255,179,255
Combo2 : 128,255,255
Combo3 : 128,255,128
Combo4 : 255,255,128

[HitObjects]
68,54,536,6,0,L|80:109,1,40,12|8,1:2|0:0,0:0:0:0:
356,78,1990,2,0,L|368:133,1,40,8|8,0:0|0:0,0:0:0:0:
93,193,3445,2,0,L|105:248,1,40,8|8,0:0|0:0,0:0:0:0:
342,374,4899,2,0,P|432:367|495:321,1,160,4|2,1:2|1:3,0:0:0:0:
475,169,6354,6,0,L|418:160,1,40,8|8,0:0|0:0,0:0:0:0:
238,362,7808,2,0,L|181:353,1,40,8|8,0:0|0:0,0:0:0:0:
324,105,9263,2,0,L|267:96,1,40,8|8,0:0|0:0,0:0:0:0:
9,45,10717,2,0,P|-17:113|-17:135,1,79.9999999999999,4|0,1:2|0:0,0:0:0:0:
15,201,11445,1,2,1:3:0:0:
156,96,12172,6,0,P|244:88|311:138,1,160,4|4,0:1|0:3,0:0:0:0:
388,224,13445,2,0,L|379:315,1,79.9999999999999,2|2,0:0|0:0,0:0:0:0:
295,278,14172,2,0,L|286:369,1,79.9999999999999,2|2,0:0|0:0,0:0:0:0:
152,375,15081,6,0,P|104:355|76:319,1,79.9999999999999,4|2,0:0|1:3,0:0:0:0:
45,258,15808,1,4,0:3:0:0:
129,156,16354,2,0,P|115:98|97:64,1,79.9999999999999,2|2,0:0|0:0,0:0:0:0:
173,23,17081,2,0,P|229:52|248:72,2,79.9999999999999,2|2|4,0:0|0:0|1:0,0:0:0:0:
129,156,18354,5,8,0:0:0:0:
197,211,18717,1,4,0:3:0:0:
321,166,19263,2,0,L|418:178,1,79.9999999999999,2|2,0:0|0:0,0:0:0:0:
390,263,19990,2,0,L|487:275,1,79.9999999999999,2|2,0:0|0:0,0:0:0:0:
352,370,20899,6,0,P|303:343|279:318,1,79.9999999999999,4|8,0:0|0:0,0:0:0:0:
239,251,21626,1,4,0:3:0:0:
114,294,22172,2,0,P|105:237|109:204,1,79.9999999999999,2|2,0:0|0:0,0:0:0:0:
42,154,22899,2,0,P|62:100|82:73,2,79.9999999999999,2|0|4,0:0|1:0|1:0,0:0:0:0:
36,285,24172,6,0,L|211:265,1,160,8|8,0:3|0:3,0:0:0:0:
265,214,25263,2,0,L|348:225,1,79.9999999999999,4|8,0:3|0:3,0:0:0:0:
357,137,25990,2,0,L|277:126,2,79.9999999999999,4|8|6,0:3|0:3|0:3,0:0:0:0:
426,83,27081,5,8,0:3:0:0:
488,144,27445,2,0,P|505:187|506:228,1,79.9999999999999,4|8,0:3|0:3,0:0:0:0:
466,298,28172,2,0,P|405:302|348:335,2,120,4|2|8,0:3|0:0|0:0,0:0:0:0:
506,220,29626,5,4,1:2:0:0:
443,158,29990,2,0,L|277:137,1,160,8|8,0:3|0:3,0:0:0:0:
218,79,31081,2,0,P|172:89|132:118,1,79.9999999999999,4|8,0:3|0:3,0:0:0:0:
60,133,31808,2,0,P|45:192|48:217,2,79.9999999999999,4|8|6,0:3|0:3|0:3,0:0:0:0:
144,106,32899,5,8,0:3:0:0:
190,180,33263,2,0,L|281:193,1,79.9999999999999,4|8,0:3|0:3,0:0:0:0:
346,149,33990,2,0,P|334:72|309:18,2,120,4|2|8,0:3|0:0|0:0,0:0:0:0:
344,237,35445,6,0,P|280:258|232:344,2,160,4|8|4,1:2|0:0|0:3,0:0:0:0:
496,324,37626,1,8,0:0:0:0:
493,147,38354,6,0,P|455:95|353:68,1,160,6|8,0:2|0:0,0:0:0:0:
200,120,39808,2,0,B|120:110|120:110|73:38,2,160,4|8|4,0:3|0:0|1:2,0:0:0:0:
285,142,41626,6,0,P|310:197|310:226,1,79.9999999999999,8|8,0:3|0:3,0:0:0:0:
377,273,42354,2,0,P|371:312|351:346,1,79.9999999999999,8|8,0:3|0:3,0:0:0:0:
263,359,43081,2,0,L|171:345,1,79.9999999999999,8|10,0:3|0:3,0:0:0:0:
53,324,43990,1,2,0:3:0:0:
140,225,44536,6,0,P|129:155|117:135,1,79.9999999999999,8|8,0:3|0:3,0:0:0:0:
143,61,45263,2,0,P|179:77|208:105,1,79.9999999999999,8|8,0:3|0:3,0:0:0:0:
284,148,45990,2,0,L|381:133,1,79.9999999999999,8|10,0:3|0:3,0:0:0:0:
493,117,46899,1,2,0:3:0:0:
454,243,47445,6,0,P|476:292|498:318,1,79.9999999999999,8|8,0:3|0:3,0:0:0:0:
439,383,48172,2,0,P|399:376|362:361,1,79.9999999999999,8|8,0:3|0:3,0:0:0:0:
301,297,48899,1,8,0:3:0:0:
221,334,49263,1,8,0:3:0:0:
162,268,49626,1,8,0:3:0:0:
90,319,49990,6,0,P|43:273|14:172,1,160,8|8,0:3|0:3,0:0:0:0:
52,105,51081,1,8,0:3:0:0:
127,60,51445,2,0,P|191:89|212:91,1,79.9999999999999,8|8,0:3|0:3,0:0:0:0:
271,142,52172,2,0,P|336:123|358:109,1,79.9999999999999,8|8,0:3|0:3,0:0:0:0:
393,42,52899,6,0,B|440:80|440:80|432:156,1,120,2|4,1:3|1:2,0:0:0:0:
407,357,54354,6,0,P|374:311|343:295,1,79.9999999999999,4|8,1:1|0:0,0:0:0:0:
267,315,55081,2,0,P|234:361|203:377,1,79.9999999999999,4|8,0:3|0:0,0:0:0:0:
127,360,55808,2,0,L|105:224,1,120,4|2,0:3|0:0,0:0:0:0:
96,154,56717,1,2,1:3:0:0:
200,72,57263,5,4,1:2:0:0:
271,122,57626,1,8,0:0:0:0:
355,97,57990,2,0,P|414:116|435:134,1,79.9999999999999,4|8,0:3|0:0,0:0:0:0:
475,200,58717,2,0,L|459:337,1,120,4|2,0:3|0:0,0:0:0:0:
387,367,59626,1,2,1:3:0:0:
308,260,60172,6,0,P|263:273|226:302,1,79.9999999999999,4|8,1:2|0:0,0:0:0:0:
163,342,60899,2,0,P|118:329|81:300,1,79.9999999999999,4|8,0:3|0:0,0:0:0:0:
55,229,61626,2,0,L|66:135,2,79.9999999999999,4|8|4,0:0|0:0|0:3,0:0:0:0:
91,310,62717,1,8,0:0:0:0:
141,237,63081,6,0,P|183:219|234:217,1,79.9999999999999,4|8,0:0|0:0,0:0:0:0:
265,141,63808,2,0,P|304:146|340:162,1,79.9999999999999,4|8,0:0|0:0,0:0:0:0:
420,124,64536,1,4,0:3:0:0:
459,294,65263,1,6,0:3:0:0:
383,339,65626,1,8,0:0:0:0:
295,326,65990,6,0,P|226:346|207:363,1,79.9999999999999,4|8,0:0|0:0,0:0:0:0:
135,329,66717,2,0,P|116:293|110:254,1,79.9999999999999,4|8,0:3|0:0,0:0:0:0:
123,167,67445,2,0,L|256:154,1,120,4|2,0:3|0:0,0:0:0:0:
330,147,68354,1,2,1:3:0:0:
422,52,68899,5,4,1:2:0:0:
344,10,69263,1,8,0:0:0:0:
261,38,69626,2,0,L|179:28,1,79.9999999999999,4|8,0:3|0:0,0:0:0:0:
93,18,70354,2,0,P|58:120|62:145,1,120,4|2,0:3|0:0,0:0:0:0:
86,212,71263,1,2,1:3:0:0:
199,144,71808,6,0,P|241:153|277:178,1,79.9999999999999,4|8,1:2|0:0,0:0:0:0:
333,236,72536,2,0,P|390:224|417:208,1,79.9999999999999,4|8,0:3|0:0,0:0:0:0:
486,160,73263,2,0,L|499:241,2,79.9999999999999,4|8|4,0:0|0:0|0:3,0:0:0:0:
474,72,74354,1,8,0:0:0:0:
403,19,74717,6,0,P|331:35|268:98,1,160,4|4,0:0|0:0,0:0:0:0:
94,83,76172,2,0,L|109:174,1,79.9999999999999,4|8,0:0|0:0,0:0:0:0:
39,218,76899,2,0,L|54:309,1,79.9999999999999,0|8,1:0|0:2,0:0:0:0:
102,369,77626,6,0,P|174:353|237:290,1,160,4|4,0:0|0:3,0:0:0:0:
363,174,79081,2,0,L|449:184,1,79.9999999999999,4|8,0:3|0:0,0:0:0:0:
453,95,79808,2,0,L|373:85,1,79.9999999999999,4|8,0:3|0:0,0:0:0:0:
294,45,80536,6,0,B|206:24|223:106|135:78,1,160,4|4,0:0|0:3,0:0:0:0:
64,47,81626,1,8,0:0:0:0:
13,119,81990,2,0,P|21:195|30:209,1,79.9999999999999,4|8,0:3|0:0,0:0:0:0:
11,283,82717,2,0,P|70:331|86:334,1,79.9999999999999,4|8,0:3|0:0,0:0:0:0:
155,301,83445,6,0,L|331:286,1,160,4|4,0:0|0:3,0:0:0:0:
386,336,84536,1,8,0:0:0:0:
458,285,84899,2,0,P|480:224|475:193,1,79.9999999999999,4|8,0:3|0:0,0:0:0:0:
398,174,85626,2,0,P|376:113|381:82,1,79.9999999999999,4|0,1:3|1:0,0:0:0:0:
256,192,86354,12,4,87717,0:0:0:0:
