osu file format v14

[General]
AudioFilename: audio.mp3
AudioLeadIn: 0
PreviewTime: 160235
Countdown: 0
SampleSet: Soft
StackLeniency: 0.7
Mode: 0
LetterboxInBreaks: 0
WidescreenStoryboard: 0

[Editor]
Bookmarks: 12142,22575,38223,48656,81257,91690,119075,137332,150373,175802,194059
DistanceSpacing: 2.4
BeatDivisor: 4
GridSize: 32
TimelineZoom: 1.7

[Metadata]
Title:Hitorigoto (Nightcore.ver)
TitleUnicode:Hitorigoto (Nightcore.ver)
Artist:ClariS
ArtistUnicode:ClariS
Creator:Kokezigoku
Version:Onii-chan (AR10)
Source:エロ漫画先生
Tags:ero manga sensei op Opening full nightcore umira 和泉 紗霧 izumi sagiri
BeatmapID:1852856
BeatmapSetID:874157

[Difficulty]
HPDrainRate:6
CircleSize:4
OverallDifficulty:9.6
ApproachRate:10
SliderMultiplier:1.8
SliderTickRate:1

[Events]
//Background and Video events
0,0,"ero.jpg",0,0
//Break Periods
2,150573,159791
//Storyboard Layer 0 (Background)
//Storyboard Layer 1 (Fail)
//Storyboard Layer 2 (Pass)
//Storyboard Layer 3 (Foreground)
//Storyboard Sound Samples

[TimingPoints]
406,326.016083460117,4,2,1,60,1,0
406,-133.333333333333,4,2,0,60,0,0
2280,-133.333333333333,4,2,1,5,0,0
2362,-133.333333333333,4,2,1,60,0,0
2606,-133.333333333333,4,2,1,5,0,0
2688,-133.333333333333,4,2,1,60,0,0
2932,-133.333333333333,4,2,1,5,0,0
3014,-133.333333333333,4,2,0,60,0,0
3584,-133.333333333333,4,2,1,5,0,0
3666,-133.333333333333,4,2,1,60,0,0
3910,-133.333333333333,4,2,1,5,0,0
3992,-133.333333333333,4,2,1,60,0,0
4236,-133.333333333333,4,2,1,5,0,0
4318,-133.333333333333,4,2,0,60,0,0
5133,-133.333333333333,4,2,1,60,0,0
6274,-133.333333333333,4,2,0,60,0,0
7496,-133.333333333333,4,2,1,5,0,0
7578,-133.333333333333,4,2,1,60,0,0
7822,-133.333333333333,4,2,1,5,0,0
7904,-133.333333333333,4,2,1,60,0,0
8148,-133.333333333333,4,2,1,5,0,0
8230,-133.333333333333,4,2,0,60,0,0
8800,-133.333333333333,4,2,1,5,0,0
8882,-133.333333333333,4,2,1,60,0,0
9126,-133.333333333333,4,2,1,5,0,0
9208,-133.333333333333,4,2,1,60,0,0
9452,-133.333333333333,4,2,1,5,0,0
9534,-133.333333333333,4,2,0,60,0,0
10349,-133.333333333333,4,2,1,60,0,0
11490,-133.333333333333,4,2,0,60,0,0
12142,-111.111111111111,4,2,1,60,0,0
22575,-111.111111111111,4,2,0,50,0,0
22901,-111.111111111111,4,2,1,60,0,0
25183,-111.111111111111,4,2,0,60,0,0
25509,-111.111111111111,4,2,1,60,0,0
30399,-111.111111111111,4,2,0,60,0,0
30725,-111.111111111111,4,2,1,60,0,0
33007,-133.333333333333,4,2,1,60,0,0
33578,-133.333333333333,4,2,1,5,0,0
33659,-133.333333333333,4,2,1,60,0,0
33904,-133.333333333333,4,2,1,5,0,0
33985,-133.333333333333,4,2,1,60,0,0
34230,-133.333333333333,4,2,1,5,0,0
34311,-133.333333333333,4,2,1,60,0,0
34719,-133.333333333333,4,2,1,5,0,0
34800,-133.333333333333,4,2,1,60,0,0
35208,-133.333333333333,4,2,1,5,0,0
35289,-133.333333333333,4,2,1,60,0,0
35534,-133.333333333333,4,2,1,5,0,0
35615,-133.333333333333,4,2,1,60,0,0
35860,-133.333333333333,4,2,1,5,0,0
35941,-133.333333333333,4,2,1,60,0,0
36186,-133.333333333333,4,2,1,5,0,0
36267,-133.333333333333,4,2,1,60,0,0
36512,-133.333333333333,4,2,1,5,0,0
36593,-133.333333333333,4,2,1,60,0,0
36838,-133.333333333333,4,2,1,5,0,0
36919,-133.333333333333,4,2,1,60,0,0
37327,-133.333333333333,4,2,1,5,0,0
37408,-133.333333333333,4,2,1,60,0,0
37490,-133.333333333333,4,2,1,5,0,0
37571,-133.333333333333,4,2,1,60,0,0
38549,-111.111111111111,4,2,1,60,0,0
40668,-66.6666666666667,4,2,1,60,0,0
40831,-105.263157894737,4,2,1,60,0,0
43277,-66.6666666666667,4,2,1,60,0,0
43440,-100,4,2,1,60,0,0
48656,-100,4,2,0,60,0,0
48982,-100,4,2,1,60,0,0
49960,-83.3333333333333,4,2,1,70,0,1
68217,-100,4,2,1,60,0,0
69521,-58.8235294117647,4,2,1,60,0,0
69765,-58.8235294117647,4,2,1,5,0,0
69847,-58.8235294117647,4,2,1,60,0,0
70091,-58.8235294117647,4,2,1,5,0,0
70173,-58.8235294117647,4,2,1,60,0,0
70417,-58.8235294117647,4,2,1,5,0,0
70499,-58.8235294117647,4,2,0,60,0,0
70825,-100,4,2,1,60,0,0
72129,-58.8235294117647,4,2,1,60,0,0
72374,-58.8235294117647,4,2,1,5,0,0
72455,-58.8235294117647,4,2,1,60,0,0
72700,-58.8235294117647,4,2,1,5,0,0
72781,-58.8235294117647,4,2,1,60,0,0
73026,-58.8235294117647,4,2,1,5,0,0
73107,-58.8235294117647,4,2,0,60,0,0
73189,-58.8235294117647,4,2,1,5,0,0
73270,-58.8235294117647,4,2,0,60,0,0
73352,-58.8235294117647,4,2,1,5,0,0
73433,-100,4,2,1,60,0,0
80768,-100,4,2,1,65,0,0
80931,-100,4,2,1,70,0,0
81094,-100,4,2,1,75,0,0
81257,-111.111111111111,4,2,1,60,0,0
94298,-111.111111111111,4,2,0,60,0,0
94624,-111.111111111111,4,2,1,60,0,0
99514,-111.111111111111,4,2,0,60,0,0
99840,-111.111111111111,4,2,1,60,0,0
102123,-125,4,2,1,60,0,0
102449,-125,4,2,1,60,0,0
102693,-125,4,2,1,5,0,0
102775,-125,4,2,1,60,0,0
103019,-125,4,2,1,5,0,0
103101,-125,4,2,1,60,0,0
103345,-125,4,2,1,5,0,0
103427,-125,4,2,1,60,0,0
103834,-125,4,2,1,5,0,0
103916,-125,4,2,1,60,0,0
104323,-125,4,2,1,5,0,0
104405,-125,4,2,1,60,0,0
104649,-125,4,2,1,5,0,0
104731,-125,4,2,1,60,0,0
104975,-125,4,2,1,5,0,0
105057,-125,4,2,1,60,0,0
105301,-125,4,2,1,5,0,0
105383,-125,4,2,1,60,0,0
105627,-125,4,2,1,5,0,0
105709,-125,4,2,1,60,0,0
105953,-125,4,2,1,5,0,0
106035,-125,4,2,1,60,0,0
106442,-125,4,2,1,5,0,0
106524,-125,4,2,1,60,0,0
106605,-125,4,2,1,5,0,0
106687,-125,4,2,1,60,0,0
107339,-111.111111111111,4,2,1,60,0,0
109784,-66.6666666666667,4,2,1,60,0,0
109947,-105.263157894737,4,2,1,60,0,0
112392,-66.6666666666667,4,2,1,60,0,0
112555,-100,4,2,1,60,0,0
117771,-100,4,2,0,60,0,0
118097,-100,4,2,1,60,0,0
119075,-83.3333333333333,4,2,1,60,0,1
137332,-100,4,2,1,60,0,0
138636,-58.8235294117647,4,2,1,60,0,0
138881,-58.8235294117647,4,2,1,5,0,0
138962,-58.8235294117647,4,2,1,60,0,0
139207,-58.8235294117647,4,2,1,5,0,0
139288,-58.8235294117647,4,2,1,60,0,0
139533,-58.8235294117647,4,2,1,5,0,0
139614,-58.8235294117647,4,2,0,60,0,0
139696,-58.8235294117647,4,2,1,5,0,0
139777,-58.8235294117647,4,2,0,60,0,0
139859,-58.8235294117647,4,2,1,5,0,0
139940,-58.8235294117647,4,2,1,60,0,0
141244,-58.8235294117647,4,2,1,60,0,0
141489,-58.8235294117647,4,2,1,5,0,0
141570,-58.8235294117647,4,2,1,60,0,0
141815,-58.8235294117647,4,2,1,5,0,0
141896,-58.8235294117647,4,2,1,60,0,0
142141,-58.8235294117647,4,2,1,5,0,0
142222,-58.8235294117647,4,2,0,60,0,0
142386,-58.8235294117647,4,2,0,60,0,0
142467,-58.8235294117647,4,2,1,5,0,0
142549,-58.8235294117647,4,2,1,60,0,0
143853,-100,4,2,1,60,0,0
166755,-100,4,2,1,5,0,0
166837,-100,4,2,1,60,0,0
167081,-100,4,2,1,5,0,0
167163,-100,4,2,1,60,0,0
174498,-100,4,2,1,65,0,0
174661,-100,4,2,1,70,0,0
174824,-100,4,2,1,75,0,0
174987,-100,4,2,1,80,0,0
175802,-83.3333333333333,4,2,1,60,0,1
194059,-58.8235294117647,4,2,1,60,0,0
195608,-58.8235294117647,4,2,1,5,0,0
195689,-58.8235294117647,4,2,1,60,0,0
195934,-58.8235294117647,4,2,1,5,0,0
196015,-58.8235294117647,4,2,1,60,0,0
196260,-58.8235294117647,4,2,1,5,0,0
196341,-58.8235294117647,4,2,0,60,0,0
196423,-58.8235294117647,4,2,1,5,0,0
196504,-58.8235294117647,4,2,0,60,0,0
196586,-58.8235294117647,4,2,1,5,0,0
196667,-100,4,2,1,60,0,0
197971,-58.8235294117647,4,2,1,60,0,0
198216,-58.8235294117647,4,2,1,5,0,0
198297,-55.5555555555556,4,2,1,60,0,0
198542,-55.5555555555556,4,2,1,5,0,0
198623,-52.6315789473684,4,2,1,60,0,0
198868,-52.6315789473684,4,2,1,5,0,0
198949,-52.6315789473684,4,2,0,60,0,0
199031,-52.6315789473684,4,2,1,5,0,0
199112,-52.6315789473684,4,2,0,60,0,0
199194,-52.6315789473684,4,2,1,5,0,0
199275,-100,4,2,1,60,0,0
204492,-66.6666666666667,4,2,1,60,0,0
205144,-100,4,2,1,60,0,0

[Colours]
Combo1 : 111,175,255
Combo2 : 237,111,240

[HitObjects]
168,130,1710,5,8,0:0:0:0:
217,354,1873,1,8,0:0:0:0:
318,264,2036,6,0,P|368:240|433:252,1,101.250003862381
262,150,2362,2,0,P|212:126|147:138,1,101.250003862381
318,37,2688,2,0,P|368:13|433:25,1,101.250003862381
344,179,3014,5,8,0:0:0:0:
104,101,3177,1,8,0:0:0:0:
197,262,3340,6,0,B|185:320|185:320|155:355,1,101.250003862381
246,189,3666,2,0,B|302:170|302:170|347:178,1,101.250003862381
163,181,3992,2,0,B|118:141|118:141|103:98,1,101.250003862381
120,281,4318,5,8,0:0:0:0:
92,26,4481,1,8,0:0:0:0:
61,198,4644,5,0,0:0:0:0:
187,78,4807,1,0,0:0:0:0:
17,97,4970,1,0,0:0:0:0:
166,182,5133,1,2,0:0:0:0:
92,26,5296,1,0,0:0:0:0:
92,26,5459,1,0,0:0:0:0:
61,198,5622,5,12,0:0:0:0:
227,141,5785,2,0,P|262:132|300:135,1,67.5000025749208
175,263,6111,1,0,0:0:0:0:
365,160,6274,2,0,L|370:121,1,33.7500012874604,2|0,0:0|0:0,0:0:0:0:
475,102,6437,2,0,L|470:141,1,33.7500012874604,2|0,0:0|0:0,0:0:0:0:
355,164,6600,2,0,L|361:119,1,33.7500012874604,2|0,0:0|0:0,0:0:0:0:
484,97,6763,2,0,L|478:142,1,33.7500012874604,2|0,0:0|0:0,0:0:0:0:
473,239,6926,5,8,0:0:0:0:
257,317,7089,1,8,0:0:0:0:
371,244,7252,6,0,L|496:237,1,101.250003862381
302,226,7578,2,0,L|245:337,1,101.250003862381
353,176,7904,2,0,L|284:71,1,101.250003862381
198,229,8230,5,8,0:0:0:0:
260,22,8393,1,8,0:0:0:0:
153,103,8556,6,0,P|110:85|41:86,1,101.250003862381
198,229,8882,2,0,P|241:247|310:246,1,101.250003862381
153,103,9208,2,0,P|106:104|43:133,1,101.250003862381
198,229,9534,5,8,0:0:0:0:
287,3,9697,1,8,0:0:0:0:
168,132,9860,5,0,0:0:0:0:
333,72,10023,1,0,0:0:0:0:
303,245,10186,1,0,0:0:0:0:
409,105,10349,1,2,0:0:0:0:
478,266,10512,1,0,0:0:0:0:
396,30,10675,1,0,0:0:0:0:
337,166,10838,5,4,0:0:0:0:
442,271,11001,2,0,P|447:306|429:354,1,67.5000025749208
255,380,11327,1,0,0:0:0:0:
374,303,11490,2,0,L|330:298,1,33.7500012874604,2|0,0:0|0:0,0:0:0:0:
245,247,11653,2,0,L|289:242,1,33.7500012874604,2|0,0:0|0:0,0:0:0:0:
386,308,11816,2,0,L|334:302,1,33.7500012874604,2|0,0:0|0:0,0:0:0:0:
232,241,11979,2,0,L|284:235,1,33.7500012874604,2|0,0:0|0:0,0:0:0:0:
371,228,12142,5,8,0:0:0:0:
282,363,12305,1,0,0:0:0:0:
183,177,12468,2,0,P|172:141|178:98,1,80.9999975280763,2|0,0:0|0:0,0:0:0:0:
314,11,12794,1,2,0:0:0:0:
152,118,12957,1,2,0:0:0:0:
373,68,13120,1,2,0:0:0:0:
115,43,13283,1,2,0:0:0:0:
91,47,13365,1,0,0:0:0:0:
70,59,13446,5,8,0:0:0:0:
273,140,13609,1,2,0:0:0:0:
32,174,13772,1,8,0:0:0:0:
225,59,13935,1,2,0:0:0:0:
79,254,14098,1,8,0:0:0:0:
135,36,14261,1,2,0:0:0:0:
169,277,14424,1,8,0:0:0:0:
258,51,14587,1,2,0:0:0:0:
282,46,14669,1,0,0:0:0:0:
306,42,14750,6,0,L|400:51,1,80.9999975280763,8|0,0:0|0:0,0:0:0:0:
112,181,15076,2,0,L|18:172,1,80.9999975280763,2|0,0:0|0:0,0:0:0:0:
126,379,15402,1,2,0:0:0:0:
261,158,15565,1,2,0:0:0:0:
30,336,15728,1,2,0:0:0:0:
336,230,15891,6,0,P|359:194|363:146,1,80.9999975280763,2|8,0:0|0:0,0:0:0:0:
112,181,16217,2,0,P|89:145|85:97,1,80.9999975280763,2|8,0:0|0:0,0:0:0:0:
314,62,16543,2,0,L|416:53,1,80.9999975280763,2|8,0:0|0:0,0:0:0:0:
192,173,16869,2,0,L|90:182,1,80.9999975280763,2|8,0:0|0:0,0:0:0:0:
314,62,17195,2,0,P|319:81|321:107,1,40.4999987640381,2|0,0:0|0:0,0:0:0:0:
324,237,17358,5,12,0:0:0:0:
324,237,17521,1,8,0:0:0:0:
480,96,17684,2,0,P|488:56|476:7,1,80.9999975280763,2|0,0:0|0:0,0:0:0:0:
404,213,18010,1,2,0:0:0:0:
453,8,18173,1,2,0:0:0:0:
481,241,18336,1,2,0:0:0:0:
435,35,18499,1,2,0:0:0:0:
220,0,18662,5,8,0:0:0:0:
432,118,18825,1,2,0:0:0:0:
214,99,18988,1,8,0:0:0:0:
453,8,19151,1,2,0:0:0:0:
235,28,19314,1,8,0:0:0:0:
447,146,19477,1,2,0:0:0:0:
229,128,19640,2,0,P|214:168|218:211,1,80.9999975280763,8|0,0:0|0:0,0:0:0:0:
344,373,19966,5,8,0:0:0:0:
347,162,20129,2,0,L|311:180,1,40.4999987640381
193,226,20292,2,0,P|154:215|105:213,1,80.9999975280763,2|0,0:0|0:0,0:0:0:0:
265,370,20618,1,2,0:0:0:0:
48,257,20782,1,2,0:0:0:0:
265,281,20945,1,2,0:0:0:0:
28,335,21108,6,0,P|23:363|68:375,1,80.9999975280763,2|8,0:0|0:0,0:0:0:0:
265,281,21434,2,0,P|270:253|225:241,1,80.9999975280763,2|8,0:0|0:0,0:0:0:0:
65,376,21760,2,0,P|103:386|138:359,1,80.9999975280763,2|8,0:0|0:0,0:0:0:0:
227,239,22086,2,0,P|206:228|169:244,1,40.4999987640381,2|0,0:0|0:0,0:0:0:0:
89,305,22249,1,8,0:0:0:0:
11,109,22412,2,0,L|59:115,1,40.4999987640381,2|0,0:0|0:0,0:0:0:0:
179,139,22575,5,8,0:0:0:0:
179,139,22738,1,8,0:0:0:0:
23,183,22901,1,8,0:0:0:0:
130,61,23064,1,0,0:0:0:0:
34,191,23227,1,8,0:0:0:0:
202,111,23390,1,0,0:0:0:0:
42,207,23553,1,8,0:0:0:0:
251,182,23716,1,0,0:0:0:0:
45,226,23879,5,8,0:0:0:0:
277,261,24042,1,0,0:0:0:0:
84,139,24205,1,8,0:0:0:0:
237,347,24368,1,0,0:0:0:0:
181,106,24531,1,8,0:0:0:0:
140,380,24694,1,0,0:0:0:0:
283,153,24857,1,8,0:0:0:0:
38,333,25020,1,0,0:0:0:0:
316,266,25183,5,8,0:0:0:0:
316,266,25346,1,8,0:0:0:0:
95,167,25509,2,0,P|85:204|92:248,1,80.9999975280763,8|0,0:0|0:0,0:0:0:0:
222,41,25835,1,8,0:0:0:0:
165,210,25998,1,2,0:0:0:0:
294,159,26161,1,8,0:0:0:0:
92,91,26324,1,0,0:0:0:0:
294,159,26487,5,8,0:0:0:0:
29,132,26650,2,0,P|17:95|27:55,1,80.9999975280763,0|8,0:0|0:0,0:0:0:0:
218,177,26976,2,0,L|209:262,1,80.9999975280763,2|0,0:0|0:0,0:0:0:0:
138,94,27302,1,2,0:0:0:0:
201,337,27465,1,10,0:0:0:0:
234,31,27628,1,10,0:0:0:0:
234,31,27709,1,10,0:0:0:0:
234,31,27791,5,14,0:0:0:0:
489,201,28117,5,8,0:0:0:0:
382,323,28280,1,0,0:0:0:0:
478,193,28443,1,8,0:0:0:0:
310,273,28606,1,0,0:0:0:0:
470,177,28769,1,8,0:0:0:0:
261,202,28932,1,0,0:0:0:0:
467,158,29095,5,8,0:0:0:0:
235,123,29258,1,0,0:0:0:0:
428,245,29421,1,8,0:0:0:0:
275,37,29584,1,0,0:0:0:0:
331,278,29747,1,8,0:0:0:0:
372,4,29910,1,0,0:0:0:0:
229,231,30073,1,8,0:0:0:0:
474,51,30236,1,0,0:0:0:0:
196,118,30399,5,8,0:0:0:0:
196,118,30562,1,8,0:0:0:0:
417,217,30725,2,0,P|427:180|420:136,1,80.9999975280763,8|0,0:0|0:0,0:0:0:0:
290,343,31051,1,8,0:0:0:0:
347,174,31214,1,2,0:0:0:0:
218,225,31377,1,8,0:0:0:0:
420,293,31540,1,0,0:0:0:0:
218,225,31703,5,8,0:0:0:0:
483,252,31866,2,0,P|495:289|485:329,1,80.9999975280763,2|8,0:0|0:0,0:0:0:0:
294,207,32192,2,0,L|303:122,1,80.9999975280763,2|8,0:0|0:0,0:0:0:0:
374,290,32518,1,10,0:0:0:0:
311,47,32681,1,10,0:0:0:0:
278,353,32844,1,10,0:0:0:0:
278,353,32925,1,10,0:0:0:0:
278,353,33007,5,14,0:0:0:0:
234,31,33333,6,0,P|197:67|139:69,1,101.250003862381
60,38,33659,2,0,B|90:33|90:33|76:51|74:80|87:108,1,101.250003862381,2|0,0:0|0:0,0:0:0:0:
145,172,33985,2,0,B|142:143|142:143|126:165|99:179|63:170,1,101.250003862381
7,111,34311,6,0,B|20:135|20:135|3:160|4:189|23:218|23:218|17:272,1,168.750006437302
76,344,34800,2,0,B|22:348|18:270|18:270|78:243,1,168.750006437302
166,268,35289,1,0,0:0:0:0:
338,191,35452,2,0,P|342:209|341:228,1,33.7500012874604
321,317,35615,6,0,P|367:313|414:280,1,101.250003862381,8|0,0:0|0:0,0:0:0:0:
256,233,35941,2,0,P|210:237|163:270,1,101.250003862381
321,317,36267,2,0,P|350:281|360:225,1,101.250003862381,2|0,0:0|0:0,0:0:0:0:
295,144,36593,2,0,P|265:179|255:235,1,101.250003862381
388,138,36919,6,0,P|349:69|249:63,1,168.750006437302
132,149,37408,2,0,P|134:168|141:184,1,33.7500012874604
225,237,37571,5,8,0:0:0:0:
204,149,37680,1,8,0:0:0:0:
118,215,37789,1,8,0:0:0:0:
243,208,37897,5,8,0:0:0:0:
174,81,38006,1,8,0:0:0:0:
81,214,38115,1,8,0:0:0:0:
286,255,38223,5,8,0:0:0:0:
286,255,38386,1,10,0:0:0:0:
485,147,38549,2,0,P|494:109|483:66,1,80.9999975280763,8|2,0:0|0:0,0:0:0:0:
286,255,38875,2,0,L|416:367,1,161.999995056153,8|8,0:0|0:0,0:0:0:0:
378,110,39364,1,0,0:0:0:0:
264,334,39527,6,0,P|209:280|235:192,1,161.999995056153,8|8,0:0|0:0,0:0:0:0:
387,1,40016,1,2,0:0:0:0:
325,261,40179,2,0,L|276:253,1,40.4999987640381,2|0,0:0|0:0,0:0:0:0:
148,182,40342,2,0,L|139:94,1,80.9999975280763,2|8,0:0|0:0,0:0:0:0:
441,220,40668,6,0,L|427:357,1,135.000005149842,4|8,0:0|0:0,0:0:0:0:
253,19,40995,5,2,0:0:0:0:
253,19,41158,2,0,L|263:122,1,85.4999977169037,8|2,0:0|0:0,0:0:0:0:
99,324,41484,2,0,P|92:238|160:177,1,170.999995433807,8|8,0:0|0:0,0:0:0:0:
389,53,41973,1,0,0:0:0:0:
351,307,42136,6,0,L|164:268,1,170.999995433807,8|8,0:0|0:0,0:0:0:0:
443,186,42625,1,0,0:0:0:0:
283,215,42788,2,0,L|276:171,1,42.7499988584519,2|0,0:0|0:0,0:0:0:0:
354,59,42951,2,0,P|363:100|345:158,1,85.4999977169037,2|8,0:0|0:0,0:0:0:0:
109,334,43277,6,0,P|101:285|144:206,1,135.000005149842,4|8,0:0|0:0,0:0:0:0:
444,106,43603,5,2,0:0:0:0:
444,106,43766,2,0,L|436:203,1,90,8|2,0:0|0:0,0:0:0:0:
159,380,44092,2,0,P|126:310|139:208,1,180,8|8,0:0|0:0,0:0:0:0:
397,85,44581,1,0,0:0:0:0:
225,231,44744,6,0,L|125:207,1,90,8|2,0:0|0:0,0:0:0:0:
298,340,45070,1,2,0:0:0:0:
229,60,45233,1,0,0:0:0:0:
394,250,45396,2,0,L|407:197,1,45,10|0,0:0|0:0,0:0:0:0:
450,26,45559,1,0,0:0:0:0:
225,231,45722,1,2,0:0:0:0:
494,129,45885,1,0,0:0:0:0:
223,31,46048,6,0,L|121:43,1,90,8|0,0:0|0:0,0:0:0:0:
289,353,46374,2,0,L|391:341,1,90,8|0,0:0|0:0,0:0:0:0:
95,225,46700,2,0,L|107:327,1,90,8|0,0:0|0:0,0:0:0:0:
417,159,47026,2,0,L|405:57,1,90,8|0,0:0|0:0,0:0:0:0:
179,260,47352,5,8,0:0:0:0:
333,124,47515,1,0,0:0:0:0:
147,250,47678,5,8,0:0:0:0:
364,133,47841,1,0,0:0:0:0:
113,231,48004,5,8,0:0:0:0:
398,152,48167,1,0,0:0:0:0:
63,200,48330,5,8,0:0:0:0:
448,183,48493,2,0,L|394:179,1,45,8|8,0:0|0:0,0:0:0:0:
29,149,48656,5,8,0:0:0:0:
482,234,48819,1,8,0:0:0:0:
482,234,48982,1,8,0:0:0:0:
29,149,49145,6,0,P|6:91|34:15,1,135,4|0,0:0|0:0,0:0:0:0:
162,86,49471,2,0,L|187:91,10,22.5
132,99,49960,5,4,0:0:0:0:
91,311,50123,1,0,0:0:0:0:
323,196,50286,2,0,L|350:89,1,107.999996704102,8|0,0:0|0:0,0:0:0:0:
406,344,50612,1,8,0:0:0:0:
139,256,50775,1,0,0:0:0:0:
430,238,50938,1,8,0:0:0:0:
163,326,51101,1,8,0:0:0:0:
464,302,51264,5,10,0:0:0:0:
117,187,51427,1,0,0:0:0:0:
414,168,51590,5,8,0:0:0:0:
152,299,51753,1,0,0:0:0:0:
498,313,51916,5,10,0:0:0:0:
82,175,52079,1,8,0:0:0:0:
506,136,52242,5,8,0:0:0:0:
74,352,52405,2,0,P|57:297|74:246,1,107.999996704102,0|12,0:0|0:0,0:0:0:0:
254,37,52731,5,2,0:0:0:0:
152,299,52894,1,8,0:0:0:0:
429,256,53057,1,0,0:0:0:0:
152,87,53220,1,8,0:0:0:0:
324,361,53383,1,8,0:0:0:0:
476,75,53546,1,8,0:0:0:0:
137,217,53709,1,8,0:0:0:0:
512,384,53872,5,10,0:0:0:0:
368,0,54035,1,0,0:0:0:0:
202,327,54198,1,8,0:0:0:0:
47,42,54361,1,2,0:0:0:0:
0,384,54524,5,10,0:0:0:0:
144,0,54687,1,8,0:0:0:0:
144,0,54769,1,8,0:0:0:0:
144,0,54850,1,8,0:0:0:0:
310,327,55013,2,0,P|368:330|422:307,1,107.999996704102,0|12,0:0|0:0,0:0:0:0:
196,102,55339,5,2,0:0:0:0:
498,218,55502,2,0,L|486:335,1,107.999996704102,8|0,0:0|0:0,0:0:0:0:
302,59,55828,1,8,0:0:0:0:
171,355,55991,1,2,0:0:0:0:
171,355,56073,1,0,0:0:0:0:
171,355,56154,1,8,0:0:0:0:
8,49,56317,2,0,P|55:17|106:14,1,107.999996704102,0|12,0:0|0:0,0:0:0:0:
376,147,56643,5,2,0:0:0:0:
79,88,56806,1,8,0:0:0:0:
340,41,56969,1,2,0:0:0:0:
114,193,57132,1,8,0:0:0:0:
251,0,57295,1,2,0:0:0:0:
203,236,57458,1,8,0:0:0:0:
376,147,57621,1,2,0:0:0:0:
424,384,57784,5,10,0:0:0:0:
4,161,57947,1,0,0:0:0:0:
347,3,58110,5,10,0:0:0:0:
165,381,58273,1,0,0:0:0:0:
88,0,58436,5,10,0:0:0:0:
508,223,58599,1,0,0:0:0:0:
165,381,58762,5,10,0:0:0:0:
347,3,58925,1,0,0:0:0:0:
463,328,59088,5,10,0:0:0:0:
121,193,59251,1,8,0:0:0:0:
479,113,59414,1,8,0:0:0:0:
126,323,59577,1,8,0:0:0:0:
447,2,59740,1,8,0:0:0:0:
447,2,59822,1,8,0:0:0:0:
447,2,59903,1,10,0:0:0:0:
75,261,60066,1,8,0:0:0:0:
75,261,60148,1,8,0:0:0:0:
75,261,60229,1,10,0:0:0:0:
393,78,60392,6,0,L|418:184,1,107.999996704102,12|2,0:0|0:0,0:0:0:0:
86,364,60718,2,0,P|69:318|78:250,1,107.999996704102,8|2,0:0|0:0,0:0:0:0:
272,3,61044,1,8,0:0:0:0:
449,274,61207,1,8,0:0:0:0:
114,369,61371,1,8,0:0:0:0:
178,29,61534,1,8,0:0:0:0:
297,353,61697,6,0,P|349:358|406:329,1,107.999996704102,12|2,0:0|0:0,0:0:0:0:
503,6,62023,1,8,0:0:0:0:
210,190,62186,2,0,L|100:181,1,107.999996704102,2|10,0:0|0:0,0:0:0:0:
421,314,62512,1,8,0:0:0:0:
274,1,62675,1,8,0:0:0:0:
23,238,62838,2,0,P|13:294|30:348,1,107.999996704102,8|12,0:0|0:0,0:0:0:0:
312,242,63164,5,2,0:0:0:0:
45,99,63327,1,8,0:0:0:0:
192,363,63490,1,0,0:0:0:0:
249,22,63653,1,8,0:0:0:0:
282,333,63816,1,8,0:0:0:0:
119,59,63979,1,8,0:0:0:0:
411,295,64142,1,8,0:0:0:0:
41,201,64305,6,0,P|6:242|-1:301,1,107.999996704102,12|2,0:0|0:0,0:0:0:0:
352,198,64631,1,8,0:0:0:0:
96,283,64794,2,0,P|99:336|136:383,1,107.999996704102,2|10,0:0|0:0,0:0:0:0:
453,204,65120,1,8,0:0:0:0:
93,6,65283,1,8,0:0:0:0:
346,382,65446,2,0,L|472:370,1,107.999996704102,8|12,0:0|0:0,0:0:0:0:
209,193,65772,6,0,L|148:187,1,53.9999983520508,2|0,0:0|0:0,0:0:0:0:
4,171,65935,1,8,0:0:0:0:
251,380,66098,1,2,0:0:0:0:
168,0,66261,1,8,0:0:0:0:
510,46,66424,1,8,0:0:0:0:
149,114,66587,1,8,0:0:0:0:
507,194,66750,2,0,P|512:249|489:299,1,107.999996704102,8|12,0:0|0:0,0:0:0:0:
154,167,67076,6,0,P|149:147|151:103,1,53.9999983520508,2|0,0:0|0:0,0:0:0:0:
250,0,67239,1,8,0:0:0:0:
441,234,67402,1,2,0:0:0:0:
84,147,67565,1,8,0:0:0:0:
468,89,67728,1,8,0:0:0:0:
209,379,67891,2,0,L|95:367,1,107.999996704102,8|8,0:0|0:0,0:0:0:0:
3,135,68217,5,12,0:0:0:0:
245,84,68380,1,0,0:0:0:0:
80,268,68543,1,8,0:0:0:0:
105,21,68706,1,0,0:0:0:0:
229,236,68869,5,12,0:0:0:0:
496,178,69032,1,0,0:0:0:0:
313,383,69195,1,8,0:0:0:0:
341,109,69358,1,0,0:0:0:0:
478,347,69521,6,0,B|474:269|419:210|419:210|383:229|363:284,1,229.500004377365,4|0,0:0|0:0,0:0:0:0:
402,337,69847,2,0,B|345:358|284:318|297:247|297:247|239:273,1,229.500004377365,4|0,0:0|0:0,0:0:0:0:
175,305,70173,2,0,P|68:305|65:182,1,229.500004377365,4|0,0:0|0:0,0:0:0:0:
105,149,70499,2,0,P|123:181|123:223,1,76.5000014591217,2|0,0:0|0:0,0:0:0:0:
186,132,70662,2,0,P|168:100|168:58,1,76.5000014591217,2|0,0:0|0:0,0:0:0:0:
221,12,70825,5,8,0:0:0:0:
274,258,70988,1,0,0:0:0:0:
306,35,71151,5,8,0:0:0:0:
250,280,71314,1,0,0:0:0:0:
387,101,71477,6,0,P|430:88|488:92,1,90,8|8,0:0|0:0,0:0:0:0:
232,299,71803,1,8,0:0:0:0:
94,77,71966,1,8,0:0:0:0:
394,134,72129,6,0,B|430:194|430:194|423:291|302:305,1,229.500004377365,4|0,0:0|0:0,0:0:0:0:
282,239,72455,2,0,P|271:353|370:364,1,229.500004377365,4|0,0:0|0:0,0:0:0:0:
328,300,72781,2,0,B|287:309|255:320|255:320|208:269|106:281,1,229.500004377365,4|0,0:0|0:0,0:0:0:0:
38,302,73107,2,0,L|51:377,1,76.5000014591217,2|0,0:0|0:0,0:0:0:0:
125,204,73270,2,0,L|112:279,1,76.5000014591217,2|0,0:0|0:0,0:0:0:0:
148,372,73433,5,8,0:0:0:0:
115,122,73596,1,0,0:0:0:0:
244,306,73759,5,8,0:0:0:0:
108,93,73922,1,0,0:0:0:0:
309,194,74085,6,0,P|351:203|413:186,1,90,8|8,0:0|0:0,0:0:0:0:
95,58,74411,1,8,0:0:0:0:
254,276,74574,1,8,0:0:0:0:
478,125,74737,5,8,0:0:0:0:
192,162,74900,1,2,0:0:0:0:
460,240,75063,5,8,0:0:0:0:
209,46,75226,1,2,0:0:0:0:
371,357,75389,5,8,0:0:0:0:
325,11,75552,1,2,0:0:0:0:
230,337,75715,5,8,0:0:0:0:
230,337,75797,1,8,0:0:0:0:
230,337,75878,1,10,0:0:0:0:
465,31,76041,5,12,0:0:0:0:
165,93,76204,1,2,0:0:0:0:
368,345,76367,1,8,0:0:0:0:
436,28,76530,1,2,0:0:0:0:
143,205,76693,1,10,0:0:0:0:
472,298,76856,1,2,0:0:0:0:
261,6,77019,1,8,0:0:0:0:
102,329,77182,1,2,0:0:0:0:
475,268,77345,5,12,0:0:0:0:
149,76,77508,1,0,0:0:0:0:
495,124,77671,5,12,0:0:0:0:
128,219,77834,1,2,0:0:0:0:
408,9,77997,5,12,0:0:0:0:
216,335,78160,1,8,0:0:0:0:
216,335,78242,1,8,0:0:0:0:
216,335,78323,1,8,0:0:0:0:
176,356,78404,1,8,0:0:0:0:
132,365,78486,1,8,0:0:0:0:
88,359,78567,1,8,0:0:0:0:
48,339,78649,6,0,L|32:159,1,180,4|0,0:0|0:0,0:0:0:0:
235,233,79138,1,0,0:0:0:0:
207,18,79301,2,0,L|210:44,6,22.5
242,8,79627,5,8,0:0:0:0:
141,249,79790,1,4,0:0:0:0:
380,172,80116,5,8,0:0:0:0:
206,125,80279,1,8,0:0:0:0:
300,319,80442,1,8,0:0:0:0:
343,331,80523,1,8,0:0:0:0:
386,344,80605,1,8,0:0:0:0:
315,65,80768,1,8,0:0:0:0:
207,351,80931,1,8,0:0:0:0:
106,43,81094,1,8,0:0:0:0:
7,370,81257,5,8,0:0:0:0:
229,325,81420,1,0,0:0:0:0:
76,155,81584,2,0,P|35:161|0:185,1,80.9999975280763,2|0,0:0|0:0,0:0:0:0:
125,373,81910,1,2,0:0:0:0:
226,170,82073,1,2,0:0:0:0:
34,48,82236,1,2,0:0:0:0:
196,250,82399,6,0,L|283:238,1,80.9999975280763,2|8,0:0|0:0,0:0:0:0:
482,81,82725,2,0,L|401:69,1,80.9999975280763,2|8,0:0|0:0,0:0:0:0:
181,258,83051,2,0,L|277:245,1,80.9999975280763,2|8,0:0|0:0,0:0:0:0:
496,72,83377,2,0,L|408:60,1,80.9999975280763,2|8,0:0|0:0,0:0:0:0:
195,142,83703,2,0,L|190:187,1,40.4999987640381
180,300,83866,5,12,0:0:0:0:
180,300,84029,1,0,0:0:0:0:
389,212,84192,2,0,P|428:204|477:208,1,80.9999975280763,2|0,0:0|0:0,0:0:0:0:
296,353,84518,1,2,0:0:0:0:
226,137,84681,1,2,0:0:0:0:
435,289,84844,1,2,0:0:0:0:
417,62,85007,5,2,0:0:0:0:
337,274,85170,1,8,0:0:0:0:
325,54,85333,1,2,0:0:0:0:
428,281,85496,1,8,0:0:0:0:
425,39,85659,1,2,0:0:0:0:
328,296,85822,1,8,0:0:0:0:
314,30,85985,1,2,0:0:0:0:
439,305,86148,1,8,0:0:0:0:
434,11,86311,2,0,P|432:30|426:54,1,40.4999987640381,2|0,0:0|0:0,0:0:0:0:
361,144,86474,6,0,P|322:154|270:145,1,80.9999975280763,12|2,0:0|0:0,0:0:0:0:
81,44,86800,1,2,0:0:0:0:
304,3,86963,1,0,0:0:0:0:
304,3,87044,1,0,0:0:0:0:
304,3,87126,1,2,0:0:0:0:
384,215,87289,1,2,0:0:0:0:
184,108,87452,1,2,0:0:0:0:
406,62,87615,6,0,P|448:62|487:73,1,80.9999975280763,2|8,0:0|0:0,0:0:0:0:
263,118,87941,2,0,P|220:117|182:107,1,80.9999975280763,2|8,0:0|0:0,0:0:0:0:
410,195,88267,2,0,L|425:303,1,80.9999975280763,2|8,0:0|0:0,0:0:0:0:
213,365,88593,2,0,L|228:257,1,80.9999975280763,2|8,0:0|0:0,0:0:0:0:
381,121,88919,2,0,P|361:113|339:109,1,40.4999987640381
231,134,89082,5,12,0:0:0:0:
231,134,89245,1,0,0:0:0:0:
132,338,89408,2,0,P|94:329|40:329,1,80.9999975280763,2|0,0:0|0:0,0:0:0:0:
274,281,89734,1,2,0:0:0:0:
44,229,89897,1,2,0:0:0:0:
274,153,90060,1,2,0:0:0:0:
44,31,90223,5,2,0:0:0:0:
124,243,90386,1,8,0:0:0:0:
183,7,90549,1,2,0:0:0:0:
201,249,90712,1,8,0:0:0:0:
313,15,90875,1,2,0:0:0:0:
275,271,91038,1,8,0:0:0:0:
441,51,91201,1,2,0:0:0:0:
344,309,91364,1,8,0:0:0:0:
313,15,91527,2,0,L|306:56,1,40.4999987640381,8|8,0:0|0:0,0:0:0:0:
262,160,91690,6,0,L|272:249,1,80.9999975280763,8|0,0:0|0:0,0:0:0:0:
86,109,92016,5,8,0:0:0:0:
227,29,92179,1,0,0:0:0:0:
80,98,92342,1,8,0:0:0:0:
266,95,92505,1,0,0:0:0:0:
80,82,92668,1,8,0:0:0:0:
269,174,92831,1,0,0:0:0:0:
86,69,92994,5,8,0:0:0:0:
240,246,93157,1,0,0:0:0:0:
96,60,93320,1,8,0:0:0:0:
185,303,93483,1,0,0:0:0:0:
109,55,93646,1,8,0:0:0:0:
117,338,93809,1,0,0:0:0:0:
120,54,93972,1,8,0:0:0:0:
40,351,94135,1,0,0:0:0:0:
314,279,94298,5,8,0:0:0:0:
314,279,94461,1,8,0:0:0:0:
199,65,94624,2,0,P|161:54|104:57,1,80.9999975280763,8|0,0:0|0:0,0:0:0:0:
172,291,94950,1,8,0:0:0:0:
230,55,95113,1,0,0:0:0:0:
379,324,95276,1,8,0:0:0:0:
321,88,95439,1,0,0:0:0:0:
197,370,95602,5,8,0:0:0:0:
371,200,95765,2,0,P|414:189|464:191,1,80.9999975280763,2|8,0:0|0:0,0:0:0:0:
276,358,96091,2,0,P|233:369|183:367,1,80.9999975280763,2|8,0:0|0:0,0:0:0:0:
2,223,96417,1,10,0:0:0:0:
109,5,96580,1,10,0:0:0:0:
227,289,96743,1,10,0:0:0:0:
227,289,96825,1,10,0:0:0:0:
227,289,96906,5,14,0:0:0:0:
426,275,97232,5,8,0:0:0:0:
285,355,97395,1,0,0:0:0:0:
432,286,97558,1,8,0:0:0:0:
246,289,97721,1,0,0:0:0:0:
432,302,97884,1,8,0:0:0:0:
243,210,98047,1,0,0:0:0:0:
426,315,98210,5,8,0:0:0:0:
272,138,98373,1,0,0:0:0:0:
416,324,98536,1,8,0:0:0:0:
327,81,98699,1,0,0:0:0:0:
403,329,98862,1,8,0:0:0:0:
395,46,99025,1,0,0:0:0:0:
392,330,99188,1,8,0:0:0:0:
472,33,99351,1,0,0:0:0:0:
198,105,99514,5,8,0:0:0:0:
198,105,99677,1,8,0:0:0:0:
313,319,99840,2,0,P|351:330|408:327,1,80.9999975280763,8|0,0:0|0:0,0:0:0:0:
340,93,100166,1,8,0:0:0:0:
282,329,100329,1,0,0:0:0:0:
133,60,100492,1,8,0:0:0:0:
191,296,100655,1,0,0:0:0:0:
315,14,100818,5,8,0:0:0:0:
141,184,100981,2,0,P|98:195|48:193,1,80.9999975280763,2|8,0:0|0:0,0:0:0:0:
236,26,101307,2,0,P|279:15|329:17,1,80.9999975280763,2|8,0:0|0:0,0:0:0:0:
510,161,101633,1,10,0:0:0:0:
403,379,101796,1,10,0:0:0:0:
285,95,101959,1,10,0:0:0:0:
285,95,102041,1,10,0:0:0:0:
285,95,102122,5,14,0:0:0:0:
83,377,102449,2,0,P|97:321|64:271,1,108
14,196,102775,2,0,B|14:234|14:234|35:209|56:203|85:205,1,108,2|0,0:0|0:0,0:0:0:0:
159,261,103101,2,0,B|140:240|140:240|151:222|154:186|134:160,1,108
88,75,103427,6,0,B|127:111|137:165|137:165|166:136|216:136,1,180
305,154,103916,2,0,P|272:87|206:145,1,180
239,231,104405,1,0,0:0:0:0:
437,195,104568,2,0,L|443:153,1,36
467,61,104731,6,0,L|481:170,1,108,8|0,0:0|0:0,0:0:0:0:
349,244,105057,2,0,L|363:135,1,108
480,168,105383,2,0,L|494:277,1,108,2|0,0:0|0:0,0:0:0:0:
362,136,105709,2,0,L|376:27,1,108
493,275,106035,6,0,P|420:303|349:243,1,180
256,95,106524,2,0,L|248:135,1,36
228,237,106687,5,8,0:0:0:0:
306,182,106795,1,8,0:0:0:0:
199,138,106904,1,8,0:0:0:0:
249,263,107013,5,8,0:0:0:0:
377,180,107121,1,8,0:0:0:0:
242,71,107230,1,8,0:0:0:0:
268,286,107339,5,8,0:0:0:0:
268,286,107502,1,10,0:0:0:0:
84,153,107665,2,0,P|45:150|0:163,1,80.9999975280763,8|2,0:0|0:0,0:0:0:0:
141,381,107991,2,0,L|174:220,1,161.999995056153,8|8,0:0|0:0,0:0:0:0:
384,359,108480,1,0,0:0:0:0:
224,165,108643,6,0,P|159:147|98:210,1,161.999995056153,8|8,0:0|0:0,0:0:0:0:
295,377,109132,1,0,0:0:0:0:
508,230,109295,2,0,L|498:180,1,40.4999987640381,8|0,0:0|0:0,0:0:0:0:
476,62,109458,2,0,L|388:51,1,80.9999975280763,2|2,0:0|0:0,0:0:0:0:
166,240,109784,6,0,L|303:225,1,135.000005149842,4|8,0:0|0:0,0:0:0:0:
108,7,110110,5,2,0:0:0:0:
108,7,110273,2,0,L|127:91,1,85.4999977169037,8|2,0:0|0:0,0:0:0:0:
301,301,110599,2,0,P|362:271|352:173,1,170.999995433807,8|8,0:0|0:0,0:0:0:0:
139,13,111088,1,0,0:0:0:0:
0,249,111251,6,0,P|42:237|90:238,1,85.4999977169037,8|0,0:0|0:0,0:0:0:0:
314,382,111577,1,8,0:0:0:0:
55,324,111740,1,0,0:0:0:0:
244,126,111903,2,0,P|268:124|289:131,1,42.7499988584519,2|0,0:0|0:0,0:0:0:0:
397,210,112066,2,0,P|443:212|490:197,1,85.4999977169037,2|0,0:0|0:0,0:0:0:0:
222,55,112392,6,0,P|175:95|178:163,1,135.000005149842,4|8,0:0|0:0,0:0:0:0:
399,375,112718,5,2,0:0:0:0:
399,375,112881,2,0,L|499:360,1,90,8|2,0:0|0:0,0:0:0:0:
267,176,113207,2,0,L|81:149,1,180,8|8,0:0|0:0,0:0:0:0:
345,20,113696,1,0,0:0:0:0:
147,229,113859,6,0,B|59:244|59:244|13:228|5:172,1,180,8|2,0:0|0:0,0:0:0:0:
278,83,114348,1,0,0:0:0:0:
107,315,114511,2,0,L|16:373,1,90,10|0,0:0|0:0,0:0:0:0:
304,272,114837,1,2,0:0:0:0:
25,200,115000,1,0,0:0:0:0:
297,59,115163,6,0,B|340:43|340:43|395:46,1,90,8|0,0:0|0:0,0:0:0:0:
198,265,115489,1,8,0:0:0:0:
447,121,115652,1,0,0:0:0:0:
183,155,115815,2,0,L|239:171,1,45,2|0,0:0|0:0,0:0:0:0:
461,230,115978,1,0,0:0:0:0:
250,68,116141,1,8,0:0:0:0:
394,317,116304,1,0,0:0:0:0:
106,318,116467,5,8,0:0:0:0:
168,130,116630,1,2,0:0:0:0:
190,330,116793,5,8,0:0:0:0:
83,117,116956,1,2,0:0:0:0:
92,359,117119,5,8,0:0:0:0:
181,88,117282,1,2,0:0:0:0:
213,376,117445,5,8,0:0:0:0:
60,71,117608,2,0,L|66:134,1,45,8|8,0:0|0:0,0:0:0:0:
83,386,117771,5,8,0:0:0:0:
194,44,117934,1,8,0:0:0:0:
194,44,118097,1,8,0:0:0:0:
83,384,118260,2,0,P|105:325|171:306,1,135,4|0,0:0|0:0,0:0:0:0:
296,376,118586,2,0,P|315:376|322:373,10,22.5
266,363,119075,5,4,0:0:0:0:
345,162,119238,1,0,0:0:0:0:
89,1,119401,2,0,B|75:40|75:40|86:111,1,107.999996704102,8|0,0:0|0:0,0:0:0:0:
356,283,119727,1,8,0:0:0:0:
163,50,119890,1,8,0:0:0:0:
443,212,120053,1,8,0:0:0:0:
119,215,120216,1,8,0:0:0:0:
375,17,120379,5,10,0:0:0:0:
217,324,120542,1,0,0:0:0:0:
415,303,120705,5,8,0:0:0:0:
139,160,120868,1,0,0:0:0:0:
382,2,121031,5,10,0:0:0:0:
187,384,121194,1,8,0:0:0:0:
464,328,121357,5,8,0:0:0:0:
44,113,121520,2,0,P|25:68|42:0,1,107.999996704102,0|12,0:0|0:0,0:0:0:0:
338,125,121846,5,2,0:0:0:0:
12,240,122009,1,8,0:0:0:0:
331,377,122173,1,2,0:0:0:0:
220,4,122336,1,8,0:0:0:0:
83,367,122499,1,10,0:0:0:0:
456,259,122662,1,8,0:0:0:0:
56,125,122825,1,10,0:0:0:0:
512,0,122988,5,10,0:0:0:0:
368,384,123151,1,0,0:0:0:0:
202,57,123314,1,8,0:0:0:0:
47,342,123477,1,2,0:0:0:0:
0,0,123640,5,10,0:0:0:0:
144,384,123803,1,8,0:0:0:0:
144,384,123885,1,8,0:0:0:0:
144,384,123966,1,8,0:0:0:0:
310,57,124129,2,0,P|368:54|422:77,1,107.999996704102,0|12,0:0|0:0,0:0:0:0:
113,263,124455,6,0,L|-9:248,1,107.999996704102,2|8,0:0|0:0,0:0:0:0:
353,130,124781,1,0,0:0:0:0:
368,170,124862,1,0,0:0:0:0:
373,213,124944,1,8,0:0:0:0:
155,3,125107,1,8,0:0:0:0:
52,333,125270,1,8,0:0:0:0:
394,381,125433,2,0,L|509:368,1,107.999996704102,8|12,0:0|0:0,0:0:0:0:
162,303,125759,5,8,0:0:0:0:
467,233,125922,1,8,0:0:0:0:
89,250,126085,1,8,0:0:0:0:
437,103,126248,2,0,P|457:57|446:-1,1,107.999996704102,8|0,0:0|0:0,0:0:0:0:
63,145,126574,2,0,L|89:250,1,107.999996704102,8|0,0:0|0:0,0:0:0:0:
367,45,126900,5,10,0:0:0:0:
207,301,127063,1,0,0:0:0:0:
448,135,127226,5,10,0:0:0:0:
125,210,127389,1,0,0:0:0:0:
383,18,127552,5,10,0:0:0:0:
190,327,127715,1,0,0:0:0:0:
482,127,127878,5,10,0:0:0:0:
91,218,128041,1,0,0:0:0:0:
394,0,128204,5,8,0:0:0:0:
114,384,128367,1,8,0:0:0:0:
508,152,128530,5,8,0:0:0:0:
0,231,128693,1,8,0:0:0:0:
482,359,128856,5,10,0:0:0:0:
26,25,129019,1,8,0:0:0:0:
505,7,129182,5,10,0:0:0:0:
3,375,129345,1,8,0:0:0:0:
117,95,129508,5,12,0:0:0:0:
292,341,129671,1,2,0:0:0:0:
292,341,129752,1,0,0:0:0:0:
292,341,129834,1,8,0:0:0:0:
363,25,129997,1,2,0:0:0:0:
363,25,130078,1,0,0:0:0:0:
363,25,130160,1,8,0:0:0:0:
82,187,130323,1,8,0:0:0:0:
383,306,130486,1,8,0:0:0:0:
268,3,130649,1,8,0:0:0:0:
79,318,130812,6,0,P|117:357|173:368,1,107.999996704102,12|2,0:0|0:0,0:0:0:0:
493,252,131138,1,8,0:0:0:0:
159,280,131301,2,0,P|213:280|260:248,1,107.999996704102,2|8,0:0|0:0,0:0:0:0:
423,0,131627,1,10,0:0:0:0:
179,160,131790,1,8,0:0:0:0:
460,379,131953,1,10,0:0:0:0:
408,26,132116,5,12,0:0:0:0:
299,342,132279,1,10,0:0:0:0:
299,342,132361,1,8,0:0:0:0:
299,342,132442,1,8,0:0:0:0:
50,170,132605,1,2,0:0:0:0:
362,148,132768,1,8,0:0:0:0:
114,357,132931,1,8,0:0:0:0:
192,31,133094,1,8,0:0:0:0:
406,302,133257,1,8,0:0:0:0:
57,228,133420,6,0,L|42:111,1,107.999996704102,12|2,0:0|0:0,0:0:0:0:
333,35,133746,1,8,0:0:0:0:
188,300,133909,2,0,L|203:183,1,107.999996704102,2|8,0:0|0:0,0:0:0:0:
490,101,134235,1,10,0:0:0:0:
310,344,134398,1,8,0:0:0:0:
204,26,134561,2,0,P|156:11|86:25,1,107.999996704102,10|12,0:0|0:0,0:0:0:0:
329,247,134887,6,0,L|450:238,1,107.999996704102,2|8,0:0|0:0,0:0:0:0:
147,93,135213,1,2,0:0:0:0:
304,376,135376,1,8,0:0:0:0:
330,53,135539,1,8,0:0:0:0:
195,347,135702,1,8,0:0:0:0:
82,20,135865,2,0,P|43:10|37:63,1,107.999996704102,8|12,0:0|0:0,0:0:0:0:
312,273,136191,5,10,0:0:0:0:
168,6,136354,1,8,0:0:0:0:
97,344,136517,1,10,0:0:0:0:
326,85,136680,2,0,P|380:72|448:78,1,107.999996704102,8|2,0:0|0:0,0:0:0:0:
203,362,137006,2,0,L|71:339,1,107.999996704102,8|2,0:0|0:0,0:0:0:0:
387,157,137332,5,4,0:0:0:0:
301,355,137495,1,0,0:0:0:0:
387,157,137658,1,8,0:0:0:0:
301,355,137821,1,0,0:0:0:0:
459,224,137984,5,4,0:0:0:0:
53,160,138147,1,0,0:0:0:0:
459,224,138310,1,8,0:0:0:0:
53,160,138473,1,0,0:0:0:0:
459,224,138636,6,0,P|369:251|293:154,1,229.500004377365,4|0,0:0|0:0,0:0:0:0:
387,157,138962,2,0,B|390:255|390:255|329:300|241:266,1,229.500004377365,4|0,0:0|0:0,0:0:0:0:
0,193,139288,2,0,P|103:153|202:205,1,229.500004377365,4|0,0:0|0:0,0:0:0:0:
257,349,139614,2,0,L|265:266,1,76.5000014591217,2|0,0:0|0:0,0:0:0:0:
394,233,139777,2,0,L|386:150,1,76.5000014591217,2|0,0:0|0:0,0:0:0:0:
286,40,139940,5,8,0:0:0:0:
478,190,140103,1,0,0:0:0:0:
223,85,140266,5,8,0:0:0:0:
496,116,140429,1,0,0:0:0:0:
193,160,140592,5,8,0:0:0:0:
475,43,140755,1,8,0:0:0:0:
169,33,140918,5,8,0:0:0:0:
498,169,141081,1,8,0:0:0:0:
140,195,141244,6,0,P|52:170|93:57,1,229.500004377365,4|0,0:0|0:0,0:0:0:0:
230,104,141570,2,0,B|221:238|221:238|198:206|134:193,1,229.500004377365,4|0,0:0|0:0,0:0:0:0:
47,283,141896,2,0,B|106:294|129:326|129:326|138:192,1,229.500004377365,4|0,0:0|0:0,0:0:0:0:
180,45,142222,2,0,P|216:29|263:35,1,76.5000014591217,2|0,0:0|0:0,0:0:0:0:
225,184,142386,2,0,P|261:198|290:235,1,76.5000014591217,2|0,0:0|0:0,0:0:0:0:
332,372,142549,5,8,0:0:0:0:
299,129,142712,1,0,0:0:0:0:
424,374,142875,5,8,0:0:0:0:
225,184,143038,1,0,0:0:0:0:
497,323,143201,5,8,0:0:0:0:
195,271,143364,1,8,0:0:0:0:
439,269,143527,5,8,0:0:0:0:
76,331,143690,1,8,0:0:0:0:
368,241,143853,6,0,P|382:192|376:133,1,90,10|2,0:0|0:0,0:0:0:0:
88,243,144179,2,0,P|74:292|80:351,1,90,10|2,0:0|0:0,0:0:0:0:
466,147,144505,2,0,P|441:102|395:64,1,90,10|2,0:0|0:0,0:0:0:0:
0,277,144831,1,8,0:0:0:0:
0,277,144912,1,8,0:0:0:0:
0,277,144994,1,10,0:0:0:0:
380,153,145157,5,4,0:0:0:0:
93,46,145320,1,0,0:0:0:0:
196,352,145483,1,8,0:0:0:0:
368,56,145646,1,0,0:0:0:0:
31,184,145809,1,8,0:0:0:0:
359,371,145972,1,8,0:0:0:0:
201,7,146135,1,8,0:0:0:0:
7,373,146298,1,8,0:0:0:0:
93,46,146461,5,12,0:0:0:0:
141,348,146624,1,0,0:0:0:0:
419,46,146787,5,12,0:0:0:0:
371,348,146950,1,0,0:0:0:0:
93,46,147113,5,12,0:0:0:0:
141,348,147276,1,8,0:0:0:0:
419,46,147439,5,12,0:0:0:0:
371,348,147602,1,8,0:0:0:0:
256,0,147765,5,4,0:0:0:0:
256,384,147928,1,8,0:0:0:0:
256,384,148009,1,8,0:0:0:0:
256,384,148091,1,8,0:0:0:0:
442,141,148254,1,2,0:0:0:0:
160,22,148417,2,0,L|152:114,1,90,8|8,0:0|0:0,0:0:0:0:
352,362,148743,1,8,0:0:0:0:
160,22,148906,6,0,L|144:209,1,180,4|0,0:0|0:0,0:0:0:0:
403,38,149395,1,4,0:0:0:0:
67,104,149558,1,0,0:0:0:0:
469,202,149721,5,12,0:0:0:0:
441,252,149829,1,8,0:0:0:0:
384,253,149938,1,8,0:0:0:0:
354,204,150047,1,12,0:0:0:0:
382,154,150155,1,8,0:0:0:0:
439,153,150264,1,8,0:0:0:0:
469,202,150373,5,12,0:0:0:0:
240,76,160316,5,8,0:0:0:0:
194,287,160479,1,8,0:0:0:0:
175,126,160642,1,8,0:0:0:0:
269,320,160805,6,0,L|360:311,1,90,4|0,0:0|0:0,0:0:0:0:
167,211,161131,1,8,0:0:0:0:
440,302,161294,1,8,0:0:0:0:
263,178,161457,6,0,L|254:87,1,90,8|0,0:0|0:0,0:0:0:0:
425,220,161783,1,8,0:0:0:0:
243,8,161946,1,8,0:0:0:0:
348,266,162109,6,0,L|336:364,1,90,8|2,0:0|0:0,0:0:0:0:
64,263,162435,1,8,0:0:0:0:
344,188,162599,1,2,0:0:0:0:
65,145,162762,1,8,0:0:0:0:
342,305,162926,1,2,0:0:0:0:
34,270,163088,1,8,0:0:0:0:
373,180,163251,1,2,0:0:0:0:
36,129,163414,6,0,P|23:93|35:18,1,90,4|0,0:0|0:0,0:0:0:0:
237,2,163740,1,8,0:0:0:0:
89,195,163903,1,8,0:0:0:0:
303,218,164066,6,0,L|405:207,1,90,8|0,0:0|0:0,0:0:0:0:
316,6,164392,1,8,0:0:0:0:
224,231,164555,1,8,0:0:0:0:
139,32,164718,6,0,P|98:21|44:23,1,90,8|2,0:0|0:0,0:0:0:0:
141,314,165044,1,8,0:0:0:0:
230,40,165207,1,2,0:0:0:0:
257,318,165370,1,8,0:0:0:0:
113,35,165533,1,2,0:0:0:0:
131,342,165696,1,8,0:0:0:0:
239,11,165859,1,2,0:0:0:0:
272,347,166022,6,0,P|358:383|457:364,1,180,4|8,0:0|0:0,0:0:0:0:
252,268,166511,2,0,P|198:308|195:374,1,135,8|0,0:0|0:0,0:0:0:0:
330,290,166837,2,0,P|322:223|266:187,1,135,8|0,0:0|0:0,0:0:0:0:
272,347,167163,1,12,0:0:0:0:
185,189,167489,5,8,0:0:0:0:
358,140,167652,1,8,0:0:0:0:
142,128,167815,1,8,0:0:0:0:
379,213,167978,2,0,L|438:210,2,60,8|8|8,0:0|0:0|0:0,0:0:0:0:
150,198,168304,2,0,L|91:195,2,60,8|8|8,0:0|0:0|0:0,0:0:0:0:
392,130,168630,5,12,0:0:0:0:
343,340,168793,1,0,0:0:0:0:
317,89,168956,1,8,0:0:0:0:
339,303,169119,1,0,0:0:0:0:
236,72,169282,1,8,0:0:0:0:
324,269,169445,1,0,0:0:0:0:
153,83,169608,1,8,0:0:0:0:
299,242,169771,1,0,0:0:0:0:
71,95,169934,5,8,0:0:0:0:
267,222,170097,1,0,0:0:0:0:
43,185,170260,5,8,0:0:0:0:
294,131,170423,1,0,0:0:0:0:
52,83,170586,5,8,0:0:0:0:
285,233,170749,1,0,0:0:0:0:
19,190,170912,5,8,0:0:0:0:
318,126,171075,1,0,0:0:0:0:
28,67,171238,6,0,P|105:35|206:60,1,180,4|8,0:0|0:0,0:0:0:0:
483,316,171727,2,0,P|320:349|298:152,1,405,4|0,0:0|0:0,0:0:0:0:
318,126,172542,2,0,P|383:186|473:194,1,180,4|8,0:0|0:0,0:0:0:0:
194,258,173031,2,0,P|129:198|39:190,1,180,4|0,0:0|0:0,0:0:0:0:
256,352,173520,2,0,L|285:344,10,22.5
221,362,174009,5,8,0:0:0:0:
296,112,174172,1,8,0:0:0:0:
31,24,174335,1,8,0:0:0:0:
235,342,174498,5,10,0:0:0:0:
167,62,174661,1,10,0:0:0:0:
469,15,174824,1,10,0:0:0:0:
250,323,174987,5,10,0:0:0:0:
250,61,175476,6,0,L|271:78,6,22.5
225,39,175802,5,4,0:0:0:0:
362,308,175965,1,8,0:0:0:0:
47,384,176128,2,0,P|27:336|33:270,1,107.999996704102,8|0,0:0|0:0,0:0:0:0:
335,151,176454,1,8,0:0:0:0:
119,313,176617,1,8,0:0:0:0:
387,254,176780,1,8,0:0:0:0:
66,209,176943,1,8,0:0:0:0:
382,115,177106,5,10,0:0:0:0:
71,348,177269,1,0,0:0:0:0:
145,127,177432,5,8,0:0:0:0:
424,336,177595,1,0,0:0:0:0:
413,92,177758,5,10,0:0:0:0:
25,384,177921,1,8,0:0:0:0:
76,75,178084,5,8,0:0:0:0:
483,381,178247,2,0,L|455:258,1,107.999996704102,0|12,0:0|0:0,0:0:0:0:
396,13,178573,5,0,0:0:0:0:
344,333,178736,1,8,0:0:0:0:
318,75,178899,1,0,0:0:0:0:
219,383,179062,1,8,0:0:0:0:
224,102,179225,1,8,0:0:0:0:
63,383,179388,1,8,0:0:0:0:
126,109,179551,1,8,0:0:0:0:
512,384,179714,5,10,0:0:0:0:
368,0,179877,1,0,0:0:0:0:
0,384,180040,1,8,0:0:0:0:
144,0,180203,1,0,0:0:0:0:
367,384,180366,5,10,0:0:0:0:
512,96,180529,1,8,0:0:0:0:
145,384,180692,1,8,0:0:0:0:
0,96,180855,2,0,B|36:75|36:75|110:85,1,107.999996704102,0|12,0:0|0:0,0:0:0:0:
411,83,181181,6,0,P|446:131|448:179,1,107.999996704102,0|8,0:0|0:0,0:0:0:0:
142,285,181507,1,0,0:0:0:0:
307,6,181670,1,8,0:0:0:0:
225,364,181833,1,8,0:0:0:0:
199,41,181996,1,8,0:0:0:0:
337,381,182159,2,0,B|383:389|383:389|451:372,1,107.999996704102,8|0,0:0|0:0,0:0:0:0:
277,95,182485,5,8,0:0:0:0:
235,289,182648,1,8,0:0:0:0:
230,75,182811,1,8,0:0:0:0:
281,308,182974,1,8,0:0:0:0:
286,52,183138,1,8,0:0:0:0:
225,331,183301,2,0,P|170:337|111:315,1,107.999996704102,10|0,0:0|0:0,0:0:0:0:
219,24,183627,5,14,0:0:0:0:
292,359,183790,1,0,0:0:0:0:
297,0,183953,5,14,0:0:0:0:
214,383,184116,1,0,0:0:0:0:
454,64,184279,5,14,0:0:0:0:
57,319,184442,1,0,0:0:0:0:
509,246,184605,5,14,0:0:0:0:
2,137,184768,1,0,0:0:0:0:
512,0,184931,5,10,0:0:0:0:
0,384,185094,1,10,0:0:0:0:
512,384,185257,5,10,0:0:0:0:
0,0,185420,1,10,0:0:0:0:
0,384,185583,5,10,0:0:0:0:
512,0,185746,1,10,0:0:0:0:
0,0,185909,5,10,0:0:0:0:
512,384,186072,1,10,0:0:0:0:
256,192,186235,5,4,0:0:0:0:
498,10,186398,1,8,0:0:0:0:
498,10,186479,1,8,0:0:0:0:
498,10,186561,1,8,0:0:0:0:
397,295,186724,1,0,0:0:0:0:
222,22,186887,2,0,B|185:-2|146:5|146:5|149:37,1,107.999996704102,8|8,0:0|0:0,0:0:0:0:
290,362,187213,2,0,B|327:386|366:379|366:379|363:347,1,107.999996704102,8|8,0:0|0:0,0:0:0:0:
114,144,187539,5,12,0:0:0:0:
430,73,187702,1,0,0:0:0:0:
178,340,187865,2,0,B|92:328|92:328|119:317,1,107.999996704102,8|8,0:0|0:0,0:0:0:0:
397,221,188191,1,10,0:0:0:0:
109,30,188354,1,10,0:0:0:0:
11,384,188517,1,10,0:0:0:0:
366,292,188680,1,0,0:0:0:0:
364,302,188761,1,0,0:0:0:0:
362,312,188843,6,0,P|311:292|245:292,1,107.999996704102,12|2,0:0|0:0,0:0:0:0:
11,384,189169,1,8,0:0:0:0:
334,210,189332,1,2,0:0:0:0:
33,0,189495,1,8,0:0:0:0:
43,367,189658,1,8,0:0:0:0:
438,256,189821,1,8,0:0:0:0:
60,95,189984,1,8,0:0:0:0:
417,374,190147,6,0,B|463:374|493:348|493:348|465:330,1,107.999996704102,4|2,0:0|0:0,0:0:0:0:
80,210,190473,1,8,0:0:0:0:
369,21,190636,1,2,0:0:0:0:
288,379,190799,1,8,0:0:0:0:
418,106,190962,1,10,0:0:0:0:
129,296,191125,1,10,0:0:0:0:
495,166,191288,1,10,0:0:0:0:
17,218,191451,6,0,P|-2:266|4:336,1,107.999996704102,4|2,0:0|0:0,0:0:0:0:
495,166,191777,2,0,P|514:118|508:48,1,107.999996704102,8|2,0:0|0:0,0:0:0:0:
177,384,192103,1,8,0:0:0:0:
335,0,192266,1,8,0:0:0:0:
335,384,192429,1,8,0:0:0:0:
177,0,192592,1,8,0:0:0:0:
512,320,192755,5,4,0:0:0:0:
96,113,192918,2,0,P|43:109|-13:135,1,107.999996704102,2|8,0:0|0:0,0:0:0:0:
0,320,193244,1,2,0:0:0:0:
416,113,193407,2,0,P|469:109|525:135,1,107.999996704102,4|0,0:0|0:0,0:0:0:0:
256,384,193733,2,0,L|256:256,1,107.999996704102,4|0,0:0|0:0,0:0:0:0:
256,0,194059,5,4,0:0:0:0:
147,227,194222,1,0,0:0:0:0:
416,243,194385,1,8,0:0:0:0:
168,96,194548,1,0,0:0:0:0:
385,336,194711,5,4,0:0:0:0:
74,154,194874,1,0,0:0:0:0:
469,131,195037,1,8,0:0:0:0:
59,268,195200,1,0,0:0:0:0:
454,17,195363,6,0,B|402:58|389:123|389:123|355:91|287:80,1,229.500004377365,4|0,0:0|0:0,0:0:0:0:
132,91,195689,2,0,P|192:178|110:264,1,229.500004377365,4|0,0:0|0:0,0:0:0:0:
380,293,196015,2,0,P|320:206|402:120,1,229.500004377365,4|0,0:0|0:0,0:0:0:0:
451,265,196341,2,0,L|364:299,1,76.5000014591217,2|0,0:0|0:0,0:0:0:0:
295,382,196504,2,0,L|208:365,1,76.5000014591217,2|0,0:0|0:0,0:0:0:0:
101,334,196667,5,8,0:0:0:0:
339,189,196830,1,0,0:0:0:0:
89,314,196993,1,8,0:0:0:0:
295,100,197156,1,0,0:0:0:0:
73,298,197319,1,8,0:0:0:0:
231,25,197482,1,8,0:0:0:0:
53,285,197645,1,8,0:0:0:0:
317,82,197808,1,8,0:0:0:0:
28,280,197971,6,0,P|11:221|116:250,1,229.500004377365,4|0,0:0|0:0,0:0:0:0:
204,321,198297,2,0,P|289:353|258:249,1,242.999992584229,4|0,0:0|0:0,0:0:0:0:
187,158,198623,2,0,P|217:59|275:147,1,256.499993150711,4|0,0:0|0:0,0:0:0:0:
204,321,198949,2,0,L|106:332,1,85.4999977169037,2|0,0:0|0:0,0:0:0:0:
277,143,199112,2,0,L|375:154,1,85.4999977169037,2|0,0:0|0:0,0:0:0:0:
466,246,199275,5,8,0:0:0:0:
259,58,199438,1,0,0:0:0:0:
448,262,199601,1,8,0:0:0:0:
185,122,199764,1,0,0:0:0:0:
435,280,199927,1,8,0:0:0:0:
129,202,200090,1,8,0:0:0:0:
428,300,200253,1,8,0:0:0:0:
95,294,200416,1,8,0:0:0:0:
427,319,200579,6,0,L|436:222,1,90,8|0,0:0|0:0,0:0:0:0:
219,239,200905,2,0,L|210:142,1,90,8|0,0:0|0:0,0:0:0:0:
427,319,201231,1,10,0:0:0:0:
447,104,201394,1,8,0:0:0:0:
219,239,201557,1,8,0:0:0:0:
199,24,201720,1,8,0:0:0:0:
427,319,201883,5,12,0:0:0:0:
136,138,202046,1,0,0:0:0:0:
434,206,202209,1,8,0:0:0:0:
93,237,202372,1,0,0:0:0:0:
374,116,202535,1,12,0:0:0:0:
116,340,202698,1,2,0:0:0:0:
397,219,202861,1,8,0:0:0:0:
55,238,203024,1,2,0:0:0:0:
391,311,203188,5,12,0:0:0:0:
49,149,203351,1,2,0:0:0:0:
432,153,203514,5,12,0:0:0:0:
7,306,203677,1,2,0:0:0:0:
256,0,203840,1,12,0:0:0:0:
263,35,203921,1,8,0:0:0:0:
272,70,204003,1,8,0:0:0:0:
283,104,204084,1,8,0:0:0:0:
295,138,204166,1,8,0:0:0:0:
267,173,204247,1,8,0:0:0:0:
228,195,204329,1,8,0:0:0:0:
184,201,204410,1,8,0:0:0:0:
140,190,204492,6,0,B|123:128|176:113|211:152|180:183|180:183|150:257|186:324,1,270.000010299683,14|0,0:0|0:0,0:0:0:0:
311,247,204981,1,0,0:0:0:0:
95,250,205144,2,0,P|-8:284|114:311,1,315,0|6,0:0|0:0,0:0:0:0:
