osu file format v14

[General]
AudioFilename: audio.mp3
AudioLeadIn: 0
PreviewTime: 127835
Countdown: 0
SampleSet: None
StackLeniency: 0.3
Mode: 0
LetterboxInBreaks: 0
WidescreenStoryboard: 1

[Editor]
Bookmarks: 12748,23976,35204,40818,53449,64677,75905,87134,98362,109590,115204,127835,139063,150291,161519,172748,183976,186783,198011,209239,220467,231695,242923
DistanceSpacing: 0.2
BeatDivisor: 4
GridSize: 32
TimelineZoom: 1

[Metadata]
Title:Hitorigoto (Inulloid DnB Remix)
TitleUnicode:ヒトリゴト (Inulloid DnB Remix)
Artist:ClariS
ArtistUnicode:ClariS
Creator:Ohwow
Version:Soliloquy
Source:
Tags:eromanga sensei ero manga eromanga-sensei opening full size anime drum bass
BeatmapID:1748340
BeatmapSetID:834634

[Difficulty]
HPDrainRate:5
CircleSize:3.8
OverallDifficulty:9
ApproachRate:9.2
SliderMultiplier:2
SliderTickRate:1

[Events]
//Background and Video events
0,0,"sagiri.jpg",0,0
//Break Periods
//Storyboard Layer 0 (Background)
//Storyboard Layer 1 (Fail)
//Storyboard Layer 2 (Pass)
//Storyboard Layer 3 (Foreground)
//Storyboard Sound Samples

[TimingPoints]
1520,350.877192982456,4,2,1,40,1,0
1520,-166.666666666667,4,2,1,40,0,0
12748,-83.3333333333333,4,2,1,70,0,0
23976,-100,4,2,1,60,0,0
35204,-125,4,2,1,50,0,0
40818,-100,4,2,1,60,0,0
53449,-76.9230769230769,4,2,1,80,0,1
64677,-100,4,2,1,60,0,0
75905,-76.9230769230769,4,2,1,80,0,1
87134,-83.3333333333333,4,2,1,70,0,0
98362,-100,4,2,1,60,0,0
109590,-125,4,2,1,50,0,0
115204,-100,4,2,1,60,0,0
127835,-76.9230769230769,4,2,1,80,0,1
139063,-100,4,2,1,60,0,0
150291,-76.9230769230769,4,2,1,80,0,1
161519,-100,4,2,1,60,0,0
186783,-76.9230769230769,4,2,1,80,0,1
198011,-100,4,2,1,60,0,0
209239,-76.9230769230769,4,2,1,80,0,1
220467,-100,4,2,1,60,0,0

[Colours]
Combo1 : 80,180,240
Combo2 : 255,170,196
Combo3 : 170,230,250
Combo4 : 242,24,57

[HitObjects]
351,261,9941,5,0,3:0:0:0:
355,272,10291,1,0,3:0:0:0:
477,174,10642,5,0,3:0:0:0:
473,185,10992,1,0,3:0:0:0:
320,151,11344,5,0,3:0:0:0:
355,272,11519,1,0,3:0:0:0:
508,64,11695,5,0,3:0:0:0:
473,185,11870,1,0,3:0:0:0:
243,48,12046,5,0,3:0:0:0:
279,41,12133,1,0,3:0:0:0:
316,35,12221,1,0,3:0:0:0:
353,29,12309,1,0,3:0:0:0:
390,22,12396,5,8,0:0:0:0:
161,83,12572,1,0,0:0:0:0:
152,72,12660,1,0,0:0:0:0:
145,62,12748,6,0,L|114:273,1,179.999994506836,4|0,3:2|0:0,0:0:0:0:
25,341,13098,2,0,P|53:330|82:324,1,59.9999981689454,8|0,0:0|0:0,0:0:0:0:
267,250,13274,2,0,P|237:244|209:233,1,59.9999981689454
48,153,13449,1,0,0:0:0:0:
41,143,13537,1,0,0:0:0:0:
34,133,13625,1,0,3:0:0:0:
101,328,13800,1,8,0:0:0:0:
262,156,13976,1,0,0:0:0:0:
360,384,14151,6,0,L|479:369,1,119.999996337891,0|0,3:0|0:0,0:0:0:0:
491,369,14414,1,0,0:0:0:0:
502,367,14502,2,0,P|505:337|513:308,1,59.9999981689454,8|0,0:0|0:0,0:0:0:0:
418,120,14677,2,0,P|439:175|452:234,1,119.999996337891
349,54,15028,1,0,3:0:0:0:
510,53,15204,2,0,P|480:47|451:38,1,59.9999981689454,8|0,0:0|0:0,0:0:0:0:
253,149,15379,2,0,P|282:143|311:134,1,59.9999981689454
512,308,15555,6,0,B|479:293|454:261|454:261|409:286|353:284,1,179.999994506836,0|0,3:0|0:0,0:0:0:0:
264,315,15905,2,0,L|270:255,1,59.9999981689454,8|0,0:0|0:0,0:0:0:0:
163,118,16081,2,0,L|169:177,1,59.9999981689454
374,200,16256,1,0,0:0:0:0:
385,198,16344,1,0,0:0:0:0:
396,195,16432,1,0,3:0:0:0:
177,268,16607,2,0,P|147:264|118:255,1,59.9999981689454,8|0,0:0|0:0,0:0:0:0:
19,106,16783,6,0,P|48:102|77:93,1,59.9999981689454
191,30,16958,1,0,0:0:0:0:
169,177,17134,2,0,P|196:165|221:149,1,59.9999981689454,0|0,3:0|0:0,0:0:0:0:
315,58,17309,1,8,0:0:0:0:
409,280,17484,2,0,P|344:222|260:241,1,179.999994506836
254,252,17835,1,0,3:0:0:0:
125,384,18011,1,8,0:0:0:0:
144,343,18098,1,0,0:0:0:0:
143,299,18186,1,0,0:0:0:0:
122,259,18274,1,0,0:0:0:0:
86,234,18362,6,0,B|48:198|48:198|71:72,1,179.999994506836,4|0,3:2|0:0,0:0:0:0:
140,0,18712,2,0,P|147:28|159:56,1,59.9999981689454,8|0,0:0|0:0,0:0:0:0:
266,206,18888,2,0,P|258:234|246:262,1,59.9999981689454
56,326,19063,1,0,0:0:0:0:
44,323,19151,1,0,0:0:0:0:
33,316,19239,1,0,3:0:0:0:
170,202,19414,1,8,0:0:0:0:
235,349,19590,1,0,0:0:0:0:
329,99,19765,6,0,B|351:147|351:147|293:118|229:112,1,179.999994506836,4|0,3:2|0:0,0:0:0:0:
273,31,20116,2,0,P|300:18|329:11,1,59.9999981689454,8|0,0:0|0:0,0:0:0:0:
466,211,20291,2,0,P|406:217|352:242,1,119.999996337891
143,121,20642,1,0,3:0:0:0:
272,213,20818,2,0,P|259:240|252:269,1,59.9999981689454,8|0,0:0|0:0,0:0:0:0:
104,328,20993,2,0,P|116:355|123:384,1,59.9999981689454
443,352,21169,6,0,L|324:332,1,119.999996337891,4|0,3:2|0:0,0:0:0:0:
30,232,21519,2,0,L|148:212,1,119.999996337891,2|0,3:2|0:0,0:0:0:0:
470,262,21870,6,0,L|351:242,1,119.999996337891,4|0,3:2|0:0,0:0:0:0:
3,142,22221,2,0,L|121:122,1,119.999996337891,2|0,3:2|0:0,0:0:0:0:
451,104,22572,6,0,L|391:113,1,59.9999981689454,4|0,3:2|0:0,0:0:0:0:
213,142,22748,2,0,L|272:132,1,59.9999981689454,0|0,3:2|0:0,0:0:0:0:
313,4,22923,6,0,L|322:63,1,59.9999981689454,2|0,3:2|0:0,0:0:0:0:
351,242,23099,2,0,L|341:182,1,59.9999981689454,0|0,3:2|0:0,0:0:0:0:
121,23,23274,5,0,3:0:0:0:
63,42,23362,1,0,3:0:0:0:
63,102,23449,1,0,3:0:0:0:
121,121,23537,1,0,3:0:0:0:
156,72,23625,1,8,0:0:0:0:
38,233,23800,5,8,0:0:0:0:
35,244,23888,1,8,0:0:0:0:
31,255,23976,6,0,P|100:227|175:224,1,150,4|0,3:2|0:0,0:0:0:0:
183,229,24327,2,0,P|176:253|173:277,1,50,8|0,0:0|0:0,0:0:0:0:
334,370,24502,2,0,P|330:345|324:320,1,50
267,182,24677,1,0,0:0:0:0:
236,361,24853,1,0,3:0:0:0:
349,225,25028,1,0,0:0:0:0:
438,361,25204,1,8,0:0:0:0:
486,168,25379,6,0,P|412:164|354:209,1,150,0|0,3:0|0:0,0:0:0:0:
254,115,25730,2,0,P|279:120|302:129,1,50,8|0,0:0|0:0,0:0:0:0:
511,62,25905,2,0,P|488:70|464:75,1,50
440,251,26081,1,0,3:0:0:0:
369,63,26256,1,0,0:0:0:0:
256,207,26432,1,0,3:0:0:0:
85,22,26607,6,0,P|65:67|53:116,1,100,8|0,0:0|0:0,0:0:0:0:
53,126,26870,1,0,0:0:0:0:
52,135,26958,1,0,3:0:0:0:
219,23,27134,2,0,P|184:59|157:101,1,100,8|0,0:0|0:0,0:0:0:0:
153,109,27397,1,0,0:0:0:0:
149,117,27485,1,0,0:0:0:0:
326,71,27660,2,0,P|303:81|283:96,1,50,0|0,3:0|0:0,0:0:0:0:
186,208,27835,1,8,0:0:0:0:
220,194,27922,1,0,0:0:0:0:
258,192,28010,1,0,0:0:0:0:
293,202,28098,1,0,0:0:0:0:
324,223,28185,5,0,3:0:0:0:
425,71,28362,1,0,3:0:0:0:
273,111,28537,1,0,0:0:0:0:
466,287,28712,2,0,B|444:329|444:329|342:311,1,150,8|0,0:0|0:0,0:0:0:0:
204,343,29063,2,0,B|253:339,1,50,0|0,3:0|0:0,0:0:0:0:
374,227,29239,2,0,B|325:223,1,50,8|0,0:0|0:0,0:0:0:0:
97,257,29414,1,0,0:0:0:0:
94,266,29502,1,0,0:0:0:0:
91,275,29590,6,0,L|63:120,1,150,4|0,3:2|0:0,0:0:0:0:
61,116,29941,2,0,P|85:122|109:126,1,50,8|0,0:0|0:0,0:0:0:0:
242,191,30116,2,0,P|217:197|193:201,1,50
103,38,30291,1,0,0:0:0:0:
284,114,30467,1,0,3:0:0:0:
180,283,30642,1,0,0:0:0:0:
195,116,30818,1,8,0:0:0:0:
354,278,30993,6,0,B|377:321|377:321|499:290,1,150,4|0,3:2|0:0,0:0:0:0:
511,214,31344,2,0,P|487:207|462:208,1,50,8|0,0:0|0:0,0:0:0:0:
460,384,31519,2,0,P|484:385|508:378,1,50
373,193,31695,1,0,3:0:0:0:
293,342,31870,1,0,3:0:0:0:
475,296,32046,1,0,0:0:0:0:
293,102,32221,6,0,P|248:82|199:70,1,100,12|0,0:0|0:0,0:0:0:0:
189,70,32484,1,0,0:0:0:0:
180,69,32572,1,0,3:0:0:0:
297,251,32748,2,0,P|261:216|219:188,1,100,8|0,0:0|0:0,0:0:0:0:
210,185,33011,1,0,0:0:0:0:
202,181,33099,1,0,3:0:0:0:
52,330,33274,1,0,0:0:0:0:
196,283,33449,1,8,0:0:0:0:
26,135,33625,1,0,0:0:0:0:
107,250,33800,5,0,3:0:0:0:
181,57,33976,1,0,3:0:0:0:
280,314,34151,1,8,0:0:0:0:
122,134,34327,1,0,3:0:0:0:
399,73,34502,1,8,0:0:0:0:
408,71,34590,1,8,0:0:0:0:
417,69,34677,1,0,3:0:0:0:
231,194,34853,2,0,P|221:171|216:146,1,50,8|0,0:0|0:0,0:0:0:0:
410,263,35028,2,0,P|406:287|397:311,1,50,0|0,3:0|0:0,0:0:0:0:
129,325,35204,6,0,P|220:231|318:266,1,240,4|0,3:2|0:0,0:0:0:0:
101,78,35905,1,8,0:0:0:0:
101,78,36256,1,0,0:0:0:0:
9,227,36432,2,0,P|26:190|36:152,1,80,0|0,3:0|0:0,0:0:0:0:
283,148,36783,2,0,P|203:148|126:168,1,160,0|0,3:0|0:0,0:0:0:0:
370,53,37309,5,8,0:0:0:0:
370,53,37660,1,0,0:0:0:0:
180,32,37835,1,0,0:0:0:0:
168,30,37923,1,0,0:0:0:0:
156,28,38011,5,0,3:0:0:0:
298,115,38186,1,0,0:0:0:0:
467,26,38362,2,0,P|460:65|449:103,1,80,0|0,0:0|3:0,0:0:0:0:
400,200,38625,1,0,3:0:0:0:
394,191,38712,2,0,L|308:208,1,80,8|0,0:0|0:0,0:0:0:0:
148,117,39063,1,0,0:0:0:0:
202,266,39239,6,0,L|221:158,1,80,0|0,3:0|0:0,0:0:0:0:
293,310,39590,1,0,3:0:0:0:
106,236,39765,2,0,L|119:314,1,80,0|0,3:0|0:0,0:0:0:0:
231,98,40116,1,8,0:0:0:0:
339,212,40291,1,0,3:0:0:0:
327,209,40379,1,0,0:0:0:0:
315,206,40467,1,0,0:0:0:0:
408,333,40642,2,0,L|402:294,1,40,8|0,0:0|0:0,0:0:0:0:
512,133,40818,6,0,B|476:160|476:160|374:132,1,150,4|0,3:2|0:0,0:0:0:0:
365,129,41169,2,0,P|360:105|353:81,1,50,8|0,0:0|0:0,0:0:0:0:
471,0,41344,2,0,P|464:24|458:48,1,50
260,129,41519,2,0,P|211:119|161:120,1,100,0|0,0:0|3:0,0:0:0:0:
343,206,41870,1,8,0:0:0:0:
270,32,42046,1,0,0:0:0:0:
202,229,42221,6,0,L|225:358,1,100,0|0,3:0|0:0,0:0:0:0:
222,337,42484,1,0,0:0:0:0:
224,346,42572,1,8,0:0:0:0:
271,153,42748,1,0,0:0:0:0:
117,260,42923,1,0,0:0:0:0:
338,268,43098,1,0,3:0:0:0:
286,90,43274,2,0,L|275:138,1,50,8|0,0:0|0:0,0:0:0:0:
306,344,43449,1,0,0:0:0:0:
309,353,43537,1,0,0:0:0:0:
312,363,43625,6,0,L|139:349,1,150,0|0,3:0|0:0,0:0:0:0:
152,350,43976,2,0,P|146:326|134:304,1,50,8|0,0:0|0:0,0:0:0:0:
8,209,44151,2,0,P|14:184|26:162,1,50
196,199,44327,2,0,P|146:204|98:217,1,100,0|0,0:0|3:0,0:0:0:0:
63,359,44677,1,8,0:0:0:0:
273,252,44853,2,0,P|284:230|290:205,1,50
100,121,45028,6,0,P|86:74|80:24,1,100,0|0,0:0|3:0,0:0:0:0:
195,176,45379,1,8,0:0:0:0:
4,133,45555,1,0,0:0:0:0:
238,31,45730,1,0,0:0:0:0:
241,40,45818,1,0,0:0:0:0:
242,49,45905,2,0,P|244:91|239:120,1,50,0|0,3:0|0:0,0:0:0:0:
134,243,46081,1,8,0:0:0:0:
323,156,46256,1,0,0:0:0:0:
325,165,46344,1,0,0:0:0:0:
328,174,46432,6,0,B|381:182|381:182|418:169|418:169|475:181,1,150,4|0,3:2|0:0,0:0:0:0:
483,184,46783,2,0,L|474:134,1,50,8|0,0:0|0:0,0:0:0:0:
362,267,46958,2,0,L|353:316,1,50
260,90,47134,2,0,L|358:72,1,100,0|0,0:0|3:0,0:0:0:0:
257,237,47484,1,8,0:0:0:0:
167,72,47660,1,0,0:0:0:0:
41,265,47835,6,0,P|82:238|133:222,1,100,4|0,3:2|0:0,0:0:0:0:
139,223,48098,1,0,0:0:0:0:
148,224,48186,1,8,0:0:0:0:
294,321,48362,1,0,0:0:0:0:
126,318,48537,1,0,0:0:0:0:
320,170,48712,1,0,3:0:0:0:
162,93,48888,2,0,L|172:141,1,50,8|0,0:0|0:0,0:0:0:0:
377,240,49063,1,0,0:0:0:0:
386,236,49151,1,0,0:0:0:0:
393,231,49239,6,0,P|416:159|428:85,1,150,4|0,3:2|0:0,0:0:0:0:
428,75,49590,2,0,P|438:123|460:174,1,100,8|0,0:0|0:0,0:0:0:0:
462,178,49853,1,0,0:0:0:0:
467,186,49941,1,4,0:0:0:0:
337,86,50116,1,0,3:0:0:0:
512,24,50291,1,8,0:0:0:0:
473,193,50467,2,0,P|481:169|486:145,1,50
326,4,50642,5,4,0:0:0:0:
271,157,50818,1,0,0:0:0:0:
111,118,50993,2,0,P|156:98|205:88,1,100,8|0,0:0|0:0,0:0:0:0:
358,201,51344,2,0,P|366:177|371:153,1,50,4|0,0:0|0:0,0:0:0:0:
210,227,51519,2,0,P|215:251|223:275,1,50,0|0,3:0|0:0,0:0:0:0:
449,323,51695,2,0,B|414:285|414:285|317:304,1,150,8|0,0:0|0:0,0:0:0:0:
247,361,52046,5,0,3:0:0:0:
119,201,52221,1,0,3:0:0:0:
362,65,52397,1,8,0:0:0:0:
305,221,52572,1,0,3:0:0:0:
52,137,52748,1,8,0:0:0:0:
42,134,52835,1,8,0:0:0:0:
32,131,52923,1,0,3:0:0:0:
257,145,53098,2,0,L|305:132,1,50,8|0,0:0|0:0,0:0:0:0:
97,283,53274,2,0,L|48:270,1,50,0|0,3:0|0:0,0:0:0:0:
133,18,53449,6,0,P|152:113|166:210,1,194.999991073609,4|0,3:2|0:0,0:0:0:0:
66,369,53800,2,0,P|117:329|179:312,1,129.999994049073,10|0,0:0|0:0,0:0:0:0:
405,320,54151,1,2,0:0:0:0:
249,157,54327,1,2,3:2:0:0:
469,184,54502,2,0,P|436:188|406:200,1,64.9999970245363,10|0,0:0|0:0,0:0:0:0:
254,253,54677,2,0,P|286:257|316:269,1,64.9999970245363,2|0,0:0|0:0,0:0:0:0:
474,384,54853,5,2,0:0:0:0:
263,351,55028,1,2,3:2:0:0:
257,362,55116,1,0,0:0:0:0:
251,373,55204,1,8,0:0:0:0:
232,75,55379,2,0,B|251:53|262:21|262:21|273:102|298:148,1,194.999991073609,2|0,0:0|0:0,0:0:0:0:
308,155,55730,2,0,P|327:129|340:99,1,64.9999970245363,2|0,3:2|0:0,0:0:0:0:
114,197,55905,2,0,P|126:227|145:252,1,64.9999970245363,10|0,0:2|0:0,0:0:0:0:
175,6,56081,2,0,P|142:1|110:5,1,64.9999970245363,2|0,0:0|0:0,0:0:0:0:
208,183,56256,6,0,P|304:171|402:171,1,194.999991073609,0|0,3:0|0:0,0:0:0:0:
488,47,56607,2,0,P|476:77|470:109,1,64.9999970245363,10|0,0:0|0:0,0:0:0:0:
442,323,56783,2,0,P|436:291|424:260,1,64.9999970245363,2|0,0:0|0:0,0:0:0:0:
317,87,56958,1,2,0:0:0:0:
492,199,57134,1,2,3:2:0:0:
321,324,57309,1,10,0:0:0:0:
288,319,57396,1,0,0:0:0:0:
256,314,57484,1,2,0:0:0:0:
223,309,57572,1,0,0:0:0:0:
192,304,57660,6,0,L|181:239,1,64.9999970245363,2|0,0:0|0:0,0:0:0:0:
70,164,57835,2,0,L|59:228,1,64.9999970245363,2|0,3:2|0:0,0:0:0:0:
37,356,58011,1,8,0:0:0:0:
230,157,58186,2,0,B|294:145|294:145|349:180|349:180|413:172,1,194.999991073609,2|0,0:0|0:0,0:0:0:0:
426,170,58537,2,0,L|415:234,1,64.9999970245363,2|0,3:2|0:0,0:0:0:0:
196,32,58712,2,0,L|218:160,1,129.999994049073,10|0,0:2|0:0,0:0:0:0:
117,253,58976,1,8,0:0:0:0:
112,265,59063,6,0,P|174:246|304:315,1,194.999991073609,4|0,3:2|0:0,0:0:0:0:
475,329,59414,2,0,P|410:335|352:363,1,129.999994049073,10|0,0:0|0:0,0:0:0:0:
228,167,59765,1,2,0:0:0:0:
370,250,59941,1,2,3:2:0:0:
213,350,60116,2,0,P|201:319|196:287,1,64.9999970245363,10|0,0:0|0:0,0:0:0:0:
352,161,60291,2,0,P|363:130|368:98,1,64.9999970245363,2|0,0:0|0:0,0:0:0:0:
118,41,60467,6,0,B|88:94|88:94|239:75,1,194.999991073609,4|0,3:2|0:0,0:0:0:0:
233,75,60818,2,0,P|244:44|249:12,1,64.9999970245363,10|0,0:0|0:0,0:0:0:0:
51,174,60993,2,0,P|56:205|67:236,1,64.9999970245363,2|0,0:0|0:0,0:0:0:0:
283,297,61169,1,2,0:0:0:0:
145,183,61344,1,0,3:0:0:0:
25,338,61519,2,0,P|87:320|150:307,1,129.999994049073,10|0,0:0|0:0,0:0:0:0:
462,326,61870,6,0,P|408:289|365:241,1,129.999994049073,6|0,3:2|0:0,0:0:0:0:
345,0,62221,2,0,P|340:64|319:126,1,129.999994049073,10|0,0:0|0:0,0:0:0:0:
311,135,62484,1,0,0:0:0:0:
300,143,62572,1,6,0:0:0:0:
138,49,62748,1,0,3:0:0:0:
120,235,62923,2,0,B|175:259|175:259|204:127,1,194.999991073609,10|0,0:0|0:0,0:0:0:0:
207,114,63274,6,0,L|212:178,1,64.9999970245363,6|0,3:2|0:0,0:0:0:0:
26,254,63449,2,0,L|31:189,1,64.9999970245363,0|0,3:0|0:0,0:0:0:0:
45,21,63625,1,10,0:0:0:0:
122,302,63800,2,0,L|127:237,1,64.9999970245363,2|0,3:2|3:0,0:0:0:0:
139,37,63976,1,8,0:0:0:0:
151,34,64063,1,8,0:0:0:0:
163,31,64151,2,0,P|201:30|227:36,1,64.9999970245363,0|0,3:0|3:0,0:0:0:0:
437,148,64327,2,0,P|450:118|458:86,1,64.9999970245363,8|0,0:0|0:0,0:0:0:0:
221,283,64502,2,0,P|229:314|242:344,1,64.9999970245363,0|0,3:0|0:0,0:0:0:0:
504,247,64677,6,0,B|457:212|434:175|434:175|341:211|341:211|296:186|246:189,1,300,4|0,3:2|0:0,0:0:0:0:
313,18,65379,2,0,P|330:64|340:113,1,100,8|0,0:0|0:0,0:0:0:0:
326,303,65730,1,0,0:0:0:0:
125,310,65905,6,0,P|171:293|220:283,1,100,0|0,3:0|0:0,0:0:0:0:
26,267,66256,2,0,P|66:238|110:216,1,100,0|0,3:0|0:0,0:0:0:0:
232,183,66607,1,0,0:0:0:0:
32,45,66783,2,0,L|21:161,1,100,8|0,0:0|0:0,0:0:0:0:
21,154,67046,1,0,0:0:0:0:
20,164,67134,1,0,0:0:0:0:
180,102,67309,1,0,0:0:0:0:
68,333,67484,6,0,B|20:301|20:301|162:287,1,200,0|0,3:0|0:0,0:0:0:0:
285,269,68011,1,0,3:0:0:0:
284,278,68098,1,0,3:0:0:0:
283,288,68186,1,8,0:0:0:0:
169,194,68362,1,0,0:0:0:0:
156,379,68537,1,0,0:0:0:0:
375,299,68712,6,0,P|370:249|357:201,1,100,0|0,3:0|0:0,0:0:0:0:
450,371,69063,1,0,3:0:0:0:
456,200,69239,2,0,P|439:153|413:110,1,100,0|0,3:0|0:0,0:0:0:0:
285,269,69590,1,8,0:0:0:0:
472,288,69765,1,0,3:0:0:0:
481,286,69853,1,0,0:0:0:0:
490,283,69941,1,0,0:0:0:0:
263,184,70116,1,8,0:0:0:0:
253,184,70204,1,0,0:0:0:0:
243,183,70291,6,0,B|191:147|191:147|213:12,1,200,4|0,3:2|0:0,0:0:0:0:
352,164,70818,1,0,0:0:0:0:
355,173,70905,1,0,0:0:0:0:
356,182,70993,1,8,0:0:0:0:
165,238,71169,1,0,0:0:0:0:
286,101,71344,1,0,0:0:0:0:
360,280,71519,1,0,3:0:0:0:
136,146,71695,5,4,0:0:0:0:
106,319,71870,2,0,P|201:332|262:258,1,200,0|0,3:0|0:0,0:0:0:0:
439,146,72397,2,0,P|446:195|461:243,1,100,8|0,0:0|0:0,0:0:0:0:
512,61,72748,1,0,0:0:0:0:
343,178,72923,1,0,0:0:0:0:
333,175,73011,1,0,0:0:0:0:
322,171,73098,6,0,P|275:153|230:130,1,100,4|0,3:2|0:0,0:0:0:0:
39,268,73449,2,0,P|85:250|130:227,1,100,0|0,3:0|0:0,0:0:0:0:
360,273,73800,2,0,P|310:267|261:257,1,100,4|0,3:2|0:0,0:0:0:0:
2,368,74151,2,0,P|51:362|100:352,1,100,0|0,3:0|0:0,0:0:0:0:
322,171,74502,5,4,3:2:0:0:
243,354,74677,1,0,3:0:0:0:
97,135,74853,1,0,3:0:0:0:
88,339,75028,1,0,3:0:0:0:
277,73,75204,5,0,3:0:0:0:
312,62,75291,1,0,3:0:0:0:
350,66,75379,1,0,3:0:0:0:
383,82,75467,1,0,3:0:0:0:
408,109,75554,1,8,0:0:0:0:
67,49,75730,1,8,0:0:0:0:
62,40,75818,1,8,0:0:0:0:
57,31,75905,6,0,B|48:102|13:155|13:155|43:140|73:139,1,194.999991073609,6|0,3:2|0:0,0:0:0:0:
65,229,76256,2,0,P|129:228|191:250,1,129.999994049073,8|2,0:0|0:0,0:0:0:0:
23,332,76607,1,2,0:0:0:0:
269,307,76783,1,0,3:0:0:0:
167,148,76958,2,0,P|154:117|149:85,1,64.9999970245363,8|0,0:0|0:0,0:0:0:0:
61,243,77134,2,0,P|55:274|43:304,1,64.9999970245363,2|0,0:0|0:0,0:0:0:0:
241,94,77309,6,0,B|379:82|379:82|414:126,1,194.999991073609,2|0,3:2|0:0,0:0:0:0:
462,239,77660,2,0,P|407:206|343:214,1,129.999994049073,10|0,0:0|0:0,0:0:0:0:
229,375,78011,1,2,0:0:0:0:
252,186,78186,1,0,3:0:0:0:
412,356,78362,2,0,P|397:326|390:295,1,64.9999970245363,10|0,0:0|0:0,0:0:0:0:
512,92,78537,2,0,P|504:123|490:152,1,64.9999970245363,2|0,0:0|0:0,0:0:0:0:
302,317,78712,6,0,B|262:279|262:279|123:294,1,194.999991073609,2|0,3:2|0:0,0:0:0:0:
34,323,79063,2,0,L|43:258,1,64.9999970245363,8|0,0:0|0:0,0:0:0:0:
163,77,79239,1,2,0:0:0:0:
166,89,79327,1,0,0:0:0:0:
169,101,79414,2,0,L|233:95,1,64.9999970245363,2|0,0:0|0:0,0:0:0:0:
362,81,79590,1,0,0:0:0:0:
254,246,79765,2,0,L|245:181,1,64.9999970245363,10|0,0:0|0:0,0:0:0:0:
76,130,79941,1,2,0:0:0:0:
73,142,80029,1,0,0:0:0:0:
70,154,80116,5,2,0:0:0:0:
12,48,80291,1,0,3:0:0:0:
0,272,80467,2,0,P|58:244|122:233,1,129.999994049073,8|0,0:0|0:0,0:0:0:0:
331,351,80818,2,0,P|300:338|269:330,1,64.9999970245363
163,156,80993,2,0,P|194:147|224:135,1,64.9999970245363,0|0,3:0|0:0,0:0:0:0:
491,241,81169,2,0,P|427:230|368:201,1,129.999994049073,8|0,0:0|0:0,0:0:0:0:
334,106,81432,1,8,0:0:0:0:
341,116,81519,6,0,B|320:252|320:252|299:233|270:223,1,194.999991073609,6|0,3:2|0:0,0:0:0:0:
235,127,81870,2,0,P|174:104|110:93,1,129.999994049073,8|2,0:0|0:0,0:0:0:0:
250,313,82221,1,2,0:0:0:0:
412,206,82397,1,0,3:0:0:0:
170,258,82572,2,0,P|159:288|154:320,1,64.9999970245363,8|0,0:0|0:0,0:0:0:0:
326,136,82748,2,0,P|321:103|310:73,1,64.9999970245363,2|0,0:0|0:0,0:0:0:0:
108,187,82923,5,6,0:0:0:0:
291,225,83098,1,0,3:0:0:0:
69,348,83274,2,0,P|52:285|24:226,1,129.999994049073,10|0,0:0|0:0,0:0:0:0:
235,127,83625,1,2,0:0:0:0:
154,320,83800,1,0,3:0:0:0:
25,82,83976,1,10,0:0:0:0:
51,41,84063,1,0,0:0:0:0:
94,18,84151,1,0,0:0:0:0:
142,18,84239,1,0,0:0:0:0:
185,39,84327,6,0,B|313:55|313:55|366:18,1,194.999991073609,2|0,3:2|0:0,0:0:0:0:
397,106,84677,2,0,P|405:137|418:167,1,64.9999970245363,8|0,0:0|0:0,0:0:0:0:
254,337,84853,2,0,P|266:307|275:275,1,64.9999970245363,2|0,0:0|0:0,0:0:0:0:
222,124,85028,1,2,0:0:0:0:
351,331,85204,1,0,3:0:0:0:
495,107,85379,1,8,0:0:0:0:
363,243,85555,1,0,0:0:0:0:
111,137,85730,6,0,L|34:106,1,64.9999970245363,0|0,3:0|0:0,0:0:0:0:
262,197,85905,2,0,L|322:172,1,64.9999970245363,0|0,3:0|0:0,0:0:0:0:
88,369,86081,1,8,0:0:0:0:
167,230,86256,2,0,L|175:294,1,64.9999970245363,0|0,3:0|3:0,0:0:0:0:
421,373,86432,5,8,0:0:0:0:
388,337,86519,1,8,0:0:0:0:
343,318,86607,1,0,3:0:0:0:
295,321,86695,1,0,3:0:0:0:
253,343,86783,2,0,P|261:311|263:279,1,64.9999970245363,8|0,0:0|0:0,0:0:0:0:
75,211,86958,2,0,P|76:243|85:274,1,64.9999970245363,0|0,3:0|0:0,0:0:0:0:
357,232,87134,6,0,L|378:51,1,179.999994506836,4|0,3:2|0:0,0:0:0:0:
512,0,87484,2,0,P|483:8|453:13,1,59.9999981689454,8|0,0:0|0:0,0:0:0:0:
230,107,87660,2,0,P|259:112|288:120,1,59.9999981689454
446,235,87835,1,0,0:0:0:0:
451,245,87923,1,0,0:0:0:0:
454,256,88011,1,0,3:0:0:0:
241,196,88186,1,8,0:0:0:0:
452,148,88362,1,0,0:0:0:0:
380,384,88537,6,0,L|362:265,1,119.999996337891,0|0,3:0|0:0,0:0:0:0:
360,253,88800,1,0,0:0:0:0:
358,241,88888,2,0,P|330:253|301:261,1,59.9999981689454,8|0,0:0|0:0,0:0:0:0:
101,167,89063,2,0,L|258:208,1,119.999996337891
59,325,89414,1,0,3:0:0:0:
5,165,89590,2,0,P|13:136|26:109,1,59.9999981689454,8|0,0:0|0:0,0:0:0:0:
133,264,89765,2,0,P|146:290|154:319,1,59.9999981689454
349,136,89941,6,0,B|318:84|318:84|200:103,1,179.999994506836,0|0,3:0|0:0,0:0:0:0:
112,81,90291,2,0,L|129:4,1,59.9999981689454,8|0,0:0|0:0,0:0:0:0:
273,190,90467,2,0,L|285:248,1,59.9999981689454
96,179,90642,1,0,0:0:0:0:
107,175,90730,1,0,0:0:0:0:
118,173,90818,1,0,3:0:0:0:
290,346,90993,2,0,P|319:338|346:326,1,59.9999981689454,8|0,0:0|0:0,0:0:0:0:
481,133,91169,6,0,P|472:161|469:191,1,59.9999981689454
504,316,91344,1,0,0:0:0:0:
398,56,91519,2,0,P|382:81|371:109,1,59.9999981689454,0|0,3:0|0:0,0:0:0:0:
372,238,91694,1,8,0:0:0:0:
297,6,91870,2,0,P|209:9|157:79,1,179.999994506836
159,91,92221,1,0,3:0:0:0:
253,295,92397,1,8,0:0:0:0:
279,259,92484,1,0,0:0:0:0:
283,215,92572,1,0,0:0:0:0:
265,174,92660,1,0,0:0:0:0:
228,149,92748,6,0,B|184:190|184:190|66:165,1,179.999994506836,4|0,3:2|0:0,0:0:0:0:
6,231,93098,2,0,P|16:258|24:287,1,59.9999981689454,8|0,0:0|0:0,0:0:0:0:
159,91,93274,2,0,P|167:62|177:34,1,59.9999981689454
372,164,93449,1,0,0:0:0:0:
361,161,93537,1,0,0:0:0:0:
350,159,93625,1,0,3:0:0:0:
167,281,93800,1,8,0:0:0:0:
265,64,93976,1,0,0:0:0:0:
373,280,94151,6,0,B|417:256|417:256|267:231,1,179.999994506836,4|0,3:2|0:0,0:0:0:0:
236,339,94502,2,0,P|263:327|292:319,1,59.9999981689454,8|0,0:0|0:0,0:0:0:0:
497,160,94677,2,0,P|502:237|520:298,1,119.999996337891
375,366,95028,1,0,3:0:0:0:
418,108,95204,2,0,P|409:136|398:164,1,59.9999981689454,8|0,0:0|0:0,0:0:0:0:
272,232,95379,2,0,P|263:203|252:175,1,59.9999981689454
45,0,95555,6,0,L|159:32,1,119.999996337891,4|0,3:2|0:0,0:0:0:0:
418,13,95905,2,0,L|303:45,1,119.999996337891,2|0,3:2|0:0,0:0:0:0:
45,95,96256,6,0,L|159:127,1,119.999996337891,4|0,3:2|0:0,0:0:0:0:
418,108,96607,2,0,L|303:140,1,119.999996337891,2|0,3:2|0:0,0:0:0:0:
149,317,96958,6,0,L|206:300,1,59.9999981689454,4|0,3:2|0:0,0:0:0:0:
378,250,97134,2,0,L|320:266,1,59.9999981689454,0|0,3:0|0:0,0:0:0:0:
177,201,97309,6,0,L|219:242,1,59.9999981689454,2|0,3:2|0:0,0:0:0:0:
349,366,97485,2,0,L|306:324,1,59.9999981689454
403,60,97660,5,0,3:0:0:0:
461,79,97748,1,0,3:0:0:0:
461,139,97835,1,0,3:0:0:0:
403,158,97923,1,0,3:0:0:0:
368,109,98011,1,0,0:0:0:0:
174,46,98186,1,8,0:0:0:0:
165,37,98274,1,8,0:0:0:0:
155,27,98362,6,0,P|136:99|104:167,1,150,4|0,3:2|0:0,0:0:0:0:
16,264,98712,2,0,P|37:251|60:242,1,50,8|0,0:0|0:0,0:0:0:0:
268,140,98888,2,0,P|244:133|221:121,1,50
53,38,99063,1,0,0:0:0:0:
11,170,99239,1,0,3:0:0:0:
137,98,99414,1,8,0:0:0:0:
203,265,99590,1,0,0:0:0:0:
397,132,99765,6,0,B|365:110|365:110|347:219,1,150,0|0,3:0|0:0,0:0:0:0:
439,204,100116,2,0,L|488:195,1,50,8|0,0:0|0:0,0:0:0:0:
299,55,100291,2,0,L|239:45,1,50
264,234,100467,1,0,0:0:0:0:
397,132,100642,1,0,3:0:0:0:
494,315,100818,2,0,P|446:300|396:294,1,100,8|0,0:0|0:0,0:0:0:0:
386,296,101081,1,0,0:0:0:0:
376,299,101169,5,0,3:0:0:0:
229,128,101344,1,0,0:0:0:0:
116,329,101519,1,8,0:0:0:0:
151,317,101606,1,0,0:0:0:0:
185,302,101694,1,0,0:0:0:0:
216,281,101782,1,0,0:0:0:0:
245,256,101869,1,0,0:0:0:0:
423,377,102046,1,0,3:0:0:0:
432,162,102221,2,0,P|414:186|403:214,1,50,8|0,0:0|0:0,0:0:0:0:
323,384,102397,2,0,P|311:356|294:331,1,50
114,242,102572,5,0,0:0:0:0:
330,158,102748,1,0,3:0:0:0:
218,384,102923,1,8,0:0:0:0:
97,136,103098,2,0,B|71:111|71:111|35:218,1,150
33,229,103449,2,0,L|92:238,1,50,0|0,3:0|0:0,0:0:0:0:
223,91,103625,2,0,L|163:100,1,50,8|0,0:0|0:0,0:0:0:0:
192,267,103800,1,0,0:0:0:0:
196,258,103888,1,0,0:0:0:0:
200,249,103976,6,0,P|256:202|328:213,1,150,0|0,3:0|0:0,0:0:0:0:
455,285,104327,2,0,P|444:257|437:227,1,50,8|0,0:0|0:0,0:0:0:0:
284,305,104502,2,0,P|277:334|266:362,1,50
163,162,104677,1,0,0:0:0:0:
111,328,104853,1,0,3:0:0:0:
270,197,105028,1,8,0:0:0:0:
369,344,105204,1,0,0:0:0:0:
501,158,105379,6,0,B|484:140|472:115|472:115|426:135|376:134,1,150,0|0,3:0|0:0,0:0:0:0:
274,79,105730,2,0,P|263:50|259:21,1,50,8|0,0:0|0:0,0:0:0:0:
437,218,105905,2,0,P|432:247|422:275,1,50
234,351,106081,1,0,0:0:0:0:
345,227,106256,1,0,3:0:0:0:
188,119,106432,2,0,P|173:71|167:21,1,100,8|0,0:0|0:0,0:0:0:0:
167,10,106695,1,0,0:0:0:0:
168,0,106783,6,0,L|51:27,1,100,0|0,3:0|0:0,0:0:0:0:
348,33,107134,2,0,L|464:60,1,100,0|0,3:0|0:0,0:0:0:0:
125,102,107484,6,0,L|8:129,1,100,0|0,3:0|0:0,0:0:0:0:
391,135,107835,2,0,L|507:162,1,100,0|0,3:0|0:0,0:0:0:0:
181,244,108186,5,0,3:0:0:0:
227,82,108362,1,0,3:0:0:0:
307,336,108537,1,8,0:0:0:0:
88,232,108712,1,0,3:0:0:0:
379,272,108888,1,8,0:0:0:0:
389,273,108976,1,8,0:0:0:0:
400,275,109063,1,0,3:0:0:0:
218,323,109239,2,0,P|188:331|154:347,1,50,8|0,0:0|0:0,0:0:0:0:
410,190,109414,2,0,P|440:198|474:214,1,50,0|0,3:0|0:0,0:0:0:0:
212,67,109590,6,0,B|249:6|249:6|290:173,1,239.999992675781,4|0,3:2|3:0,0:0:0:0:
380,0,110291,1,8,0:0:0:0:
380,0,110642,1,0,0:0:0:0:
435,104,110818,2,0,L|356:89,1,80,0|0,3:0|0:0,0:0:0:0:
132,199,111169,2,0,L|289:169,1,160,0|0,3:0|3:0,0:0:0:0:
83,116,111695,1,8,0:0:0:0:
49,248,111870,2,0,L|29:325,1,80,0|0,3:0|0:0,0:0:0:0:
0,165,112221,1,8,0:0:0:0:
132,307,112397,6,0,P|205:269|286:275,1,160,0|0,3:0|0:0,0:0:0:0:
406,347,112923,1,0,3:0:0:0:
401,340,113011,1,0,3:0:0:0:
397,333,113098,2,0,B|410:255|410:255|390:219,2,120,8|8|0,0:0|0:0|3:0,0:0:0:0:
230,365,113800,5,0,0:0:0:0:
162,209,113976,1,0,3:0:0:0:
64,339,114151,2,0,L|143:353,1,80,0|0,3:0|0:0,0:0:0:0:
224,146,114502,1,8,0:0:0:0:
46,168,114677,1,0,3:0:0:0:
48,179,114765,1,0,0:0:0:0:
50,190,114853,1,0,0:0:0:0:
168,52,115028,2,0,L|157:90,1,40,8|0,0:0|0:0,0:0:0:0:
225,269,115204,6,0,B|254:229|254:229|353:244,1,150,4|0,3:2|0:0,0:0:0:0:
363,244,115555,2,0,P|374:222|382:199,1,50,8|0,0:0|0:0,0:0:0:0:
491,112,115730,2,0,P|499:135|510:157,1,50
350,66,115905,2,0,L|250:78,1,100,0|0,0:0|3:0,0:0:0:0:
163,203,116256,1,8,0:0:0:0:
80,59,116432,1,0,0:0:0:0:
250,178,116607,6,0,P|269:223|282:272,1,100,0|0,3:0|0:0,0:0:0:0:
283,282,116870,1,0,0:0:0:0:
283,292,116958,1,8,0:0:0:0:
74,190,117134,1,0,0:0:0:0:
230,95,117309,1,0,0:0:0:0:
131,285,117484,1,0,3:0:0:0:
28,90,117660,2,0,L|108:114,1,50,8|0,0:0|0:0,0:0:0:0:
307,53,117835,1,0,0:0:0:0:
315,48,117923,1,0,0:0:0:0:
323,43,118011,6,0,L|305:214,1,150,0|0,3:0|0:0,0:0:0:0:
307,202,118362,2,0,L|356:194,1,50,8|0,0:0|0:0,0:0:0:0:
458,93,118537,2,0,L|408:85,1,50
512,246,118712,2,0,L|413:261,1,100,0|0,0:0|3:0,0:0:0:0:
217,217,119063,1,8,0:0:0:0:
308,340,119239,2,0,P|314:316|325:293,1,50
120,190,119414,6,0,P|136:237|144:286,1,100,0|0,0:0|3:0,0:0:0:0:
199,106,119765,1,8,0:0:0:0:
46,264,119941,1,0,0:0:0:0:
56,73,120116,1,0,0:0:0:0:
59,82,120204,1,0,0:0:0:0:
62,90,120291,2,0,P|85:80|109:76,1,50,0|0,3:0|0:0,0:0:0:0:
285,147,120467,1,8,0:0:0:0:
144,286,120642,1,0,0:0:0:0:
147,276,120730,1,0,0:0:0:0:
150,266,120818,6,0,P|224:266|305:283,1,150,4|0,3:2|0:0,0:0:0:0:
377,238,121169,2,0,P|366:215|359:191,1,50,8|0,0:0|0:0,0:0:0:0:
195,127,121344,2,0,P|188:151|177:173,1,50
72,361,121519,2,0,P|58:312|37:267,1,100,0|0,0:0|3:0,0:0:0:0:
272,184,121870,1,8,0:0:0:0:
219,350,122046,1,0,0:0:0:0:
80,147,122221,6,0,P|122:130|202:126,1,100,4|0,3:2|0:0,0:0:0:0:
186,125,122484,1,0,0:0:0:0:
195,127,122572,1,8,0:0:0:0:
318,265,122748,1,0,0:0:0:0:
412,122,122923,1,0,0:0:0:0:
272,184,123098,1,0,3:0:0:0:
475,244,123274,2,0,P|473:207|463:163,1,50,8|0,0:0|0:0,0:0:0:0:
335,78,123449,1,0,0:0:0:0:
331,87,123537,1,0,0:0:0:0:
328,96,123625,6,0,P|399:73|473:62,1,150,4|0,3:2|0:0,0:0:0:0:
483,62,123976,2,0,P|434:50|390:27,1,100,8|0,0:0|0:0,0:0:0:0:
382,20,124239,1,0,0:0:0:0:
374,13,124327,1,0,0:0:0:0:
379,187,124502,1,0,3:0:0:0:
241,50,124677,1,8,0:0:0:0:
193,198,124853,2,0,P|217:191|241:186,1,50
448,256,125028,5,0,0:0:0:0:
310,118,125204,1,0,3:0:0:0:
196,301,125379,2,0,P|148:285|99:274,1,100,8|0,0:0|0:0,0:0:0:0:
0,76,125730,2,0,P|13:97|23:120,1,50
209,162,125905,2,0,P|195:183|185:206,1,50,0|0,3:0|0:0,0:0:0:0:
21,347,126081,2,0,B|3:246|3:246|36:212,1,150,8|0,0:0|0:0,0:0:0:0:
110,153,126432,5,0,3:0:0:0:
297,237,126607,1,0,3:0:0:0:
191,0,126783,1,8,0:0:0:0:
217,167,126958,1,0,3:0:0:0:
471,108,127134,1,8,0:0:0:0:
480,106,127221,1,8,0:0:0:0:
489,104,127309,1,0,3:0:0:0:
280,0,127484,2,0,L|266:48,1,50,8|0,0:0|0:0,0:0:0:0:
398,221,127660,2,0,L|384:172,1,50,0|0,3:0|0:0,0:0:0:0:
114,212,127835,6,0,P|211:213|307:232,1,194.999991073609,4|0,3:2|0:0,0:0:0:0:
418,305,128186,1,8,0:0:0:0:
198,370,128362,1,0,0:0:0:0:
192,127,128537,1,0,0:0:0:0:
273,315,128712,1,0,3:0:0:0:
369,158,128888,2,0,P|339:145|307:137,1,64.9999970245363,8|0,0:0|0:0,0:0:0:0:
112,302,129063,2,0,P|143:294|173:281,1,64.9999970245363
147,47,129239,5,0,0:0:0:0:
359,244,129414,1,0,3:0:0:0:
371,246,129502,1,0,0:0:0:0:
384,245,129590,1,8,0:0:0:0:
286,54,129765,2,0,B|240:23|240:23|216:160,1,194.999991073609
216,173,130116,2,0,P|183:169|153:158,1,64.9999970245363,0|0,3:0|0:0,0:0:0:0:
51,17,130291,2,0,P|64:47|69:79,1,64.9999970245363,8|0,0:0|0:0,0:0:0:0:
0,238,130467,2,0,P|18:211|44:191,1,64.9999970245363
295,302,130642,6,0,B|260:256|260:256|126:289,1,194.999991073609,0|0,3:0|0:0,0:0:0:0:
21,384,130993,2,0,P|32:353|41:322,1,64.9999970245363,8|0,0:0|0:0,0:0:0:0:
130,133,131169,2,0,P|138:164|150:194,1,64.9999970245363
226,358,131344,1,0,0:0:0:0:
367,220,131519,1,0,3:0:0:0:
246,15,131695,1,8,0:0:0:0:
232,44,131782,1,0,0:0:0:0:
225,76,131870,1,0,0:0:0:0:
224,108,131958,1,0,0:0:0:0:
231,140,132046,6,0,P|262:149|294:152,1,64.9999970245363
444,222,132221,2,0,P|411:224|380:233,1,64.9999970245363,0|0,3:0|0:0,0:0:0:0:
305,336,132397,1,8,0:0:0:0:
136,182,132572,2,0,B|91:234|91:234|217:229,1,194.999991073609
230,228,132923,2,0,L|218:291,1,64.9999970245363,0|0,3:0|0:0,0:0:0:0:
0,183,133098,2,0,L|23:310,1,129.999994049073,8|0,0:0|0:0,0:0:0:0:
141,384,133362,1,8,0:0:0:0:
145,371,133449,6,0,P|223:318|314:344,1,194.999991073609,4|0,3:2|0:0,0:0:0:0:
424,368,133800,2,0,P|396:309|381:246,1,129.999994049073,8|0,0:0|0:0,0:0:0:0:
370,92,134151,1,0,0:0:0:0:
477,278,134327,1,0,3:0:0:0:
291,232,134502,2,0,P|302:201|309:169,1,64.9999970245363,8|0,0:0|0:0,0:0:0:0:
464,92,134677,2,0,P|452:62|445:30,1,64.9999970245363
132,25,134853,6,0,B|93:66|93:66|168:60|224:99,1,194.999991073609,4|0,3:2|0:0,0:0:0:0:
230,110,135204,2,0,P|223:141|211:172,1,64.9999970245363,8|0,0:0|0:0,0:0:0:0:
21,122,135379,2,0,P|9:91|2:59,1,64.9999970245363
222,0,135555,1,0,0:0:0:0:
68,197,135730,1,0,3:0:0:0:
309,169,135905,2,0,P|372:183|431:217,1,129.999994049073,8|0,0:0|0:0,0:0:0:0:
167,384,136256,6,0,L|188:255,1,129.999994049073,4|0,3:2|0:0,0:0:0:0:
47,68,136607,2,0,L|68:197,1,129.999994049073,8|0,0:0|0:0,0:0:0:0:
71,208,136870,1,0,0:0:0:0:
74,220,136958,1,4,0:0:0:0:
212,119,137134,1,0,3:0:0:0:
371,282,137309,2,0,B|396:341|396:341|267:313,1,194.999991073609,8|0,0:0|0:0,0:0:0:0:
255,311,137660,6,0,B|264:375,1,64.9999970245363,0|0,3:0|0:0,0:0:0:0:
457,271,137835,2,0,B|466:206,1,64.9999970245363,0|0,3:0|0:0,0:0:0:0:
238,197,138011,1,8,0:0:0:0:
503,113,138186,2,0,B|512:48,1,64.9999970245363,0|0,3:0|3:0,0:0:0:0:
215,35,138362,1,8,0:0:0:0:
217,47,138449,1,8,0:0:0:0:
220,59,138537,2,0,P|241:83|265:104,1,64.9999970245363,0|0,3:0|3:0,0:0:0:0:
467,280,138712,2,0,P|435:286|404:296,1,64.9999970245363,8|0,0:0|0:0,0:0:0:0:
152,383,138888,2,0,P|162:352|169:320,1,64.9999970245363,0|0,3:0|0:0,0:0:0:0:
