osu file format v14

[General]
AudioFilename: audio.mp3
AudioLeadIn: 0
PreviewTime: 194813
Countdown: 0
SampleSet: None
StackLeniency: 0.7
Mode: 3
LetterboxInBreaks: 0
SpecialStyle: 0
WidescreenStoryboard: 1

[Editor]
Bookmarks: 23995,35632,101086,112723,166541,229813
DistanceSpacing: 2
BeatDivisor: 4
GridSize: 8
TimelineZoom: 1.2

[Metadata]
Title:Hitorigoto
TitleUnicode:ヒトリゴト
Artist:ClariS
ArtistUnicode:ClariS
Creator:Asherz007
Version:Yeah!
Source:エロマンガ先生
Tags:eromanga ero manga sensei op opening full ver version spring 2017 clara karen sacra music
BeatmapID:1292937
BeatmapSetID:611065

[Difficulty]
HPDrainRate:8.5
CircleSize:4
OverallDifficulty:8.5
ApproachRate:5
SliderMultiplier:1.4
SliderTickRate:1

[Events]
//Background and Video events
0,0,"maxresdefault.jpg",0,0
//Break Periods
//Storyboard Layer 0 (Background)
//Storyboard Layer 1 (Fail)
//Storyboard Layer 2 (Pass)
//Storyboard Layer 3 (Foreground)
//Storyboard Sound Samples

[TimingPoints]
723,363.636363636364,4,3,1,60,1,0
54541,-100,4,3,1,75,0,1
87995,-100,4,3,1,60,0,0
131632,-100,4,3,1,75,0,1
166541,-100,4,2,1,40,0,0
178177,-100,4,3,1,60,0,0
194904,363.636363636364,4,3,1,75,1,1
229085,-100,4,3,1,60,0,0

[HitObjects]
64,192,359,5,0,0:0:0:0:
192,192,404,1,0,0:0:0:0:
320,192,450,1,0,0:0:0:0:
448,192,495,1,0,0:0:0:0:
64,192,541,1,0,0:0:0:0:
192,192,586,1,0,0:0:0:0:
320,192,632,1,0,0:0:0:0:
448,192,677,1,0,0:0:0:0:
64,192,723,1,2,2:0:0:0:
192,192,723,1,2,0:0:0:0:
448,192,904,1,0,0:0:0:0:
320,192,904,1,2,0:0:0:0:
192,192,1632,128,0,2177:0:0:0:0:
320,192,1632,128,0,2177:0:0:0:0:
64,192,2177,1,2,0:2:0:0:
448,192,2177,1,2,0:0:0:0:
192,192,2359,1,0,0:0:0:0:
320,192,2359,1,2,0:0:0:0:
192,192,3086,128,0,3632:0:0:0:0:
448,192,3086,128,0,3632:0:0:0:0:
64,192,3632,1,2,0:0:0:0:
320,192,3632,1,2,0:2:0:0:
192,192,3813,1,2,0:0:0:0:
448,192,3813,1,0,0:0:0:0:
64,192,4541,128,0,5086:0:0:0:0:
320,192,4541,128,0,5086:0:0:0:0:
192,192,5086,1,2,0:2:0:0:
448,192,5086,128,6,5813:0:0:0:0:
64,192,5813,1,0,0:0:0:0:
192,192,5813,1,2,0:0:0:0:
320,192,5813,128,4,6056:0:0:0:0:
448,192,6056,1,0,0:0:0:0:
192,192,6056,128,4,6298:0:0:0:0:
64,192,6056,1,2,0:0:0:0:
448,192,6298,1,2,0:0:0:0:
64,192,6298,128,4,6541:0:0:0:0:
320,192,6298,1,0,0:0:0:0:
192,192,6541,1,2,2:0:0:0:
320,192,6541,1,2,0:0:0:0:
448,192,6541,1,0,0:0:0:0:
320,192,6723,1,2,0:0:0:0:
64,192,6723,1,0,0:0:0:0:
448,192,6723,1,0,0:0:0:0:
448,192,7450,128,0,7995:0:0:0:0:
64,192,7995,1,0,0:0:0:0:
192,192,7995,1,2,0:0:0:0:
320,192,7995,1,2,0:2:0:0:
192,192,8177,1,2,0:0:0:0:
64,192,8177,1,0,0:0:0:0:
448,192,8177,1,0,0:0:0:0:
192,192,8904,128,0,9450:0:0:0:0:
64,192,9450,1,2,0:0:0:0:
320,192,9450,1,2,0:2:0:0:
448,192,9450,1,0,0:0:0:0:
448,192,9632,1,0,0:0:0:0:
64,192,9632,1,0,0:0:0:0:
192,192,9632,1,2,0:0:0:0:
320,192,10359,128,0,10904:0:0:0:0:
192,192,10904,1,2,0:2:0:0:
448,192,10904,1,2,0:0:0:0:
64,192,10904,128,4,11632:0:0:0:0:
320,192,11268,1,0,0:0:0:0:
448,192,11632,1,0,0:0:0:0:
320,192,11632,1,2,0:0:0:0:
192,192,11632,128,4,11874:0:0:0:0:
64,192,11874,1,0,0:0:0:0:
448,192,11874,1,2,0:0:0:0:
320,192,11874,128,4,12116:0:0:0:0:
448,192,12116,128,4,12359:0:0:0:0:
64,192,12116,1,2,0:0:0:0:
192,192,12116,1,0,0:0:0:0:
64,192,12359,1,0,0:0:0:0:
192,192,12359,1,4,0:0:0:0:
320,192,12359,1,2,0:0:0:0:
448,192,12541,1,0,0:0:0:0:
192,192,12723,1,0,0:0:0:0:
64,192,12723,1,0,0:0:0:0:
320,192,12723,1,8,0:0:0:0:
448,192,12904,1,0,0:0:0:0:
320,192,13086,1,0,0:0:0:0:
192,192,13086,1,2,0:0:0:0:
64,192,13268,1,0,0:0:0:0:
192,192,13450,1,0,0:0:0:0:
320,192,13450,1,8,0:0:0:0:
448,192,13450,1,0,0:0:0:0:
64,192,13632,128,0,13813:0:0:0:0:
448,192,13813,1,0,0:0:0:0:
192,192,13813,1,2,0:0:0:0:
320,192,13995,128,0,14177:0:0:0:0:
448,192,14177,1,0,0:0:0:0:
64,192,14177,1,0,0:0:0:0:
192,192,14177,1,8,0:0:0:0:
192,192,14359,128,0,14541:0:0:0:0:
64,192,14541,1,2,0:0:0:0:
320,192,14541,1,0,0:0:0:0:
448,192,14723,128,0,14904:0:0:0:0:
64,192,14904,1,0,0:0:0:0:
320,192,14904,1,8,0:0:0:0:
192,192,14904,1,0,0:0:0:0:
448,192,15086,1,0,0:0:0:0:
64,192,15268,1,2,0:0:0:0:
192,192,15268,1,4,0:0:0:0:
448,192,15268,1,0,0:0:0:0:
320,192,15450,1,0,0:0:0:0:
64,192,15632,1,0,0:0:0:0:
192,192,15632,1,8,0:0:0:0:
448,192,15632,1,0,0:0:0:0:
320,192,15813,1,0,0:0:0:0:
448,192,15995,1,0,0:0:0:0:
192,192,15995,1,2,0:0:0:0:
64,192,16177,1,0,0:0:0:0:
320,192,16359,1,8,0:0:0:0:
192,192,16359,1,0,0:0:0:0:
448,192,16359,1,0,0:0:0:0:
64,192,16541,128,0,16723:0:0:0:0:
320,192,16723,1,2,0:0:0:0:
448,192,16723,1,0,0:0:0:0:
192,192,16904,128,0,17086:0:0:0:0:
64,192,17086,1,0,0:0:0:0:
320,192,17086,1,8,0:0:0:0:
448,192,17086,1,0,0:0:0:0:
320,192,17268,128,0,17450:0:0:0:0:
192,192,17450,1,2,0:0:0:0:
64,192,17450,1,0,0:0:0:0:
448,192,17632,128,0,17813:0:0:0:0:
320,192,17813,1,0,0:0:0:0:
192,192,17813,1,8,0:0:0:0:
64,192,17813,1,0,0:0:0:0:
64,192,17995,128,0,18177:0:0:0:0:
192,192,18177,1,2,0:0:0:0:
320,192,18177,1,4,0:0:0:0:
448,192,18177,1,0,0:0:0:0:
64,192,18359,1,0,0:0:0:0:
320,192,18541,1,0,0:0:0:0:
448,192,18541,1,0,0:0:0:0:
192,192,18541,1,8,0:0:0:0:
64,192,18723,1,0,0:0:0:0:
192,192,18904,1,0,0:0:0:0:
320,192,18904,1,2,0:0:0:0:
448,192,19086,1,0,0:0:0:0:
320,192,19268,1,0,0:0:0:0:
192,192,19268,1,8,0:0:0:0:
64,192,19268,1,0,0:0:0:0:
448,192,19450,128,0,19632:0:0:0:0:
64,192,19632,1,0,0:0:0:0:
320,192,19632,1,2,0:0:0:0:
192,192,19813,128,0,19995:0:0:0:0:
64,192,19995,1,0,0:0:0:0:
448,192,19995,1,0,0:0:0:0:
320,192,19995,1,8,0:0:0:0:
320,192,20177,128,0,20359:0:0:0:0:
448,192,20359,1,0,0:0:0:0:
192,192,20359,1,2,0:0:0:0:
64,192,20541,128,0,20723:0:0:0:0:
448,192,20723,1,0,0:0:0:0:
192,192,20723,1,0,0:0:0:0:
320,192,20723,1,8,0:0:0:0:
64,192,20904,1,0,0:0:0:0:
448,192,21086,1,4,0:0:0:0:
320,192,21086,1,2,0:0:0:0:
64,192,21086,1,0,0:0:0:0:
192,192,21268,1,0,0:0:0:0:
448,192,21450,1,0,0:0:0:0:
320,192,21450,1,8,0:0:0:0:
64,192,21450,1,0,0:0:0:0:
192,192,21632,1,0,0:0:0:0:
64,192,21813,1,0,0:0:0:0:
320,192,21813,1,2,0:0:0:0:
448,192,21995,1,0,0:0:0:0:
192,192,22177,1,8,0:0:0:0:
320,192,22177,1,0,0:0:0:0:
64,192,22177,1,0,0:0:0:0:
448,192,22359,1,0,0:0:0:0:
192,192,22450,1,0,0:0:0:0:
320,192,22541,1,4,0:0:0:0:
448,192,22541,1,0,0:0:0:0:
64,192,22541,1,2,0:0:0:0:
192,192,22723,1,8,0:2:0:0:
320,192,22813,1,0,0:0:0:0:
448,192,22904,1,0,0:0:0:0:
192,192,22904,1,4,0:0:0:0:
64,192,22904,1,8,0:0:0:0:
320,192,23086,1,8,0:2:0:0:
448,192,23086,1,0,0:0:0:0:
192,192,23177,1,0,0:0:0:0:
320,192,23268,1,4,0:0:0:0:
448,192,23268,1,0,0:0:0:0:
64,192,23268,1,0,0:0:0:0:
64,192,23450,1,0,0:0:0:0:
192,192,23450,1,8,0:2:0:0:
320,192,23541,1,8,0:2:0:0:
448,192,23541,1,0,0:0:0:0:
192,192,23632,1,8,0:2:0:0:
64,192,23632,1,8,0:0:0:0:
320,192,23723,1,8,0:2:0:0:
448,192,23723,1,0,0:0:0:0:
192,192,23813,1,8,0:2:0:0:
64,192,23813,1,0,0:0:0:0:
320,192,23904,1,8,0:2:0:0:
448,192,23995,1,2,0:0:0:0:
192,192,23995,1,4,0:0:0:0:
64,192,23995,128,0,24359:0:0:0:0:
320,192,24177,1,0,0:0:0:0:
192,192,24359,1,8,0:2:0:0:
448,192,24359,128,0,24723:0:0:0:0:
64,192,24541,1,0,0:0:0:0:
320,192,24723,128,2,25086:0:0:0:0:
192,192,24904,1,0,0:0:0:0:
64,192,25086,128,0,25450:0:0:0:0:
448,192,25086,1,8,0:2:0:0:
192,192,25268,1,0,0:0:0:0:
448,192,25450,128,2,25813:0:0:0:0:
320,192,25632,1,0,0:0:0:0:
192,192,25813,1,8,0:2:0:0:
64,192,25813,128,0,26177:0:0:0:0:
448,192,25995,1,0,0:0:0:0:
192,192,26177,128,2,26541:0:0:0:0:
320,192,26359,1,0,0:0:0:0:
64,192,26541,1,8,0:2:0:0:
448,192,26541,128,0,26904:0:0:0:0:
192,192,26723,1,0,0:0:0:0:
320,192,26904,1,2,0:0:0:0:
64,192,26904,128,0,27268:0:0:0:0:
192,192,27086,1,0,0:0:0:0:
320,192,27268,1,8,0:2:0:0:
448,192,27268,128,0,27632:0:0:0:0:
192,192,27450,1,0,0:0:0:0:
320,192,27632,128,2,27995:0:0:0:0:
64,192,27813,1,0,0:0:0:0:
192,192,27995,128,8,28359:0:2:0:0:
448,192,27995,1,0,0:0:0:0:
320,192,28177,1,0,0:0:0:0:
448,192,28359,128,2,28541:0:0:0:0:
64,192,28359,1,0,0:0:0:0:
320,192,28541,1,0,0:0:0:0:
192,192,28723,1,8,0:2:0:0:
64,192,28723,1,0,0:0:0:0:
320,192,28904,128,0,29086:0:0:0:0:
448,192,28904,1,0,0:0:0:0:
64,192,29086,1,2,0:0:0:0:
192,192,29268,128,0,29450:0:0:0:0:
320,192,29268,1,0,0:0:0:0:
64,192,29450,128,0,29632:0:0:0:0:
448,192,29450,1,8,0:2:0:0:
320,192,29632,128,0,29813:0:0:0:0:
192,192,29632,1,0,0:0:0:0:
64,192,29813,1,2,0:0:0:0:
192,192,29813,1,4,0:0:0:0:
448,192,29813,128,0,30177:0:0:0:0:
320,192,29995,1,0,0:0:0:0:
64,192,30177,128,0,30541:0:0:0:0:
192,192,30177,1,8,0:2:0:0:
320,192,30359,1,0,0:0:0:0:
192,192,30541,128,2,30904:0:0:0:0:
448,192,30723,1,0,0:0:0:0:
320,192,30904,128,0,31268:0:0:0:0:
64,192,30904,1,8,0:2:0:0:
192,192,31086,1,0,0:0:0:0:
448,192,31268,128,2,31632:0:0:0:0:
64,192,31450,1,0,0:0:0:0:
192,192,31632,128,0,31995:0:0:0:0:
320,192,31632,1,8,0:2:0:0:
448,192,31813,1,0,0:0:0:0:
64,192,31995,128,2,32359:0:0:0:0:
448,192,32177,1,0,0:0:0:0:
320,192,32359,128,0,32723:0:0:0:0:
192,192,32359,1,8,0:2:0:0:
64,192,32541,1,0,0:0:0:0:
192,192,32723,128,2,33086:0:0:0:0:
320,192,32904,1,0,0:0:0:0:
448,192,33086,128,0,33450:0:0:0:0:
64,192,33086,1,8,0:2:0:0:
192,192,33268,1,0,0:0:0:0:
64,192,33450,128,2,33813:0:0:0:0:
448,192,33632,1,0,0:0:0:0:
320,192,33813,128,0,34177:0:0:0:0:
192,192,33813,1,8,0:2:0:0:
64,192,33995,1,0,0:0:0:0:
448,192,34177,128,2,34359:0:0:0:0:
192,192,34359,1,0,0:0:0:0:
64,192,34541,1,0,0:0:0:0:
320,192,34541,1,8,0:2:0:0:
192,192,34723,128,0,34904:0:0:0:0:
448,192,34723,1,0,0:0:0:0:
64,192,34904,1,2,0:0:0:0:
320,192,35086,128,0,35268:0:0:0:0:
448,192,35086,1,0,0:0:0:0:
192,192,35268,128,0,35450:0:0:0:0:
64,192,35268,1,8,0:2:0:0:
320,192,35450,1,0,0:0:0:0:
448,192,35450,1,8,0:2:0:0:
192,192,35541,1,8,0:2:0:0:
64,192,35541,1,0,0:0:0:0:
448,192,35632,1,2,0:0:0:0:
320,192,35632,1,4,0:0:0:0:
64,192,35632,128,0,36359:0:0:0:0:
192,192,35995,1,2,0:0:0:0:
448,192,35995,1,0,0:0:0:0:
192,192,36359,128,0,36601:0:0:0:0:
448,192,36359,1,8,0:2:0:0:
320,192,36359,1,2,0:2:0:0:
320,192,36601,128,0,36844:0:0:0:0:
64,192,36723,1,8,0:2:0:0:
448,192,36723,1,0,0:0:0:0:
192,192,36844,128,0,37086:0:0:0:0:
448,192,37086,128,0,37632:0:0:0:0:
320,192,37086,1,2,0:0:0:0:
64,192,37450,1,2,0:0:0:0:
320,192,37450,1,0,0:0:0:0:
192,192,37632,128,0,38177:0:0:0:0:
64,192,37813,1,2,0:2:0:0:
448,192,37813,1,0,0:0:0:0:
320,192,37813,1,8,0:2:0:0:
448,192,38177,1,8,0:2:0:0:
320,192,38177,128,0,38541:0:0:0:0:
64,192,38359,1,0,0:0:0:0:
192,192,38541,1,2,0:0:0:0:
64,192,38541,128,0,39268:0:0:0:0:
320,192,38904,1,2,0:0:0:0:
448,192,38904,1,0,0:0:0:0:
320,192,39268,128,0,39510:0:0:0:0:
192,192,39268,1,2,0:2:0:0:
448,192,39268,1,8,0:2:0:0:
192,192,39510,128,0,39753:0:0:0:0:
64,192,39632,1,0,0:0:0:0:
448,192,39632,1,8,0:2:0:0:
320,192,39753,128,0,39995:0:0:0:0:
448,192,39995,128,0,40541:0:0:0:0:
192,192,39995,1,2,0:0:0:0:
64,192,40359,1,0,0:0:0:0:
192,192,40359,1,2,0:0:0:0:
320,192,40541,1,0,0:0:0:0:
64,192,40723,1,2,0:2:0:0:
192,192,40723,1,8,0:2:0:0:
320,192,40844,1,8,0:2:0:0:
448,192,40844,1,0,0:0:0:0:
192,192,40965,1,8,0:2:0:0:
64,192,40965,1,0,0:0:0:0:
320,192,41086,1,8,0:2:0:0:
448,192,41086,1,0,0:0:0:0:
192,192,41207,1,8,0:2:0:0:
64,192,41207,1,0,0:0:0:0:
320,192,41329,1,8,0:2:0:0:
448,192,41329,1,0,0:0:0:0:
64,192,41450,1,2,0:0:0:0:
192,192,41450,1,4,0:0:0:0:
448,192,41450,1,0,0:0:0:0:
192,192,41632,1,0,0:0:0:0:
320,192,41632,1,0,0:0:0:0:
64,192,41813,1,0,0:0:0:0:
448,192,41813,1,8,0:2:0:0:
192,192,41995,1,0,0:0:0:0:
320,192,41995,1,0,0:0:0:0:
448,192,42177,1,2,0:0:0:0:
64,192,42359,1,0,0:0:0:0:
192,192,42359,1,0,0:0:0:0:
320,192,42541,1,8,0:2:0:0:
448,192,42541,1,0,0:0:0:0:
192,192,42723,1,0,0:0:0:0:
64,192,42723,1,0,0:0:0:0:
320,192,42904,1,2,0:0:0:0:
192,192,43086,1,0,0:0:0:0:
448,192,43086,1,0,0:0:0:0:
64,192,43268,1,0,0:0:0:0:
320,192,43268,1,8,0:2:0:0:
192,192,43450,1,0,0:0:0:0:
448,192,43450,1,0,0:0:0:0:
64,192,43632,128,2,43813:0:0:0:0:
192,192,43813,1,0,0:0:0:0:
320,192,43813,128,0,43995:0:0:0:0:
64,192,43995,1,0,0:0:0:0:
448,192,43995,1,8,0:2:0:0:
192,192,44177,128,0,44359:0:0:0:0:
320,192,44177,1,0,0:0:0:0:
448,192,44359,1,2,0:0:0:0:
64,192,44541,1,0,0:0:0:0:
192,192,44541,1,0,0:0:0:0:
320,192,44723,1,8,0:2:0:0:
448,192,44723,1,0,0:0:0:0:
192,192,44904,1,0,0:0:0:0:
64,192,44904,1,0,0:0:0:0:
320,192,45086,1,2,0:0:0:0:
192,192,45268,1,0,0:0:0:0:
448,192,45268,1,0,0:0:0:0:
64,192,45450,1,0,0:0:0:0:
320,192,45450,1,8,0:2:0:0:
192,192,45632,1,0,0:0:0:0:
448,192,45632,1,0,0:0:0:0:
64,192,45813,1,2,0:0:0:0:
320,192,45995,1,0,0:0:0:0:
448,192,45995,1,0,0:0:0:0:
64,192,46177,1,0,0:0:0:0:
192,192,46177,1,8,0:2:0:0:
320,192,46359,1,0,0:0:0:0:
448,192,46359,1,0,0:0:0:0:
192,192,46541,128,2,46723:0:0:0:0:
64,192,46723,1,0,0:0:0:0:
448,192,46723,1,0,0:0:0:0:
192,192,46904,1,8,0:2:0:0:
320,192,46904,128,0,47086:0:0:0:0:
64,192,47086,1,0,0:0:0:0:
448,192,47086,128,0,47268:0:0:0:0:
64,192,47268,1,0,0:0:0:0:
192,192,47268,1,4,0:0:0:0:
320,192,47268,1,2,0:0:0:0:
448,192,47450,1,0,0:0:0:0:
192,192,47450,1,0,0:0:0:0:
64,192,47632,1,0,0:0:0:0:
320,192,47632,1,8,0:2:0:0:
192,192,47813,1,0,0:0:0:0:
448,192,47813,1,0,0:0:0:0:
320,192,47995,1,2,0:0:0:0:
64,192,48177,1,0,0:0:0:0:
192,192,48177,1,0,0:0:0:0:
320,192,48359,1,8,0:2:0:0:
448,192,48359,1,0,0:0:0:0:
192,192,48541,1,0,0:0:0:0:
64,192,48541,1,0,0:0:0:0:
320,192,48723,1,2,0:0:0:0:
64,192,48904,1,0,0:0:0:0:
448,192,48904,1,0,0:0:0:0:
192,192,49086,128,0,49268:0:0:0:0:
320,192,49086,1,8,0:2:0:0:
64,192,49268,1,0,0:0:0:0:
448,192,49268,1,0,0:0:0:0:
192,192,49450,1,2,0:0:0:0:
320,192,49450,128,0,49632:0:0:0:0:
64,192,49632,1,0,0:0:0:0:
448,192,49632,1,0,0:0:0:0:
192,192,49813,128,0,49995:0:0:0:0:
320,192,49813,1,8,0:2:0:0:
64,192,49995,1,0,0:0:0:0:
448,192,49995,1,0,0:0:0:0:
64,192,50177,128,2,50904:0:0:0:0:
320,192,50359,1,0,0:0:0:0:
448,192,50541,1,8,0:2:0:0:
192,192,50541,1,0,0:0:0:0:
320,192,50723,1,0,0:0:0:0:
192,192,50904,128,2,51632:0:0:0:0:
448,192,51086,1,0,0:0:0:0:
64,192,51268,1,0,0:0:0:0:
320,192,51268,1,8,0:2:0:0:
448,192,51450,1,0,0:0:0:0:
320,192,51632,128,2,52359:0:0:0:0:
64,192,51813,1,0,0:0:0:0:
448,192,51995,1,0,0:0:0:0:
192,192,51995,1,8,0:2:0:0:
64,192,52177,1,0,0:0:0:0:
448,192,52359,128,2,52904:0:0:0:0:
192,192,52541,1,0,0:0:0:0:
320,192,52723,1,8,0:2:0:0:
64,192,52723,1,0,0:0:0:0:
64,192,52904,1,0,0:0:0:0:
192,192,52904,1,0,0:0:0:0:
320,192,52995,1,0,0:0:0:0:
64,192,53086,1,2,0:0:0:0:
192,192,53086,1,2,0:2:0:0:
448,192,53086,1,0,0:0:0:0:
64,192,53268,1,0,0:0:0:0:
192,192,53268,1,2,0:0:0:0:
448,192,53268,1,0,0:0:0:0:
320,192,53450,1,8,0:2:0:0:
192,192,53450,1,0,0:0:0:0:
64,192,53632,128,0,53995:0:0:0:0:
448,192,53632,1,2,0:2:0:0:
320,192,53632,1,2,0:0:0:0:
448,192,53995,1,0,0:0:0:0:
320,192,54041,1,0,0:0:0:0:
192,192,54086,1,0,0:0:0:0:
64,192,54132,1,0,0:0:0:0:
448,192,54177,1,0,0:0:0:0:
320,192,54223,1,0,0:0:0:0:
192,192,54268,1,0,0:0:0:0:
64,192,54313,1,0,0:0:0:0:
448,192,54359,1,0,0:0:0:0:
320,192,54404,1,0,0:0:0:0:
192,192,54450,1,0,0:0:0:0:
64,192,54495,1,0,0:0:0:0:
320,192,54541,1,2,0:0:0:0:
448,192,54541,1,4,0:0:0:0:
192,192,54723,1,0,0:0:0:0:
64,192,54904,1,0,0:0:0:0:
320,192,54904,1,8,0:0:0:0:
448,192,54904,1,0,0:0:0:0:
192,192,55086,1,0,0:0:0:0:
448,192,55268,1,0,0:0:0:0:
64,192,55268,1,2,0:0:0:0:
320,192,55450,1,0,0:0:0:0:
192,192,55632,1,8,0:0:0:0:
448,192,55632,1,0,0:0:0:0:
64,192,55632,1,0,0:0:0:0:
320,192,55813,1,0,0:0:0:0:
192,192,55995,1,2,0:0:0:0:
64,192,55995,1,0,0:0:0:0:
448,192,56177,1,0,0:0:0:0:
64,192,56359,1,0,0:0:0:0:
192,192,56359,1,0,0:0:0:0:
320,192,56359,1,8,0:0:0:0:
448,192,56541,1,0,0:0:0:0:
192,192,56723,1,2,0:0:0:0:
320,192,56723,1,0,0:0:0:0:
64,192,56904,128,0,57086:0:0:0:0:
192,192,57086,1,0,0:0:0:0:
320,192,57086,1,8,0:0:0:0:
448,192,57086,128,0,57268:0:0:0:0:
64,192,57268,128,0,57450:0:0:0:0:
192,192,57450,1,2,0:0:0:0:
320,192,57450,1,4,0:0:0:0:
448,192,57450,1,0,0:0:0:0:
64,192,57632,1,0,0:0:0:0:
320,192,57813,1,8,0:0:0:0:
448,192,57813,1,0,0:0:0:0:
192,192,57813,1,0,0:0:0:0:
64,192,57995,1,0,0:0:0:0:
192,192,58177,1,2,0:0:0:0:
320,192,58177,1,0,0:0:0:0:
448,192,58359,1,0,0:0:0:0:
320,192,58541,1,8,0:0:0:0:
192,192,58541,1,0,0:0:0:0:
64,192,58541,1,0,0:0:0:0:
448,192,58723,1,0,0:0:0:0:
64,192,58904,1,0,0:0:0:0:
192,192,58904,1,2,0:0:0:0:
320,192,59086,1,0,0:0:0:0:
64,192,59268,1,8,0:0:0:0:
192,192,59268,1,0,0:0:0:0:
448,192,59268,1,0,0:0:0:0:
320,192,59450,1,0,0:0:0:0:
64,192,59632,1,0,0:0:0:0:
448,192,59632,1,2,0:0:0:0:
320,192,59813,1,0,0:0:0:0:
192,192,59904,1,0,0:0:0:0:
448,192,59995,1,0,0:0:0:0:
64,192,59995,1,0,0:0:0:0:
320,192,59995,1,8,0:0:0:0:
192,192,60177,1,8,0:0:0:0:
320,192,60268,1,0,0:0:0:0:
192,192,60359,1,2,0:0:0:0:
64,192,60359,1,4,0:0:0:0:
448,192,60359,1,0,0:0:0:0:
320,192,60541,1,0,0:0:0:0:
192,192,60723,1,8,0:0:0:0:
64,192,60723,1,0,0:0:0:0:
448,192,60723,1,0,0:0:0:0:
320,192,60904,1,0,0:0:0:0:
192,192,61086,1,2,0:0:0:0:
64,192,61086,1,0,0:0:0:0:
448,192,61268,1,0,0:0:0:0:
192,192,61450,1,0,0:0:0:0:
320,192,61450,1,8,0:0:0:0:
64,192,61450,1,0,0:0:0:0:
448,192,61632,128,0,61813:0:0:0:0:
192,192,61813,1,0,0:0:0:0:
320,192,61813,1,2,0:0:0:0:
64,192,61813,1,4,0:0:0:0:
448,192,61995,1,0,0:0:0:0:
320,192,62177,1,8,0:0:0:0:
448,192,62177,1,0,0:0:0:0:
64,192,62177,1,0,0:0:0:0:
192,192,62359,1,0,0:0:0:0:
448,192,62541,128,0,62904:0:0:0:0:
320,192,62541,1,2,0:0:0:0:
192,192,62723,1,0,0:0:0:0:
192,192,62904,1,0,0:0:0:0:
320,192,62904,1,8,0:0:0:0:
64,192,62904,128,0,63086:0:0:0:0:
320,192,63086,1,8,0:2:0:0:
192,192,63177,1,0,0:0:0:0:
64,192,63268,1,0,0:0:0:0:
320,192,63268,1,2,0:0:0:0:
448,192,63268,128,0,63632:0:0:0:0:
192,192,63450,1,8,0:2:0:0:
64,192,63632,128,0,63995:0:0:0:0:
192,192,63632,1,8,0:0:0:0:
320,192,63632,1,0,0:0:0:0:
448,192,63813,1,8,0:2:0:0:
192,192,63995,128,0,64359:0:0:0:0:
320,192,63995,1,2,0:0:0:0:
448,192,63995,1,0,0:0:0:0:
64,192,64177,1,8,0:2:0:0:
320,192,64359,128,0,64723:0:0:0:0:
64,192,64359,1,8,0:0:0:0:
448,192,64359,1,0,0:0:0:0:
192,192,64541,1,8,0:2:0:0:
448,192,64723,1,0,0:0:0:0:
64,192,64723,1,0,0:0:0:0:
192,192,64723,1,2,0:0:0:0:
320,192,64904,1,8,0:2:0:0:
448,192,64904,1,0,0:0:0:0:
64,192,65086,1,0,0:0:0:0:
192,192,65086,1,8,0:0:0:0:
320,192,65086,1,0,0:0:0:0:
192,192,65268,1,8,0:2:0:0:
448,192,65268,1,0,0:0:0:0:
320,192,65450,1,2,0:0:0:0:
448,192,65450,1,0,0:0:0:0:
64,192,65450,1,8,0:2:0:0:
192,192,65541,1,8,0:2:0:0:
320,192,65632,1,8,0:2:0:0:
448,192,65632,1,0,0:0:0:0:
64,192,65813,1,0,0:0:0:0:
192,192,65813,1,8,0:2:0:0:
448,192,65813,1,8,0:0:0:0:
320,192,65904,1,8,0:2:0:0:
64,192,65995,1,0,0:0:0:0:
192,192,65995,1,8,0:2:0:0:
64,192,66177,1,0,0:0:0:0:
320,192,66177,1,4,0:0:0:0:
448,192,66177,1,0,0:0:0:0:
192,192,66177,1,2,0:0:0:0:
320,192,66359,1,0,0:0:0:0:
64,192,66541,1,0,0:0:0:0:
192,192,66541,1,8,0:0:0:0:
448,192,66541,1,0,0:0:0:0:
320,192,66723,1,0,0:0:0:0:
192,192,66904,1,2,0:0:0:0:
64,192,66904,1,0,0:0:0:0:
448,192,67086,1,0,0:0:0:0:
320,192,67268,1,8,0:0:0:0:
192,192,67268,1,0,0:0:0:0:
64,192,67268,1,0,0:0:0:0:
448,192,67450,1,0,0:0:0:0:
192,192,67632,1,0,0:0:0:0:
320,192,67632,1,2,0:0:0:0:
64,192,67813,1,0,0:0:0:0:
192,192,67995,1,8,0:0:0:0:
320,192,67995,1,0,0:0:0:0:
448,192,67995,1,0,0:0:0:0:
64,192,68177,1,0,0:0:0:0:
192,192,68359,1,2,0:0:0:0:
448,192,68359,1,0,0:0:0:0:
320,192,68541,128,0,68723:0:0:0:0:
64,192,68723,128,0,68904:0:0:0:0:
192,192,68723,1,8,0:0:0:0:
448,192,68723,1,0,0:0:0:0:
448,192,68904,128,0,69086:0:0:0:0:
64,192,69086,1,0,0:0:0:0:
192,192,69086,1,2,0:0:0:0:
320,192,69086,1,4,0:0:0:0:
448,192,69268,1,0,0:0:0:0:
64,192,69450,1,0,0:0:0:0:
192,192,69450,1,0,0:0:0:0:
320,192,69450,1,8,0:0:0:0:
448,192,69632,1,0,0:0:0:0:
64,192,69813,1,0,0:0:0:0:
320,192,69813,1,2,0:0:0:0:
192,192,69995,1,0,0:0:0:0:
64,192,70177,1,0,0:0:0:0:
320,192,70177,1,8,0:0:0:0:
448,192,70177,1,0,0:0:0:0:
192,192,70359,1,0,0:0:0:0:
320,192,70541,1,2,0:0:0:0:
448,192,70541,1,0,0:0:0:0:
64,192,70723,1,0,0:0:0:0:
192,192,70904,1,8,0:0:0:0:
320,192,70904,1,0,0:0:0:0:
448,192,70904,1,0,0:0:0:0:
64,192,71086,1,0,0:0:0:0:
192,192,71268,1,2,0:0:0:0:
448,192,71268,1,0,0:0:0:0:
320,192,71450,1,0,0:0:0:0:
192,192,71541,1,0,0:0:0:0:
64,192,71632,1,0,0:0:0:0:
448,192,71632,1,0,0:0:0:0:
320,192,71632,1,8,0:0:0:0:
192,192,71813,1,8,0:0:0:0:
320,192,71904,1,0,0:0:0:0:
192,192,71995,1,4,0:0:0:0:
448,192,71995,1,0,0:0:0:0:
64,192,71995,1,2,0:0:0:0:
320,192,72177,1,0,0:0:0:0:
320,192,72359,1,0,0:0:0:0:
192,192,72359,1,8,0:0:0:0:
64,192,72359,1,0,0:0:0:0:
448,192,72541,1,0,0:0:0:0:
448,192,72723,1,0,0:0:0:0:
64,192,72723,1,2,0:0:0:0:
192,192,72904,1,0,0:0:0:0:
64,192,73086,1,0,0:0:0:0:
192,192,73086,1,8,0:0:0:0:
448,192,73086,1,0,0:0:0:0:
320,192,73268,128,0,73450:0:0:0:0:
64,192,73450,1,0,0:0:0:0:
192,192,73450,1,2,0:0:0:0:
448,192,73450,1,4,0:0:0:0:
320,192,73632,1,0,0:0:0:0:
64,192,73813,1,0,0:0:0:0:
192,192,73813,1,8,0:0:0:0:
448,192,73813,1,0,0:0:0:0:
320,192,73995,1,0,0:0:0:0:
64,192,74177,1,2,0:0:0:0:
448,192,74177,128,0,74541:0:0:0:0:
192,192,74359,1,0,0:0:0:0:
320,192,74541,1,8,0:0:0:0:
64,192,74541,1,0,0:0:0:0:
192,192,74541,1,0,0:0:0:0:
448,192,74723,1,0,0:0:0:0:
64,192,74904,128,0,75632:0:0:0:0:
320,192,74904,1,4,0:0:0:0:
192,192,74904,1,2,0:0:0:0:
448,192,75086,1,0,0:0:0:0:
192,192,75268,1,0,0:0:0:0:
320,192,75268,1,8,0:0:0:0:
448,192,75268,1,0,0:0:0:0:
320,192,75450,1,0,0:0:0:0:
192,192,75632,1,2,0:0:0:0:
448,192,75632,128,0,75995:0:0:0:0:
320,192,75813,1,0,0:0:0:0:
64,192,75995,1,0,0:0:0:0:
192,192,75995,1,0,0:0:0:0:
320,192,75995,1,8,0:0:0:0:
448,192,76177,1,0,0:0:0:0:
64,192,76359,128,0,76541:0:0:0:0:
320,192,76359,1,2,0:0:0:0:
192,192,76541,1,8,0:2:0:0:
64,192,76723,1,0,0:0:0:0:
320,192,76723,1,8,0:0:0:0:
448,192,76723,128,0,76904:0:0:0:0:
192,192,76904,1,8,0:2:0:0:
448,192,77086,1,2,0:0:0:0:
320,192,77086,1,8,0:2:0:0:
192,192,77177,1,8,0:2:0:0:
64,192,77177,1,0,0:0:0:0:
320,192,77268,1,8,0:2:0:0:
448,192,77268,1,0,0:0:0:0:
192,192,77359,1,8,0:2:0:0:
64,192,77359,1,0,0:0:0:0:
320,192,77450,1,8,0:2:0:0:
448,192,77450,1,8,0:0:0:0:
64,192,77541,1,0,0:0:0:0:
192,192,77541,1,8,0:2:0:0:
448,192,77632,1,0,0:0:0:0:
320,192,77632,1,8,0:2:0:0:
64,192,77723,1,0,0:0:0:0:
192,192,77723,1,8,0:2:0:0:
448,192,77813,1,4,0:0:0:0:
320,192,77813,1,2,0:0:0:0:
64,192,77813,1,0,0:0:0:0:
192,192,77995,1,0,0:0:0:0:
448,192,78177,1,0,0:0:0:0:
64,192,78177,1,0,0:0:0:0:
320,192,78177,1,8,0:0:0:0:
192,192,78359,1,0,0:0:0:0:
64,192,78541,1,0,0:0:0:0:
448,192,78541,1,2,0:0:0:0:
320,192,78723,1,0,0:0:0:0:
192,192,78904,1,8,0:0:0:0:
64,192,78904,1,0,0:0:0:0:
448,192,78904,1,0,0:0:0:0:
320,192,79086,1,0,0:0:0:0:
448,192,79268,128,0,79450:0:0:0:0:
192,192,79268,1,2,0:0:0:0:
64,192,79450,1,8,0:2:0:0:
320,192,79632,128,0,79813:0:0:0:0:
192,192,79632,1,8,0:0:0:0:
448,192,79632,1,0,0:0:0:0:
64,192,79813,1,8,0:2:0:0:
192,192,79995,128,0,80177:0:0:0:0:
320,192,79995,1,2,0:0:0:0:
448,192,80177,1,8,0:2:0:0:
64,192,80359,128,0,80541:0:0:0:0:
192,192,80359,1,0,0:0:0:0:
320,192,80359,1,8,0:0:0:0:
448,192,80541,1,8,0:2:0:0:
64,192,80723,1,0,0:0:0:0:
192,192,80723,1,2,0:0:0:0:
320,192,80723,1,4,0:0:0:0:
320,192,80904,1,0,0:0:0:0:
64,192,81086,1,0,0:0:0:0:
192,192,81086,1,8,0:0:0:0:
448,192,81086,1,0,0:0:0:0:
320,192,81268,1,0,0:0:0:0:
192,192,81450,1,2,0:0:0:0:
64,192,81450,1,0,0:0:0:0:
448,192,81632,1,0,0:0:0:0:
320,192,81813,1,0,0:0:0:0:
192,192,81813,1,8,0:0:0:0:
64,192,81813,1,0,0:0:0:0:
64,192,81995,1,0,0:0:0:0:
320,192,82177,1,2,0:0:0:0:
448,192,82177,1,0,0:0:0:0:
192,192,82359,1,0,0:0:0:0:
64,192,82541,1,0,0:0:0:0:
320,192,82541,1,8,0:0:0:0:
448,192,82541,1,0,0:0:0:0:
192,192,82723,1,0,0:0:0:0:
320,192,82904,1,2,0:0:0:0:
64,192,82904,1,8,0:2:0:0:
192,192,82995,1,8,0:2:0:0:
448,192,82995,1,0,0:0:0:0:
320,192,83086,1,0,0:0:0:0:
64,192,83086,1,8,0:2:0:0:
448,192,83268,1,8,0:0:0:0:
320,192,83268,1,8,0:2:0:0:
192,192,83359,1,8,0:2:0:0:
64,192,83359,1,0,0:0:0:0:
320,192,83450,1,8,0:2:0:0:
448,192,83450,1,0,0:0:0:0:
448,192,83632,1,0,0:0:0:0:
192,192,83632,1,2,0:0:0:0:
64,192,83632,1,4,0:0:0:0:
192,192,83813,1,0,0:0:0:0:
448,192,83995,1,8,0:0:0:0:
320,192,83995,1,0,0:0:0:0:
64,192,83995,128,0,84177:0:0:0:0:
320,192,84177,1,0,0:0:0:0:
448,192,84359,1,0,0:0:0:0:
64,192,84359,1,2,0:0:0:0:
448,192,84541,128,0,84723:0:0:0:0:
64,192,84723,1,0,0:0:0:0:
192,192,84723,1,8,0:0:0:0:
320,192,84723,1,0,0:0:0:0:
64,192,84904,128,0,85086:0:0:0:0:
320,192,85086,128,0,85450:0:0:0:0:
192,192,85086,1,2,0:0:0:0:
448,192,85268,1,8,0:2:0:0:
192,192,85450,128,0,85813:0:0:0:0:
64,192,85450,1,0,0:0:0:0:
448,192,85450,1,8,0:0:0:0:
320,192,85632,1,8,0:2:0:0:
448,192,85813,1,2,0:0:0:0:
64,192,85813,1,0,0:0:0:0:
320,192,85995,1,8,0:2:0:0:
448,192,85995,1,0,0:0:0:0:
192,192,86086,1,8,0:2:0:0:
64,192,86086,1,0,0:0:0:0:
320,192,86177,1,2,0:0:0:0:
448,192,86177,1,8,0:0:0:0:
192,192,86268,1,2,0:0:0:0:
64,192,86268,1,0,0:0:0:0:
320,192,86359,1,2,0:0:0:0:
448,192,86359,1,0,0:0:0:0:
192,192,86450,1,2,0:0:0:0:
64,192,86450,1,0,0:0:0:0:
320,192,86541,1,2,0:0:0:0:
448,192,86541,1,4,0:0:0:0:
64,192,86541,128,0,87268:0:0:0:0:
320,192,86904,1,0,0:0:0:0:
448,192,87268,1,0,0:0:0:0:
320,192,87313,1,0,0:0:0:0:
192,192,87359,1,0,0:0:0:0:
64,192,87404,1,0,0:0:0:0:
448,192,87450,1,0,0:0:0:0:
320,192,87495,1,0,0:0:0:0:
192,192,87541,1,0,0:0:0:0:
64,192,87586,1,0,0:0:0:0:
448,192,87632,1,8,0:2:0:0:
320,192,87677,1,0,0:0:0:0:
192,192,87723,1,0,0:0:0:0:
64,192,87768,1,0,0:0:0:0:
320,192,87813,1,2,0:0:0:0:
448,192,87813,1,4,0:0:0:0:
192,192,87995,1,8,0:2:0:0:
64,192,88177,1,0,0:0:0:0:
448,192,88177,1,2,0:0:0:0:
192,192,88359,1,0,0:0:0:0:
320,192,88359,1,2,0:0:0:0:
64,192,88541,1,0,0:0:0:0:
448,192,88541,1,2,0:0:0:0:
192,192,88632,1,0,0:0:0:0:
320,192,88632,1,8,0:2:0:0:
64,192,88723,1,0,0:0:0:0:
448,192,88723,1,2,0:0:0:0:
64,192,88904,1,2,0:0:0:0:
192,192,88904,1,0,0:0:0:0:
320,192,88995,1,8,0:2:0:0:
448,192,88995,1,0,0:0:0:0:
192,192,89086,1,8,0:2:0:0:
64,192,89086,1,2,0:0:0:0:
320,192,89177,1,8,0:2:0:0:
448,192,89177,1,0,0:0:0:0:
192,192,89268,1,8,0:2:0:0:
64,192,89268,1,2,0:0:0:0:
320,192,89359,1,8,0:2:0:0:
448,192,89359,1,0,0:0:0:0:
192,192,89450,1,4,0:0:0:0:
64,192,89450,1,2,0:0:0:0:
448,192,89450,1,0,0:0:0:0:
320,192,89632,1,0,0:0:0:0:
64,192,89813,1,0,0:0:0:0:
192,192,89813,1,8,0:0:0:0:
448,192,89813,1,0,0:0:0:0:
320,192,89995,1,0,0:0:0:0:
64,192,90177,1,2,0:0:0:0:
448,192,90177,1,0,0:0:0:0:
192,192,90359,1,0,0:0:0:0:
64,192,90541,1,0,0:0:0:0:
320,192,90541,1,8,0:0:0:0:
448,192,90541,1,0,0:0:0:0:
192,192,90723,128,0,90904:0:0:0:0:
320,192,90904,1,2,0:0:0:0:
448,192,90904,1,0,0:0:0:0:
64,192,91086,128,0,91268:0:0:0:0:
192,192,91268,1,8,0:0:0:0:
320,192,91268,1,0,0:0:0:0:
448,192,91268,1,0,0:0:0:0:
64,192,91450,128,0,91632:0:0:0:0:
192,192,91632,1,0,0:0:0:0:
320,192,91632,1,2,0:0:0:0:
448,192,91813,128,0,91995:0:0:0:0:
64,192,91995,1,0,0:0:0:0:
320,192,91995,1,0,0:0:0:0:
192,192,91995,1,8,0:0:0:0:
64,192,92177,1,0,0:0:0:0:
192,192,92359,1,0,0:0:0:0:
320,192,92359,1,2,0:0:0:0:
448,192,92359,1,4,0:0:0:0:
64,192,92541,1,0,0:0:0:0:
320,192,92723,1,8,0:0:0:0:
448,192,92723,1,0,0:0:0:0:
192,192,92723,1,0,0:0:0:0:
64,192,92904,1,0,0:0:0:0:
192,192,93086,1,2,0:0:0:0:
448,192,93086,1,0,0:0:0:0:
320,192,93268,1,0,0:0:0:0:
64,192,93450,1,0,0:0:0:0:
448,192,93450,1,8,0:0:0:0:
192,192,93632,128,0,93813:0:0:0:0:
320,192,93813,1,2,0:0:0:0:
448,192,93813,1,0,0:0:0:0:
64,192,93995,128,0,94177:0:0:0:0:
192,192,94177,1,8,0:0:0:0:
320,192,94177,1,0,0:0:0:0:
448,192,94177,1,0,0:0:0:0:
448,192,94359,128,0,94541:0:0:0:0:
192,192,94541,1,2,0:0:0:0:
320,192,94541,1,0,0:0:0:0:
320,192,94723,128,0,94904:0:0:0:0:
64,192,94904,1,8,0:0:0:0:
192,192,94904,1,0,0:0:0:0:
448,192,94904,1,0,0:0:0:0:
192,192,95086,128,0,95268:0:0:0:0:
64,192,95268,1,0,0:0:0:0:
320,192,95268,1,2,0:0:0:0:
448,192,95268,1,4,0:0:0:0:
192,192,95450,1,0,0:0:0:0:
64,192,95632,1,0,0:0:0:0:
320,192,95632,1,8,0:0:0:0:
448,192,95632,1,0,0:0:0:0:
192,192,95813,1,0,0:0:0:0:
320,192,95995,1,2,0:0:0:0:
448,192,95995,1,0,0:0:0:0:
64,192,96177,1,0,0:0:0:0:
192,192,96359,1,8,0:0:0:0:
320,192,96359,1,0,0:0:0:0:
448,192,96359,1,0,0:0:0:0:
64,192,96541,128,0,96723:0:0:0:0:
192,192,96723,1,2,0:0:0:0:
448,192,96723,1,0,0:0:0:0:
320,192,96904,128,0,97086:0:0:0:0:
64,192,97086,1,8,0:0:0:0:
192,192,97086,1,0,0:0:0:0:
448,192,97086,1,0,0:0:0:0:
320,192,97268,128,0,97450:0:0:0:0:
64,192,97450,1,0,0:0:0:0:
192,192,97450,1,2,0:0:0:0:
448,192,97632,128,0,97813:0:0:0:0:
320,192,97813,1,8,0:0:0:0:
192,192,97813,1,0,0:0:0:0:
64,192,97813,1,0,0:0:0:0:
448,192,97995,1,0,0:0:0:0:
320,192,98177,1,4,0:0:0:0:
192,192,98177,1,2,0:0:0:0:
64,192,98177,1,0,0:0:0:0:
192,192,98359,1,0,0:0:0:0:
448,192,98541,1,0,0:0:0:0:
64,192,98541,1,0,0:0:0:0:
320,192,98541,1,8,0:0:0:0:
192,192,98723,1,0,0:0:0:0:
320,192,98904,1,2,0:0:0:0:
448,192,98904,1,0,0:0:0:0:
64,192,99086,1,0,0:0:0:0:
448,192,99268,1,0,0:0:0:0:
320,192,99268,1,0,0:0:0:0:
192,192,99268,1,8,0:0:0:0:
64,192,99450,128,0,99632:0:0:0:0:
192,192,99632,1,4,0:0:0:0:
320,192,99632,1,2,0:0:0:0:
448,192,99632,1,0,0:0:0:0:
320,192,99813,128,0,99995:0:0:0:0:
192,192,99995,1,8,0:0:0:0:
64,192,99995,1,0,0:0:0:0:
448,192,99995,1,0,0:0:0:0:
192,192,100177,1,8,0:2:0:0:
64,192,100177,1,0,0:0:0:0:
320,192,100268,1,8,0:2:0:0:
448,192,100268,1,0,0:0:0:0:
64,192,100359,1,0,0:0:0:0:
192,192,100359,1,8,0:2:0:0:
320,192,100450,1,8,0:2:0:0:
448,192,100450,1,0,0:0:0:0:
192,192,100541,1,0,0:0:0:0:
320,192,100723,1,8,0:2:0:0:
448,192,100723,1,8,0:0:0:0:
192,192,100813,1,8,0:2:0:0:
64,192,100813,1,0,0:0:0:0:
320,192,100904,1,8,0:2:0:0:
448,192,100904,1,2,0:0:0:0:
192,192,100995,1,8,0:2:0:0:
64,192,100995,1,0,0:0:0:0:
320,192,101086,1,4,0:0:0:0:
448,192,101086,1,2,0:0:0:0:
64,192,101086,128,0,101268:0:0:0:0:
192,192,101268,128,0,101450:0:0:0:0:
320,192,101450,1,8,0:2:0:0:
448,192,101450,128,0,101632:0:0:0:0:
192,192,101632,128,0,101813:0:0:0:0:
64,192,101813,1,2,0:0:0:0:
448,192,101995,128,0,102177:0:0:0:0:
192,192,102177,1,8,0:2:0:0:
320,192,102177,128,0,102359:0:0:0:0:
64,192,102359,128,0,102541:0:0:0:0:
448,192,102541,128,2,102723:0:0:0:0:
320,192,102723,128,0,102904:0:0:0:0:
192,192,102904,1,8,0:2:0:0:
64,192,102904,128,0,103086:0:0:0:0:
448,192,103086,128,0,103268:0:0:0:0:
320,192,103268,1,2,0:0:0:0:
192,192,103450,128,0,103632:0:0:0:0:
64,192,103632,1,8,0:2:0:0:
448,192,103632,128,0,103813:0:0:0:0:
320,192,103813,128,0,103995:0:0:0:0:
64,192,103995,128,0,104177:0:0:0:0:
192,192,103995,1,2,0:0:0:0:
448,192,104177,128,0,104359:0:0:0:0:
192,192,104359,1,8,0:2:0:0:
320,192,104359,128,0,104541:0:0:0:0:
64,192,104541,128,0,104723:0:0:0:0:
192,192,104723,1,2,0:0:0:0:
448,192,104904,128,0,105086:0:0:0:0:
64,192,105086,1,8,0:2:0:0:
192,192,105086,128,0,105268:0:0:0:0:
320,192,105268,128,0,105450:0:0:0:0:
64,192,105450,128,2,105632:0:0:0:0:
448,192,105632,128,0,105813:0:0:0:0:
192,192,105813,1,8,0:2:0:0:
64,192,105813,128,0,105995:0:0:0:0:
320,192,105995,128,0,106177:0:0:0:0:
448,192,106177,1,2,0:0:0:0:
192,192,106359,128,0,106541:0:0:0:0:
64,192,106359,1,0,0:0:0:0:
448,192,106541,1,8,0:2:0:0:
320,192,106541,128,0,106723:0:0:0:0:
64,192,106723,128,0,106904:0:0:0:0:
192,192,106723,1,0,0:0:0:0:
192,192,106904,1,4,0:0:0:0:
320,192,106904,1,2,0:0:0:0:
448,192,106904,128,0,107086:0:0:0:0:
64,192,107086,128,0,107268:0:0:0:0:
192,192,107268,1,8,0:2:0:0:
320,192,107268,128,0,107450:0:0:0:0:
448,192,107450,128,0,107632:0:0:0:0:
192,192,107632,1,2,0:0:0:0:
64,192,107813,128,0,107995:0:0:0:0:
192,192,107995,1,8,0:2:0:0:
320,192,107995,128,0,108177:0:0:0:0:
448,192,108177,128,0,108359:0:0:0:0:
64,192,108359,128,2,108541:0:0:0:0:
192,192,108541,128,0,108723:0:0:0:0:
448,192,108723,1,8,0:2:0:0:
320,192,108723,128,0,108904:0:0:0:0:
64,192,108904,128,0,109086:0:0:0:0:
448,192,109086,1,2,0:0:0:0:
320,192,109268,128,0,109450:0:0:0:0:
448,192,109450,1,8,0:2:0:0:
64,192,109450,128,0,109632:0:0:0:0:
192,192,109632,128,0,109813:0:0:0:0:
320,192,109813,128,0,109995:0:0:0:0:
448,192,109813,1,2,0:0:0:0:
64,192,109995,128,0,110177:0:0:0:0:
192,192,110177,1,8,0:2:0:0:
448,192,110177,128,0,110359:0:0:0:0:
320,192,110359,128,0,110541:0:0:0:0:
192,192,110541,1,2,0:0:0:0:
448,192,110723,128,0,110904:0:0:0:0:
64,192,110904,1,8,0:2:0:0:
192,192,110904,128,0,111086:0:0:0:0:
320,192,111086,128,0,111268:0:0:0:0:
192,192,111268,128,2,111450:0:0:0:0:
64,192,111450,128,0,111632:0:0:0:0:
320,192,111632,1,8,0:2:0:0:
448,192,111632,128,0,111813:0:0:0:0:
64,192,111813,128,0,111995:0:0:0:0:
192,192,111995,1,2,0:0:0:0:
320,192,112177,128,0,112359:0:0:0:0:
448,192,112177,1,0,0:0:0:0:
192,192,112359,128,0,112541:0:0:0:0:
64,192,112359,1,8,0:2:0:0:
320,192,112541,1,0,0:0:0:0:
448,192,112541,1,8,0:2:0:0:
192,192,112632,1,8,0:2:0:0:
64,192,112632,1,0,0:0:0:0:
448,192,112723,1,2,0:0:0:0:
320,192,112723,1,4,0:0:0:0:
64,192,112723,128,0,113450:0:0:0:0:
320,192,113086,1,2,0:0:0:0:
448,192,113086,1,0,0:0:0:0:
192,192,113450,128,0,113692:0:0:0:0:
448,192,113450,1,8,0:2:0:0:
320,192,113450,1,2,0:2:0:0:
320,192,113692,128,0,113935:0:0:0:0:
64,192,113813,1,0,0:0:0:0:
448,192,113813,1,8,0:2:0:0:
192,192,113935,128,0,114177:0:0:0:0:
448,192,114177,128,0,114723:0:0:0:0:
320,192,114177,1,2,0:0:0:0:
64,192,114541,1,0,0:0:0:0:
320,192,114541,1,2,0:0:0:0:
192,192,114723,128,0,115268:0:0:0:0:
64,192,114904,1,8,0:2:0:0:
448,192,114904,1,0,0:0:0:0:
320,192,114904,1,2,0:2:0:0:
448,192,115268,1,8,0:2:0:0:
320,192,115268,128,0,115632:0:0:0:0:
64,192,115450,1,0,0:0:0:0:
192,192,115632,1,2,0:0:0:0:
64,192,115632,128,0,116359:0:0:0:0:
320,192,115995,1,2,0:0:0:0:
448,192,115995,1,0,0:0:0:0:
320,192,116359,128,0,116601:0:0:0:0:
192,192,116359,1,8,0:2:0:0:
448,192,116359,1,2,0:2:0:0:
192,192,116601,128,0,116844:0:0:0:0:
64,192,116723,1,0,0:0:0:0:
448,192,116723,1,8,0:2:0:0:
320,192,116844,128,0,117086:0:0:0:0:
448,192,117086,128,0,117813:0:0:0:0:
192,192,117086,1,2,0:0:0:0:
64,192,117268,1,0,0:0:0:0:
192,192,117450,1,2,0:0:0:0:
320,192,117450,1,0,0:0:0:0:
192,192,117813,1,8,0:2:0:0:
64,192,117813,1,2,0:2:0:0:
320,192,117935,1,8,0:2:0:0:
448,192,117935,1,0,0:0:0:0:
192,192,118056,1,8,0:2:0:0:
64,192,118056,1,0,0:0:0:0:
320,192,118177,1,8,0:2:0:0:
448,192,118177,1,0,0:0:0:0:
192,192,118298,1,8,0:2:0:0:
64,192,118298,1,0,0:0:0:0:
320,192,118419,1,8,0:2:0:0:
448,192,118419,1,0,0:0:0:0:
64,192,118541,1,4,0:0:0:0:
192,192,118541,1,2,0:0:0:0:
448,192,118541,1,0,0:0:0:0:
192,192,118723,1,0,0:0:0:0:
320,192,118723,1,0,0:0:0:0:
64,192,118904,1,8,0:2:0:0:
448,192,118904,1,0,0:0:0:0:
192,192,119086,1,0,0:0:0:0:
320,192,119086,1,0,0:0:0:0:
448,192,119268,1,2,0:0:0:0:
64,192,119450,1,0,0:0:0:0:
192,192,119450,1,0,0:0:0:0:
320,192,119632,1,8,0:2:0:0:
448,192,119632,1,0,0:0:0:0:
192,192,119813,1,0,0:0:0:0:
64,192,119813,1,0,0:0:0:0:
320,192,119995,1,2,0:0:0:0:
192,192,120177,1,0,0:0:0:0:
448,192,120177,1,0,0:0:0:0:
64,192,120359,1,0,0:0:0:0:
320,192,120359,1,8,0:2:0:0:
192,192,120541,1,0,0:0:0:0:
448,192,120541,1,0,0:0:0:0:
64,192,120723,128,2,120904:0:0:0:0:
192,192,120904,1,0,0:0:0:0:
320,192,120904,1,0,0:0:0:0:
64,192,121086,1,0,0:0:0:0:
448,192,121086,1,8,0:2:0:0:
192,192,121268,128,0,121450:0:0:0:0:
320,192,121268,1,0,0:0:0:0:
448,192,121450,1,2,0:0:0:0:
64,192,121632,1,0,0:0:0:0:
192,192,121632,1,0,0:0:0:0:
448,192,121813,1,0,0:0:0:0:
320,192,121813,1,8,0:2:0:0:
64,192,121995,1,0,0:0:0:0:
192,192,121995,1,0,0:0:0:0:
320,192,122177,1,2,0:0:0:0:
192,192,122359,1,0,0:0:0:0:
448,192,122359,1,0,0:0:0:0:
64,192,122541,1,0,0:0:0:0:
320,192,122541,1,8,0:2:0:0:
192,192,122723,1,0,0:0:0:0:
448,192,122723,1,0,0:0:0:0:
64,192,122904,1,2,0:0:0:0:
192,192,123086,1,0,0:0:0:0:
320,192,123086,1,0,0:0:0:0:
64,192,123268,1,0,0:0:0:0:
448,192,123268,1,8,0:2:0:0:
192,192,123450,1,0,0:0:0:0:
320,192,123450,1,0,0:0:0:0:
448,192,123632,128,2,123813:0:0:0:0:
192,192,123813,1,0,0:0:0:0:
64,192,123995,1,0,0:0:0:0:
320,192,123995,1,8,0:2:0:0:
192,192,124177,128,0,124359:0:0:0:0:
64,192,124359,1,0,0:0:0:0:
320,192,124359,1,2,0:0:0:0:
448,192,124359,1,4,0:0:0:0:
192,192,124541,1,0,0:0:0:0:
64,192,124541,1,0,0:0:0:0:
320,192,124723,1,8,0:2:0:0:
448,192,124723,1,0,0:0:0:0:
192,192,124904,1,0,0:0:0:0:
64,192,124904,1,0,0:0:0:0:
320,192,125086,1,2,0:0:0:0:
192,192,125268,1,0,0:0:0:0:
448,192,125268,1,0,0:0:0:0:
64,192,125450,1,0,0:0:0:0:
320,192,125450,1,8,0:2:0:0:
192,192,125632,1,0,0:0:0:0:
448,192,125632,1,0,0:0:0:0:
64,192,125813,1,2,0:0:0:0:
320,192,125995,1,0,0:0:0:0:
448,192,125995,1,0,0:0:0:0:
64,192,126177,1,8,0:2:0:0:
192,192,126177,128,0,126359:0:0:0:0:
320,192,126359,1,0,0:0:0:0:
448,192,126359,1,0,0:0:0:0:
192,192,126541,1,2,0:0:0:0:
64,192,126541,128,0,126723:0:0:0:0:
320,192,126723,1,0,0:0:0:0:
448,192,126723,1,0,0:0:0:0:
192,192,126904,128,0,127086:0:0:0:0:
64,192,126904,1,8,0:2:0:0:
320,192,127086,1,0,0:0:0:0:
448,192,127086,1,0,0:0:0:0:
64,192,127268,128,2,127995:0:0:0:0:
320,192,127450,1,0,0:0:0:0:
192,192,127632,1,8,0:2:0:0:
448,192,127632,1,0,0:0:0:0:
320,192,127813,1,0,0:0:0:0:
192,192,127995,128,2,128723:0:0:0:0:
448,192,128177,1,0,0:0:0:0:
64,192,128359,1,0,0:0:0:0:
320,192,128359,1,8,0:2:0:0:
448,192,128541,1,0,0:0:0:0:
320,192,128723,128,2,129450:0:0:0:0:
64,192,128904,1,0,0:0:0:0:
192,192,129086,1,8,0:2:0:0:
448,192,129086,1,0,0:0:0:0:
64,192,129268,1,0,0:0:0:0:
448,192,129450,128,2,129995:0:0:0:0:
64,192,129632,1,0,0:0:0:0:
192,192,129813,1,8,0:2:0:0:
320,192,129813,1,0,0:0:0:0:
64,192,129995,1,0,0:0:0:0:
192,192,129995,1,8,0:2:0:0:
320,192,130086,1,8,0:2:0:0:
64,192,130177,1,2,0:0:0:0:
192,192,130177,1,8,0:2:0:0:
448,192,130177,1,2,0:2:0:0:
320,192,130268,1,8,0:2:0:0:
192,192,130359,1,8,0:2:0:0:
64,192,130359,1,2,0:0:0:0:
448,192,130359,1,0,0:0:0:0:
192,192,130541,1,0,0:0:0:0:
320,192,130541,1,2,0:0:0:0:
64,192,130723,128,2,131086:0:2:0:0:
320,192,130723,1,0,0:0:0:0:
448,192,130723,1,2,0:0:0:0:
448,192,131086,1,0,0:0:0:0:
320,192,131132,1,0,0:0:0:0:
192,192,131177,1,0,0:0:0:0:
64,192,131223,1,0,0:0:0:0:
448,192,131268,1,0,0:0:0:0:
320,192,131313,1,0,0:0:0:0:
192,192,131359,1,0,0:0:0:0:
64,192,131404,1,0,0:0:0:0:
448,192,131450,1,0,0:0:0:0:
320,192,131495,1,0,0:0:0:0:
192,192,131541,1,0,0:0:0:0:
64,192,131586,1,0,0:0:0:0:
320,192,131632,1,2,0:0:0:0:
448,192,131632,1,4,0:0:0:0:
192,192,131813,1,0,0:0:0:0:
64,192,131995,1,0,0:0:0:0:
320,192,131995,1,8,0:0:0:0:
448,192,131995,1,0,0:0:0:0:
192,192,132177,1,0,0:0:0:0:
64,192,132359,1,0,0:0:0:0:
320,192,132359,1,2,0:0:0:0:
448,192,132541,1,0,0:0:0:0:
64,192,132723,1,0,0:0:0:0:
192,192,132723,1,8,0:0:0:0:
320,192,132723,1,0,0:0:0:0:
448,192,132904,1,0,0:0:0:0:
64,192,133086,1,0,0:0:0:0:
192,192,133086,1,2,0:0:0:0:
320,192,133268,1,0,0:0:0:0:
192,192,133450,1,8,0:0:0:0:
64,192,133450,1,0,0:0:0:0:
448,192,133450,1,0,0:0:0:0:
320,192,133632,1,0,0:0:0:0:
192,192,133813,1,2,0:0:0:0:
448,192,133813,1,0,0:0:0:0:
64,192,133995,128,0,134177:0:0:0:0:
320,192,134177,1,0,0:0:0:0:
192,192,134177,1,8,0:0:0:0:
448,192,134177,128,0,134359:0:0:0:0:
64,192,134359,128,0,134541:0:0:0:0:
320,192,134541,1,4,0:0:0:0:
192,192,134541,1,2,0:0:0:0:
448,192,134541,1,0,0:0:0:0:
320,192,134723,1,0,0:0:0:0:
192,192,134904,1,8,0:0:0:0:
64,192,134904,1,0,0:0:0:0:
448,192,134904,1,0,0:0:0:0:
320,192,135086,1,0,0:0:0:0:
192,192,135268,1,2,0:0:0:0:
64,192,135268,1,0,0:0:0:0:
448,192,135450,1,0,0:0:0:0:
320,192,135632,1,8,0:0:0:0:
192,192,135632,1,0,0:0:0:0:
64,192,135632,1,0,0:0:0:0:
448,192,135813,1,0,0:0:0:0:
192,192,135995,1,2,0:0:0:0:
320,192,135995,1,0,0:0:0:0:
64,192,136177,1,0,0:0:0:0:
192,192,136359,1,0,0:0:0:0:
320,192,136359,1,8,0:0:0:0:
448,192,136359,1,0,0:0:0:0:
64,192,136541,1,0,0:0:0:0:
192,192,136723,1,2,0:0:0:0:
448,192,136723,1,0,0:0:0:0:
320,192,136904,1,8,0:2:0:0:
192,192,136995,1,8,0:2:0:0:
448,192,137086,1,0,0:0:0:0:
64,192,137086,1,8,0:0:0:0:
320,192,137086,1,0,0:0:0:0:
192,192,137268,128,8,137450:0:0:0:0:
448,192,137450,1,4,0:0:0:0:
64,192,137450,1,0,0:0:0:0:
320,192,137450,1,2,0:0:0:0:
64,192,137632,1,0,0:0:0:0:
192,192,137813,1,0,0:0:0:0:
320,192,137813,1,8,0:0:0:0:
448,192,137813,1,0,0:0:0:0:
64,192,137995,1,0,0:0:0:0:
320,192,138177,1,2,0:0:0:0:
448,192,138177,1,0,0:0:0:0:
192,192,138359,1,0,0:0:0:0:
64,192,138541,1,0,0:0:0:0:
320,192,138541,1,8,0:0:0:0:
448,192,138541,1,0,0:0:0:0:
448,192,138723,128,0,138904:0:0:0:0:
320,192,138904,1,4,0:0:0:0:
192,192,138904,1,2,0:0:0:0:
64,192,138904,1,0,0:0:0:0:
448,192,139086,1,0,0:0:0:0:
64,192,139268,1,0,0:0:0:0:
320,192,139268,1,8,0:0:0:0:
192,192,139268,1,0,0:0:0:0:
448,192,139450,1,0,0:0:0:0:
64,192,139632,1,2,0:0:0:0:
320,192,139632,128,0,139995:0:0:0:0:
192,192,139813,1,0,0:0:0:0:
448,192,139995,1,0,0:0:0:0:
192,192,139995,1,8,0:0:0:0:
64,192,139995,128,0,140177:0:0:0:0:
320,192,140177,1,0,0:0:0:0:
192,192,140359,1,2,0:0:0:0:
448,192,140359,128,0,140723:0:0:0:0:
320,192,140359,1,0,0:0:0:0:
64,192,140541,1,8,0:2:0:0:
64,192,140723,1,0,0:0:0:0:
192,192,140723,128,0,141086:0:0:0:0:
320,192,140723,1,8,0:0:0:0:
448,192,140904,1,8,0:2:0:0:
320,192,141086,128,0,141450:0:0:0:0:
64,192,141086,1,0,0:0:0:0:
448,192,141086,1,2,0:0:0:0:
192,192,141268,1,8,0:2:0:0:
64,192,141450,128,0,141813:0:0:0:0:
192,192,141450,1,0,0:0:0:0:
448,192,141450,1,8,0:0:0:0:
320,192,141632,1,8,0:2:0:0:
192,192,141813,1,2,0:0:0:0:
448,192,141813,1,0,0:0:0:0:
320,192,141813,1,0,0:0:0:0:
64,192,141995,1,0,0:0:0:0:
192,192,141995,1,8,0:2:0:0:
320,192,142086,1,8,0:2:0:0:
448,192,142086,1,0,0:0:0:0:
64,192,142177,1,8,0:0:0:0:
192,192,142177,1,8,0:2:0:0:
320,192,142359,1,8,0:2:0:0:
448,192,142359,1,0,0:0:0:0:
192,192,142450,1,8,0:2:0:0:
64,192,142450,1,0,0:0:0:0:
448,192,142541,1,2,0:0:0:0:
320,192,142541,1,8,0:2:0:0:
192,192,142723,1,8,0:2:0:0:
64,192,142723,1,0,0:0:0:0:
320,192,142813,1,8,0:2:0:0:
448,192,142813,1,0,0:0:0:0:
192,192,142904,1,8,0:2:0:0:
64,192,142904,1,8,0:0:0:0:
320,192,143086,1,8,0:2:0:0:
192,192,143086,1,0,0:0:0:0:
64,192,143268,1,0,0:0:0:0:
320,192,143268,1,4,0:0:0:0:
448,192,143268,1,0,0:0:0:0:
192,192,143268,1,2,0:0:0:0:
448,192,143450,1,0,0:0:0:0:
64,192,143632,1,0,0:0:0:0:
192,192,143632,1,8,0:0:0:0:
320,192,143632,1,0,0:0:0:0:
448,192,143813,1,0,0:0:0:0:
192,192,143995,1,2,0:0:0:0:
320,192,143995,1,0,0:0:0:0:
64,192,144177,1,0,0:0:0:0:
192,192,144359,1,0,0:0:0:0:
320,192,144359,1,8,0:0:0:0:
448,192,144359,1,0,0:0:0:0:
64,192,144541,1,0,0:0:0:0:
192,192,144723,1,2,0:0:0:0:
448,192,144723,1,0,0:0:0:0:
320,192,144904,1,0,0:0:0:0:
64,192,145086,1,0,0:0:0:0:
192,192,145086,1,8,0:0:0:0:
448,192,145086,1,0,0:0:0:0:
320,192,145268,1,0,0:0:0:0:
64,192,145450,1,0,0:0:0:0:
448,192,145450,1,2,0:0:0:0:
192,192,145632,128,0,145813:0:0:0:0:
64,192,145813,1,0,0:0:0:0:
448,192,145813,1,8,0:0:0:0:
320,192,145813,128,0,145995:0:0:0:0:
192,192,145995,128,0,146177:0:0:0:0:
320,192,146177,1,4,0:0:0:0:
448,192,146177,1,0,0:0:0:0:
64,192,146177,1,2,0:0:0:0:
192,192,146359,1,0,0:0:0:0:
64,192,146541,1,0,0:0:0:0:
448,192,146541,1,0,0:0:0:0:
320,192,146541,1,8,0:0:0:0:
192,192,146723,1,0,0:0:0:0:
64,192,146904,1,0,0:0:0:0:
320,192,146904,1,2,0:0:0:0:
448,192,147086,1,0,0:0:0:0:
64,192,147268,1,0,0:0:0:0:
192,192,147268,1,8,0:0:0:0:
320,192,147268,1,0,0:0:0:0:
448,192,147450,1,0,0:0:0:0:
192,192,147632,1,0,0:0:0:0:
320,192,147632,1,2,0:0:0:0:
64,192,147813,1,0,0:0:0:0:
192,192,147995,1,8,0:0:0:0:
320,192,147995,1,0,0:0:0:0:
448,192,147995,1,0,0:0:0:0:
64,192,148177,1,0,0:0:0:0:
192,192,148359,1,2,0:0:0:0:
448,192,148359,1,0,0:0:0:0:
320,192,148541,1,8,0:2:0:0:
192,192,148632,1,8,0:2:0:0:
64,192,148723,1,0,0:0:0:0:
448,192,148723,1,0,0:0:0:0:
320,192,148723,1,8,0:0:0:0:
320,192,148904,128,8,149086:0:0:0:0:
64,192,149086,1,2,0:0:0:0:
448,192,149086,1,0,0:0:0:0:
192,192,149086,1,4,0:0:0:0:
320,192,149268,1,0,0:0:0:0:
64,192,149450,1,0,0:0:0:0:
192,192,149450,1,8,0:0:0:0:
448,192,149450,1,0,0:0:0:0:
320,192,149632,1,0,0:0:0:0:
64,192,149813,1,2,0:0:0:0:
448,192,149813,1,0,0:0:0:0:
192,192,149995,1,0,0:0:0:0:
320,192,150177,1,8,0:0:0:0:
64,192,150177,1,0,0:0:0:0:
448,192,150177,1,0,0:0:0:0:
320,192,150359,128,0,150541:0:0:0:0:
192,192,150541,1,2,0:0:0:0:
64,192,150541,1,4,0:0:0:0:
448,192,150541,1,0,0:0:0:0:
320,192,150723,1,0,0:0:0:0:
64,192,150904,1,0,0:0:0:0:
192,192,150904,1,8,0:0:0:0:
448,192,150904,1,0,0:0:0:0:
320,192,151086,1,0,0:0:0:0:
64,192,151268,1,2,0:0:0:0:
192,192,151268,128,0,151632:0:0:0:0:
448,192,151450,1,0,0:0:0:0:
64,192,151632,1,0,0:0:0:0:
448,192,151632,1,0,0:0:0:0:
320,192,151632,1,8,0:0:0:0:
192,192,151813,1,0,0:0:0:0:
64,192,151995,1,4,0:0:0:0:
320,192,151995,1,2,0:0:0:0:
448,192,151995,128,0,152723:0:0:0:0:
192,192,152177,1,0,0:0:0:0:
64,192,152359,1,0,0:0:0:0:
192,192,152359,1,8,0:0:0:0:
320,192,152359,1,0,0:0:0:0:
320,192,152541,1,0,0:0:0:0:
64,192,152723,128,0,153086:0:0:0:0:
192,192,152723,1,2,0:0:0:0:
320,192,152904,1,0,0:0:0:0:
192,192,153086,1,0,0:0:0:0:
320,192,153086,1,8,0:0:0:0:
448,192,153086,1,0,0:0:0:0:
64,192,153268,1,0,0:0:0:0:
448,192,153450,128,0,153632:0:0:0:0:
320,192,153450,1,2,0:0:0:0:
192,192,153632,1,8,0:2:0:0:
64,192,153813,128,0,153995:0:0:0:0:
320,192,153813,1,8,0:0:0:0:
448,192,153813,1,0,0:0:0:0:
192,192,153995,1,8,0:2:0:0:
320,192,154177,1,8,0:2:0:0:
448,192,154177,1,2,0:0:0:0:
192,192,154268,1,8,0:2:0:0:
64,192,154268,1,0,0:0:0:0:
320,192,154359,1,8,0:2:0:0:
448,192,154359,1,0,0:0:0:0:
192,192,154450,1,8,0:2:0:0:
64,192,154450,1,0,0:0:0:0:
320,192,154541,1,2,0:0:0:0:
448,192,154541,1,8,0:0:0:0:
192,192,154632,1,2,0:0:0:0:
64,192,154632,1,0,0:0:0:0:
320,192,154723,1,2,0:0:0:0:
448,192,154723,1,0,0:0:0:0:
192,192,154813,1,2,0:0:0:0:
64,192,154813,1,0,0:0:0:0:
320,192,154904,1,2,0:0:0:0:
448,192,154904,1,4,0:0:0:0:
64,192,154904,1,0,0:0:0:0:
192,192,155086,1,0,0:0:0:0:
64,192,155268,1,0,0:0:0:0:
448,192,155268,1,8,0:0:0:0:
320,192,155268,128,0,155450:0:0:0:0:
192,192,155450,1,0,0:0:0:0:
64,192,155632,1,2,0:0:0:0:
448,192,155632,1,0,0:0:0:0:
192,192,155813,128,0,155995:0:0:0:0:
64,192,155995,1,0,0:0:0:0:
448,192,155995,1,0,0:0:0:0:
320,192,155995,1,8,0:0:0:0:
192,192,156177,1,0,0:0:0:0:
64,192,156359,128,0,156541:0:0:0:0:
320,192,156359,1,2,0:0:0:0:
448,192,156541,1,8,0:2:0:0:
192,192,156723,128,0,156904:0:0:0:0:
320,192,156723,1,8,0:0:0:0:
64,192,156723,1,0,0:0:0:0:
448,192,156904,1,8,0:2:0:0:
320,192,157086,128,0,157268:0:0:0:0:
192,192,157086,1,2,0:0:0:0:
64,192,157268,1,8,0:2:0:0:
448,192,157450,128,0,157632:0:0:0:0:
192,192,157450,1,8,0:0:0:0:
320,192,157450,1,0,0:0:0:0:
64,192,157632,1,8,0:2:0:0:
448,192,157813,1,0,0:0:0:0:
192,192,157813,1,4,0:0:0:0:
320,192,157813,1,2,0:0:0:0:
64,192,157995,1,0,0:0:0:0:
192,192,158177,1,8,0:0:0:0:
448,192,158177,1,0,0:0:0:0:
320,192,158177,1,0,0:0:0:0:
64,192,158359,1,0,0:0:0:0:
448,192,158541,1,0,0:0:0:0:
192,192,158541,1,2,0:0:0:0:
320,192,158723,1,0,0:0:0:0:
64,192,158904,1,0,0:0:0:0:
192,192,158904,1,8,0:0:0:0:
448,192,158904,1,0,0:0:0:0:
320,192,159086,1,0,0:0:0:0:
320,192,159268,1,2,0:0:0:0:
64,192,159268,1,0,0:0:0:0:
448,192,159268,1,0,0:0:0:0:
192,192,159450,1,0,0:0:0:0:
320,192,159632,1,8,0:0:0:0:
448,192,159632,1,0,0:0:0:0:
64,192,159632,1,0,0:0:0:0:
192,192,159813,1,0,0:0:0:0:
320,192,159995,1,8,0:2:0:0:
448,192,159995,1,2,0:0:0:0:
192,192,160086,1,8,0:2:0:0:
64,192,160086,1,0,0:0:0:0:
320,192,160177,1,8,0:2:0:0:
448,192,160177,1,0,0:0:0:0:
192,192,160359,1,8,0:2:0:0:
64,192,160359,1,8,0:0:0:0:
320,192,160450,1,8,0:2:0:0:
448,192,160450,1,0,0:0:0:0:
192,192,160541,1,8,0:2:0:0:
64,192,160541,1,0,0:0:0:0:
64,192,160723,1,0,0:0:0:0:
320,192,160723,1,2,0:0:0:0:
448,192,160723,1,4,0:0:0:0:
192,192,160904,1,0,0:0:0:0:
64,192,161086,1,0,0:0:0:0:
320,192,161086,1,8,0:0:0:0:
448,192,161086,128,0,161268:0:0:0:0:
192,192,161268,1,0,0:0:0:0:
64,192,161450,1,2,0:0:0:0:
448,192,161450,1,0,0:0:0:0:
320,192,161632,128,0,161813:0:0:0:0:
192,192,161813,1,8,0:0:0:0:
64,192,161813,1,0,0:0:0:0:
448,192,161813,1,0,0:0:0:0:
320,192,161995,1,0,0:0:0:0:
192,192,162177,1,2,0:0:0:0:
64,192,162177,128,0,162359:0:0:0:0:
320,192,162359,1,8,0:2:0:0:
192,192,162541,1,8,0:0:0:0:
64,192,162541,1,0,0:0:0:0:
448,192,162541,128,0,162723:0:0:0:0:
320,192,162723,1,8,0:2:0:0:
64,192,162904,1,2,0:0:0:0:
192,192,162904,128,0,163086:0:0:0:0:
320,192,163086,1,8,0:2:0:0:
64,192,163268,1,0,0:0:0:0:
448,192,163268,128,0,163450:0:0:0:0:
192,192,163268,1,8,0:0:0:0:
320,192,163450,1,8,0:2:0:0:
192,192,163632,1,2,0:0:0:0:
320,192,163632,1,0,0:0:0:0:
448,192,163632,1,8,0:2:0:0:
64,192,163632,128,0,164723:0:0:0:0:
448,192,163813,1,8,0:2:0:0:
192,192,163995,1,0,0:0:0:0:
320,192,163995,1,8,0:0:0:0:
448,192,163995,1,8,0:2:0:0:
192,192,164177,1,8,0:2:0:0:
320,192,164359,1,8,0:2:0:0:
448,192,164359,1,2,0:0:0:0:
320,192,164541,1,8,0:2:0:0:
192,192,164723,1,8,0:0:0:0:
320,192,164723,1,8,0:2:0:0:
448,192,164723,1,0,0:0:0:0:
448,192,164904,128,0,165450:0:0:0:0:
64,192,164904,1,0,0:0:0:0:
192,192,165086,1,2,0:0:0:0:
320,192,165086,1,0,0:0:0:0:
64,192,165268,1,0,0:0:0:0:
64,192,165450,1,0,0:0:0:0:
192,192,165450,1,8,0:2:0:0:
320,192,165450,1,8,0:0:0:0:
448,192,165632,1,0,0:0:0:0:
320,192,165632,1,8,0:2:0:0:
64,192,165813,1,2,0:0:0:0:
192,192,165813,1,8,0:2:0:0:
448,192,165935,1,0,0:0:0:0:
320,192,165935,1,8,0:2:0:0:
192,192,165995,1,0,0:0:0:0:
64,192,165995,1,0,0:0:0:0:
448,192,166056,1,0,0:0:0:0:
320,192,166056,1,8,0:2:0:0:
192,192,166177,1,8,0:2:0:0:
64,192,166177,1,8,0:0:0:0:
448,192,166298,1,0,0:0:0:0:
320,192,166298,1,8,0:2:0:0:
192,192,166359,1,8,0:2:0:0:
64,192,166359,1,0,0:0:0:0:
320,192,166419,1,8,0:2:0:0:
448,192,166419,1,0,0:0:0:0:
192,192,166480,1,8,0:2:0:0:
64,192,166480,1,0,0:0:0:0:
320,192,166541,128,4,167632:0:0:0:0:
448,192,166541,128,2,167086:0:0:0:0:
64,192,166904,1,4,0:0:0:0:
192,192,167086,128,0,167632:0:0:0:0:
448,192,167268,1,8,0:0:0:0:
64,192,167632,128,0,167995:0:0:0:0:
320,192,167813,1,0,0:0:0:0:
192,192,167995,1,0,0:0:0:0:
448,192,167995,1,4,0:0:0:0:
320,192,168177,128,0,168541:0:0:0:0:
192,192,168359,128,0,168723:0:0:0:0:
448,192,168359,1,4,0:0:0:0:
64,192,168541,128,0,168904:0:0:0:0:
448,192,168723,128,0,169086:0:0:0:0:
320,192,168723,1,8,0:0:0:0:
320,192,168904,128,0,169268:0:0:0:0:
192,192,169086,128,0,169450:0:0:0:0:
64,192,169086,1,4,0:0:0:0:
448,192,169268,1,8,0:0:0:0:
64,192,169450,128,2,170541:0:0:0:0:
320,192,169450,1,4,0:0:0:0:
448,192,169450,128,0,169995:0:0:0:0:
320,192,169813,1,4,0:0:0:0:
192,192,169995,128,0,170541:0:0:0:0:
448,192,170177,1,8,0:0:0:0:
320,192,170541,128,0,170904:0:0:0:0:
64,192,170904,1,4,0:0:0:0:
448,192,170904,1,0,0:0:0:0:
192,192,171086,128,0,171450:0:0:0:0:
64,192,171268,1,4,0:0:0:0:
320,192,171268,128,0,171632:0:0:0:0:
448,192,171450,128,0,171813:0:0:0:0:
192,192,171632,1,8,0:0:0:0:
64,192,171632,128,0,171995:0:0:0:0:
192,192,171813,128,0,172177:0:0:0:0:
448,192,171995,1,4,0:0:0:0:
320,192,171995,128,0,172359:0:0:0:0:
64,192,172177,1,8,0:0:0:0:
448,192,172359,128,2,173268:0:0:0:0:
192,192,172359,1,4,0:0:0:0:
64,192,172359,128,0,172904:0:0:0:0:
192,192,172723,1,4,0:0:0:0:
320,192,172904,128,0,173450:0:0:0:0:
64,192,173086,1,8,0:0:0:0:
192,192,173268,128,0,173813:0:0:0:0:
64,192,173450,128,4,173813:0:0:0:0:
448,192,173632,1,8,0:0:0:0:
448,192,173813,1,4,0:0:0:0:
320,192,173813,128,2,174541:0:0:0:0:
64,192,174177,1,4,0:0:0:0:
192,192,174541,128,0,174904:0:0:0:0:
448,192,174541,1,8,0:0:0:0:
64,192,174904,128,0,175268:0:0:0:0:
448,192,174904,1,4,0:0:0:0:
320,192,175086,1,8,0:0:0:0:
192,192,175268,1,2,0:0:0:0:
448,192,175268,128,4,176723:0:0:0:0:
320,192,175632,1,4,0:0:0:0:
192,192,175813,1,4,0:0:0:0:
64,192,175813,128,2,176177:0:0:0:0:
320,192,175995,1,0,0:0:0:0:
192,192,176177,128,8,176359:0:0:0:0:
320,192,176359,1,4,0:0:0:0:
64,192,176541,1,8,0:0:0:0:
320,192,176723,128,4,177268:0:0:0:0:
192,192,176723,1,2,0:0:0:0:
64,192,176723,1,0,0:0:0:0:
448,192,176904,1,0,0:0:0:0:
192,192,177086,1,8,0:0:0:0:
192,192,177268,1,4,0:0:0:0:
448,192,177268,1,0,0:0:0:0:
64,192,177268,128,2,177632:0:0:0:0:
320,192,177632,1,8,0:0:0:0:
448,192,177632,1,0,0:0:0:0:
192,192,177813,1,8,0:0:0:0:
320,192,177813,1,0,0:0:0:0:
64,192,177995,1,0,0:0:0:0:
192,192,177995,1,8,0:0:0:0:
64,192,178177,1,0,0:0:0:0:
320,192,178177,1,2,0:0:0:0:
448,192,178177,1,4,0:0:0:0:
192,192,178359,1,0,0:0:0:0:
320,192,178541,1,8,0:2:0:0:
448,192,178541,1,0,0:0:0:0:
64,192,178541,1,0,0:0:0:0:
192,192,178723,1,0,0:0:0:0:
448,192,178904,1,0,0:0:0:0:
320,192,178904,1,2,0:0:0:0:
64,192,179086,1,0,0:0:0:0:
448,192,179268,1,0,0:0:0:0:
192,192,179268,1,8,0:2:0:0:
320,192,179450,1,0,0:0:0:0:
448,192,179632,1,0,0:0:0:0:
64,192,179632,1,2,0:0:0:0:
192,192,179813,1,0,0:0:0:0:
320,192,179995,1,8,0:2:0:0:
448,192,179995,1,0,0:0:0:0:
64,192,180177,1,0,0:0:0:0:
192,192,180359,1,2,0:0:0:0:
320,192,180359,1,0,0:0:0:0:
448,192,180541,1,0,0:0:0:0:
64,192,180723,1,0,0:0:0:0:
192,192,180723,1,8,0:2:0:0:
320,192,180723,1,0,0:0:0:0:
448,192,180904,1,0,0:0:0:0:
448,192,181086,1,0,0:0:0:0:
192,192,181086,1,2,0:0:0:0:
64,192,181086,1,0,0:0:0:0:
320,192,181268,1,0,0:0:0:0:
448,192,181450,1,0,0:0:0:0:
64,192,181450,1,0,0:0:0:0:
192,192,181450,1,8,0:2:0:0:
320,192,181632,1,0,0:0:0:0:
64,192,181813,1,0,0:0:0:0:
192,192,181813,1,2,0:0:0:0:
448,192,181995,1,0,0:0:0:0:
64,192,182177,1,0,0:0:0:0:
320,192,182177,1,8,0:2:0:0:
192,192,182359,1,0,0:0:0:0:
448,192,182541,1,0,0:0:0:0:
64,192,182541,1,2,0:0:0:0:
320,192,182723,1,0,0:0:0:0:
64,192,182904,1,0,0:0:0:0:
192,192,182904,1,8,0:2:0:0:
448,192,183086,1,0,0:0:0:0:
192,192,183268,1,2,0:0:0:0:
320,192,183268,1,0,0:0:0:0:
64,192,183450,1,0,0:0:0:0:
448,192,183632,1,0,0:0:0:0:
192,192,183632,1,4,0:2:0:0:
320,192,183632,1,0,0:0:0:0:
64,192,183813,1,0,0:0:0:0:
320,192,183995,1,2,0:0:0:0:
448,192,183995,1,4,0:0:0:0:
192,192,183995,1,2,0:2:0:0:
64,192,183995,1,0,0:0:0:0:
192,192,184359,1,0,0:0:0:0:
320,192,184359,1,8,0:2:0:0:
64,192,184541,1,0,0:0:0:0:
192,192,184541,1,2,0:0:0:0:
320,192,184541,1,2,0:2:0:0:
448,192,184541,1,0,0:0:0:0:
64,192,184904,1,8,0:2:0:0:
448,192,184904,1,0,0:0:0:0:
64,192,185268,1,0,0:0:0:0:
192,192,185268,1,2,0:2:0:0:
320,192,185268,1,2,0:0:0:0:
448,192,185268,1,0,0:0:0:0:
64,192,185632,1,0,0:0:0:0:
192,192,185632,1,8,0:2:0:0:
192,192,185813,1,8,0:2:0:0:
320,192,185813,1,0,0:0:0:0:
320,192,185995,1,8,0:2:0:0:
448,192,185995,1,0,0:0:0:0:
64,192,186177,1,2,0:0:0:0:
192,192,186177,1,8,0:2:0:0:
320,192,186298,1,8,0:2:0:0:
448,192,186298,1,0,0:0:0:0:
192,192,186419,1,8,0:2:0:0:
64,192,186419,1,0,0:0:0:0:
320,192,186541,1,8,0:2:0:0:
448,192,186541,1,2,0:0:0:0:
192,192,186662,1,8,0:2:0:0:
64,192,186662,1,0,0:0:0:0:
448,192,186783,1,0,0:0:0:0:
320,192,186783,1,8,0:2:0:0:
64,192,186904,1,0,0:0:0:0:
192,192,186904,1,2,0:0:0:0:
448,192,186904,1,4,0:0:0:0:
320,192,187086,1,0,0:0:0:0:
192,192,187268,1,8,0:2:0:0:
64,192,187268,1,0,0:0:0:0:
448,192,187450,1,0,0:0:0:0:
192,192,187632,1,2,0:0:0:0:
320,192,187632,1,0,0:0:0:0:
64,192,187813,1,0,0:0:0:0:
320,192,187995,1,8,0:2:0:0:
448,192,187995,1,0,0:0:0:0:
192,192,188177,1,0,0:0:0:0:
64,192,188359,1,2,0:0:0:0:
448,192,188359,1,0,0:0:0:0:
320,192,188541,1,0,0:0:0:0:
192,192,188723,1,8,0:2:0:0:
64,192,188723,1,0,0:0:0:0:
448,192,188904,1,0,0:0:0:0:
320,192,189086,1,2,0:0:0:0:
192,192,189086,1,0,0:0:0:0:
64,192,189268,1,0,0:0:0:0:
448,192,189450,1,0,0:0:0:0:
192,192,189450,1,8,0:2:0:0:
320,192,189632,1,0,0:0:0:0:
64,192,189813,1,2,0:2:0:0:
192,192,189813,1,2,0:0:0:0:
448,192,189813,128,4,190177:0:0:0:0:
320,192,190177,1,0,0:0:0:0:
448,192,190359,1,0,0:0:0:0:
64,192,190359,128,2,190904:0:2:0:0:
192,192,190359,1,2,0:0:0:0:
448,192,190904,1,0,0:0:0:0:
320,192,190950,1,0,0:0:0:0:
192,192,190995,1,0,0:0:0:0:
64,192,191041,1,0,0:0:0:0:
448,192,191086,1,0,0:0:0:0:
320,192,191132,1,0,0:0:0:0:
192,192,191177,1,0,0:0:0:0:
64,192,191223,1,0,0:0:0:0:
320,192,191268,1,2,0:2:0:0:
448,192,191268,128,6,191632:0:0:0:0:
192,192,191632,1,0,0:0:0:0:
64,192,191632,1,0,0:0:0:0:
320,192,191813,1,2,0:2:0:0:
448,192,191813,1,2,0:0:0:0:
64,192,191813,128,0,192359:0:0:0:0:
320,192,192359,1,0,0:0:0:0:
448,192,192404,1,0,0:0:0:0:
192,192,192450,1,0,0:0:0:0:
64,192,192495,1,0,0:0:0:0:
320,192,192541,1,0,0:0:0:0:
448,192,192586,1,0,0:0:0:0:
192,192,192632,1,0,0:0:0:0:
64,192,192677,1,0,0:0:0:0:
320,192,192723,1,0,0:0:0:0:
64,192,192904,128,0,193086:0:3:0:0:
192,192,192904,1,0,0:3:0:0:
320,192,193086,128,0,193268:0:3:0:0:
448,192,193086,1,0,0:3:0:0:
192,192,193268,128,0,193450:0:3:0:0:
64,192,193268,1,0,0:3:0:0:
448,192,193450,128,0,193632:0:3:0:0:
320,192,193450,1,0,0:3:0:0:
64,192,193632,128,0,193813:0:3:0:0:
320,192,193632,1,0,0:3:0:0:
192,192,193813,128,0,193995:0:3:0:0:
448,192,193813,1,0,0:3:0:0:
320,192,193995,128,0,194177:0:3:0:0:
64,192,193995,1,0,0:3:0:0:
448,192,194541,1,0,0:0:0:0:
320,192,194586,1,0,0:0:0:0:
64,192,194632,1,0,0:0:0:0:
192,192,194677,1,0,0:0:0:0:
448,192,194723,1,0,0:0:0:0:
320,192,194768,1,0,0:0:0:0:
64,192,194813,1,0,0:0:0:0:
192,192,194859,1,0,0:0:0:0:
320,192,194904,1,2,0:0:0:0:
448,192,194904,1,4,0:0:0:0:
64,192,195085,1,0,0:0:0:0:
192,192,195267,1,8,0:0:0:0:
320,192,195267,1,0,0:0:0:0:
448,192,195267,1,0,0:0:0:0:
64,192,195449,1,0,0:0:0:0:
192,192,195631,1,2,0:0:0:0:
320,192,195631,1,0,0:0:0:0:
448,192,195813,1,0,0:0:0:0:
64,192,195994,1,0,0:0:0:0:
192,192,195994,1,0,0:0:0:0:
320,192,195994,1,8,0:0:0:0:
448,192,196176,1,0,0:0:0:0:
64,192,196358,1,0,0:0:0:0:
192,192,196358,1,2,0:0:0:0:
448,192,196358,1,0,0:0:0:0:
320,192,196540,1,0,0:0:0:0:
64,192,196722,1,0,0:0:0:0:
320,192,196722,1,8,0:0:0:0:
448,192,196722,1,0,0:0:0:0:
192,192,196904,1,0,0:0:0:0:
64,192,197085,1,0,0:0:0:0:
320,192,197085,1,2,0:0:0:0:
448,192,197085,1,0,0:0:0:0:
192,192,197267,128,0,197449:0:0:0:0:
64,192,197449,1,0,0:0:0:0:
320,192,197449,1,8,0:0:0:0:
448,192,197449,128,0,197631:0:0:0:0:
64,192,197631,128,0,197813:0:0:0:0:
192,192,197813,1,2,0:0:0:0:
320,192,197813,1,4,0:0:0:0:
448,192,197813,1,0,0:0:0:0:
320,192,197994,1,0,0:0:0:0:
192,192,198176,1,8,0:0:0:0:
64,192,198176,1,0,0:0:0:0:
448,192,198176,1,0,0:0:0:0:
320,192,198358,1,0,0:0:0:0:
192,192,198540,1,2,0:0:0:0:
448,192,198540,1,0,0:0:0:0:
64,192,198722,1,0,0:0:0:0:
192,192,198904,1,0,0:0:0:0:
320,192,198904,1,8,0:0:0:0:
448,192,198904,1,0,0:0:0:0:
320,192,199085,1,0,0:0:0:0:
192,192,199267,1,2,0:0:0:0:
64,192,199267,1,0,0:0:0:0:
448,192,199267,1,0,0:0:0:0:
64,192,199449,1,0,0:0:0:0:
192,192,199631,1,0,0:0:0:0:
320,192,199631,1,8,0:0:0:0:
448,192,199631,1,0,0:0:0:0:
448,192,199813,1,0,0:0:0:0:
64,192,199994,1,0,0:0:0:0:
192,192,199994,1,2,0:0:0:0:
320,192,199994,1,0,0:0:0:0:
448,192,200176,128,0,200358:0:0:0:0:
192,192,200358,128,0,200540:0:0:0:0:
64,192,200358,1,0,0:0:0:0:
320,192,200358,1,8,0:0:0:0:
64,192,200540,128,8,200722:0:0:0:0:
192,192,200722,1,0,0:0:0:0:
320,192,200722,1,4,0:0:0:0:
448,192,200722,1,2,0:0:0:0:
320,192,200904,1,0,0:0:0:0:
192,192,201085,1,8,0:0:0:0:
64,192,201085,1,0,0:0:0:0:
448,192,201085,1,0,0:0:0:0:
320,192,201267,1,0,0:0:0:0:
64,192,201449,1,0,0:0:0:0:
192,192,201449,1,2,0:0:0:0:
448,192,201631,1,0,0:0:0:0:
320,192,201813,1,8,0:0:0:0:
192,192,201813,1,0,0:0:0:0:
64,192,201813,1,0,0:0:0:0:
192,192,201994,128,0,202176:0:0:0:0:
64,192,202176,1,0,0:0:0:0:
320,192,202176,1,2,0:0:0:0:
448,192,202176,1,4,0:0:0:0:
320,192,202358,1,0,0:0:0:0:
64,192,202540,1,0,0:0:0:0:
448,192,202540,1,0,0:0:0:0:
192,192,202540,1,8,0:0:0:0:
320,192,202722,1,0,0:0:0:0:
448,192,202904,1,2,0:0:0:0:
64,192,202904,128,0,203267:0:0:0:0:
320,192,203085,1,0,0:0:0:0:
192,192,203267,1,0,0:0:0:0:
320,192,203267,1,8,0:0:0:0:
448,192,203267,128,0,203449:0:0:0:0:
64,192,203449,1,0,0:0:0:0:
192,192,203631,128,0,203994:0:0:0:0:
320,192,203631,1,2,0:0:0:0:
64,192,203631,1,0,0:0:0:0:
448,192,203813,1,8,0:2:0:0:
64,192,203994,1,0,0:0:0:0:
320,192,203994,128,0,204358:0:0:0:0:
448,192,203994,1,8,0:0:0:0:
192,192,204176,1,8,0:2:0:0:
64,192,204358,128,0,204722:0:0:0:0:
192,192,204358,1,2,0:0:0:0:
448,192,204358,1,0,0:0:0:0:
320,192,204540,1,8,0:2:0:0:
192,192,204722,1,8,0:0:0:0:
320,192,204722,1,0,0:0:0:0:
448,192,204722,128,0,205085:0:0:0:0:
64,192,204904,1,8,0:2:0:0:
192,192,205085,1,2,0:0:0:0:
64,192,205085,1,0,0:0:0:0:
320,192,205085,1,0,0:0:0:0:
64,192,205267,128,8,205449:0:2:0:0:
320,192,205449,1,8,0:0:0:0:
448,192,205449,128,0,205631:0:0:0:0:
192,192,205449,1,0,0:0:0:0:
192,192,205631,128,8,205813:0:2:0:0:
320,192,205813,128,0,205994:0:0:0:0:
448,192,205813,1,2,0:0:0:0:
64,192,205994,128,8,206176:0:2:0:0:
448,192,206176,1,8,0:0:0:0:
320,192,206176,1,8,0:2:0:0:
192,192,206267,1,8,0:2:0:0:
64,192,206267,1,0,0:0:0:0:
320,192,206358,1,8,0:2:0:0:
448,192,206358,1,0,0:0:0:0:
192,192,206449,1,8,0:2:0:0:
64,192,206449,1,0,0:0:0:0:
320,192,206540,1,2,0:0:0:0:
448,192,206540,1,4,0:0:0:0:
64,192,206540,1,0,0:0:0:0:
192,192,206722,1,0,0:0:0:0:
64,192,206904,1,0,0:0:0:0:
320,192,206904,1,8,0:0:0:0:
448,192,206904,1,0,0:0:0:0:
192,192,207085,1,0,0:0:0:0:
64,192,207267,1,0,0:0:0:0:
448,192,207267,1,2,0:0:0:0:
320,192,207449,1,0,0:0:0:0:
192,192,207631,1,8,0:0:0:0:
64,192,207631,1,0,0:0:0:0:
448,192,207631,1,0,0:0:0:0:
320,192,207813,1,0,0:0:0:0:
64,192,207994,1,2,0:0:0:0:
192,192,207994,1,0,0:0:0:0:
448,192,207994,1,0,0:0:0:0:
192,192,208176,1,0,0:0:0:0:
64,192,208358,1,0,0:0:0:0:
320,192,208358,1,8,0:0:0:0:
448,192,208358,1,0,0:0:0:0:
320,192,208540,1,0,0:0:0:0:
64,192,208722,1,0,0:0:0:0:
192,192,208722,1,2,0:0:0:0:
448,192,208722,1,0,0:0:0:0:
64,192,208904,128,0,209085:0:0:0:0:
320,192,209085,1,8,0:0:0:0:
448,192,209085,1,0,0:0:0:0:
192,192,209085,128,0,209267:0:0:0:0:
448,192,209267,128,0,209449:0:0:0:0:
320,192,209449,1,2,0:0:0:0:
192,192,209449,1,0,0:0:0:0:
64,192,209449,1,4,0:0:0:0:
448,192,209631,1,0,0:0:0:0:
64,192,209813,1,0,0:0:0:0:
192,192,209813,1,8,0:0:0:0:
320,192,209813,1,0,0:0:0:0:
448,192,209994,1,0,0:0:0:0:
64,192,210176,1,0,0:0:0:0:
320,192,210176,1,2,0:0:0:0:
192,192,210358,1,0,0:0:0:0:
64,192,210540,1,0,0:0:0:0:
320,192,210540,1,8,0:0:0:0:
448,192,210540,1,0,0:0:0:0:
192,192,210722,1,0,0:0:0:0:
64,192,210904,1,0,0:0:0:0:
320,192,210904,1,2,0:0:0:0:
448,192,210904,1,0,0:0:0:0:
448,192,211085,1,0,0:0:0:0:
64,192,211267,1,0,0:0:0:0:
192,192,211267,1,8,0:0:0:0:
320,192,211267,1,0,0:0:0:0:
64,192,211449,1,0,0:0:0:0:
192,192,211631,1,0,0:0:0:0:
320,192,211631,1,2,0:0:0:0:
448,192,211631,1,0,0:0:0:0:
320,192,211813,128,0,211994:0:0:0:0:
64,192,211813,1,0,0:0:0:0:
192,192,211994,1,8,0:0:0:0:
64,192,211994,1,0,0:0:0:0:
448,192,211994,128,0,212176:0:0:0:0:
192,192,212176,128,8,212358:0:0:0:0:
64,192,212358,1,0,0:0:0:0:
320,192,212358,1,2,0:0:0:0:
448,192,212358,1,4,0:0:0:0:
192,192,212540,1,0,0:0:0:0:
64,192,212722,1,0,0:0:0:0:
320,192,212722,1,8,0:0:0:0:
448,192,212722,1,0,0:0:0:0:
192,192,212904,1,0,0:0:0:0:
320,192,213085,1,2,0:0:0:0:
448,192,213085,1,0,0:0:0:0:
192,192,213267,1,0,0:0:0:0:
64,192,213449,1,0,0:0:0:0:
320,192,213449,1,8,0:0:0:0:
448,192,213449,1,0,0:0:0:0:
448,192,213631,1,0,0:0:0:0:
64,192,213813,1,0,0:0:0:0:
192,192,213813,1,2,0:0:0:0:
320,192,213813,1,4,0:0:0:0:
448,192,213994,1,0,0:0:0:0:
64,192,214176,1,0,0:0:0:0:
320,192,214176,1,8,0:0:0:0:
192,192,214176,1,0,0:0:0:0:
448,192,214358,1,0,0:0:0:0:
64,192,214540,1,0,0:0:0:0:
320,192,214540,1,2,0:0:0:0:
192,192,214722,1,0,0:0:0:0:
64,192,214904,1,0,0:0:0:0:
448,192,214904,1,0,0:0:0:0:
192,192,214904,1,8,0:0:0:0:
320,192,215085,1,0,0:0:0:0:
64,192,215267,128,0,215631:0:0:0:0:
448,192,215267,1,4,0:0:0:0:
192,192,215267,1,2,0:0:0:0:
320,192,215449,1,0,0:0:0:0:
320,192,215631,1,0,0:0:0:0:
448,192,215631,1,0,0:0:0:0:
192,192,215631,1,8,0:0:0:0:
64,192,215813,1,0,0:0:0:0:
192,192,215994,1,0,0:0:0:0:
320,192,215994,1,2,0:0:0:0:
448,192,215994,128,0,216358:0:0:0:0:
192,192,216176,1,0,0:0:0:0:
64,192,216358,1,0,0:0:0:0:
192,192,216358,1,0,0:0:0:0:
320,192,216358,1,8,0:0:0:0:
448,192,216540,1,0,0:0:0:0:
64,192,216722,128,0,216904:0:0:0:0:
192,192,216722,1,2,0:0:0:0:
320,192,216904,1,8,0:2:0:0:
448,192,217085,128,0,217267:0:0:0:0:
192,192,217085,1,8,0:0:0:0:
64,192,217085,1,0,0:0:0:0:
320,192,217267,1,8,0:2:0:0:
64,192,217449,1,2,0:0:0:0:
192,192,217449,1,8,0:2:0:0:
320,192,217540,1,8,0:2:0:0:
448,192,217540,1,0,0:0:0:0:
192,192,217631,1,8,0:2:0:0:
64,192,217631,1,0,0:0:0:0:
448,192,217722,1,0,0:0:0:0:
320,192,217722,1,8,0:2:0:0:
192,192,217813,1,2,0:0:0:0:
64,192,217813,1,8,0:0:0:0:
448,192,217904,1,0,0:0:0:0:
320,192,217904,1,2,0:0:0:0:
192,192,217994,1,2,0:0:0:0:
64,192,217994,1,0,0:0:0:0:
320,192,218085,1,2,0:0:0:0:
448,192,218085,1,0,0:0:0:0:
448,192,218176,1,0,0:0:0:0:
192,192,218176,1,2,0:0:0:0:
64,192,218176,1,4,0:0:0:0:
320,192,218358,1,0,0:0:0:0:
64,192,218540,1,0,0:0:0:0:
192,192,218540,1,8,0:0:0:0:
448,192,218540,128,0,218722:0:0:0:0:
320,192,218722,1,0,0:0:0:0:
64,192,218904,1,2,0:0:0:0:
448,192,218904,1,0,0:0:0:0:
192,192,219085,1,0,0:0:0:0:
320,192,219085,128,0,219267:0:0:0:0:
192,192,219267,1,8,0:0:0:0:
64,192,219267,1,0,0:0:0:0:
448,192,219267,1,0,0:0:0:0:
320,192,219449,1,0,0:0:0:0:
448,192,219449,1,0,0:0:0:0:
192,192,219631,1,2,0:0:0:0:
64,192,219631,128,0,219813:0:0:0:0:
320,192,219813,1,8,0:2:0:0:
448,192,219994,128,0,220176:0:0:0:0:
192,192,219994,1,8,0:0:0:0:
64,192,219994,1,0,0:0:0:0:
320,192,220176,1,8,0:2:0:0:
192,192,220358,1,2,0:0:0:0:
64,192,220358,128,0,220540:0:0:0:0:
320,192,220540,1,8,0:2:0:0:
448,192,220722,128,0,220904:0:0:0:0:
192,192,220722,1,8,0:0:0:0:
64,192,220722,1,0,0:0:0:0:
320,192,220904,1,8,0:2:0:0:
192,192,221085,1,2,0:0:0:0:
64,192,221085,1,0,0:0:0:0:
448,192,221085,1,4,0:0:0:0:
320,192,221267,1,0,0:0:0:0:
192,192,221449,1,8,0:0:0:0:
64,192,221449,1,0,0:0:0:0:
448,192,221449,1,0,0:0:0:0:
320,192,221631,1,0,0:0:0:0:
64,192,221813,1,0,0:0:0:0:
448,192,221813,1,2,0:0:0:0:
192,192,221994,1,0,0:0:0:0:
64,192,222176,1,0,0:0:0:0:
320,192,222176,1,8,0:0:0:0:
448,192,222176,1,0,0:0:0:0:
320,192,222358,1,0,0:0:0:0:
192,192,222540,1,2,0:0:0:0:
448,192,222540,1,0,0:0:0:0:
64,192,222540,1,0,0:0:0:0:
320,192,222722,1,0,0:0:0:0:
192,192,222904,1,8,0:0:0:0:
448,192,222904,1,0,0:0:0:0:
64,192,222904,1,0,0:0:0:0:
320,192,223085,1,0,0:0:0:0:
64,192,223267,1,0,0:0:0:0:
448,192,223267,1,2,0:0:0:0:
192,192,223449,1,0,0:0:0:0:
64,192,223631,1,0,0:0:0:0:
320,192,223631,1,8,0:0:0:0:
448,192,223631,1,0,0:0:0:0:
192,192,223813,1,0,0:0:0:0:
320,192,223813,1,2,0:0:0:0:
64,192,223994,1,0,0:0:0:0:
192,192,223994,1,2,0:0:0:0:
448,192,223994,1,4,0:0:0:0:
320,192,224176,1,0,0:0:0:0:
64,192,224358,1,0,0:0:0:0:
192,192,224358,1,8,0:0:0:0:
448,192,224358,128,0,224540:0:0:0:0:
320,192,224540,1,0,0:0:0:0:
448,192,224722,1,0,0:0:0:0:
192,192,224722,1,2,0:0:0:0:
320,192,224904,1,0,0:0:0:0:
64,192,224904,1,0,0:0:0:0:
64,192,225085,1,0,0:0:0:0:
192,192,225085,1,8,0:0:0:0:
448,192,225085,1,0,0:0:0:0:
320,192,225267,1,0,0:0:0:0:
192,192,225358,1,0,0:0:0:0:
448,192,225449,128,0,225631:0:0:0:0:
64,192,225449,1,2,0:0:0:0:
320,192,225449,1,0,0:0:0:0:
192,192,225631,1,8,0:2:0:0:
320,192,225722,1,8,0:2:0:0:
192,192,225813,1,8,0:0:0:0:
448,192,225813,1,0,0:0:0:0:
64,192,225813,128,0,225994:0:0:0:0:
320,192,225994,1,8,0:2:0:0:
192,192,226085,1,8,0:2:0:0:
320,192,226176,1,2,0:0:0:0:
448,192,226176,128,0,226358:0:0:0:0:
64,192,226176,1,0,0:0:0:0:
192,192,226358,1,8,0:2:0:0:
320,192,226449,1,8,0:2:0:0:
192,192,226540,1,8,0:0:0:0:
448,192,226540,1,0,0:0:0:0:
64,192,226540,1,0,0:0:0:0:
320,192,226631,1,8,0:2:0:0:
448,192,226722,1,8,0:2:0:0:
64,192,226904,128,4,228631:0:0:0:0:
192,192,226904,128,2,228722:0:0:0:0:
320,192,226904,128,0,227994:0:0:0:0:
448,192,227994,1,2,0:0:0:0:
320,192,228267,128,0,228813:0:0:0:0:
448,192,228267,128,4,228904:0:0:0:0:
