osu file format v14

[General]
AudioFilename: audio.mp3
AudioLeadIn: 0
PreviewTime: 74726
Countdown: 0
SampleSet: Normal
StackLeniency: 0.7
Mode: 1
LetterboxInBreaks: 0
WidescreenStoryboard: 0

[Editor]
DistanceSpacing: 1.1
BeatDivisor: 4
GridSize: 32
TimelineZoom: 1.5

[Metadata]
Title:Hirahira Hirara
TitleUnicode:ひらひら ひらら
Artist:ClariS
ArtistUnicode:ClariS
Creator:[R]
Version:Kirakira Kirara
Source:
Tags:fairy castle clara karen pop jpop j-pop japanese 奥村イオン 佐久間誠
BeatmapID:2871102
BeatmapSetID:1390347

[Difficulty]
HPDrainRate:5
CircleSize:5.1
OverallDifficulty:5
ApproachRate:5.1
SliderMultiplier:1.4
SliderTickRate:1

[Events]
//Background and Video events
0,0,"BG.jpg",0,20
//Break Periods
//Storyboard Layer 0 (Background)
//Storyboard Layer 1 (Fail)
//Storyboard Layer 2 (Pass)
//Storyboard Layer 3 (Foreground)
//Storyboard Layer 4 (Overlay)
//Storyboard Sound Samples

[TimingPoints]
470,540.540540540541,4,1,0,75,1,0
76145,-100,4,1,0,85,0,1
104253,-100,4,1,0,75,0,0
131145,-100,4,1,0,50,0,0
132226,-100,4,1,0,75,0,0
158307,-100,4,1,0,85,0,1
186415,-100,4,1,0,75,0,0
214388,-100,4,1,0,65,0,0
218713,-100,4,1,0,75,0,0
219794,-100,4,1,0,85,0,0
220875,-100,4,1,0,65,0,0
222497,-100,4,1,0,85,0,0
223172,-100,4,1,0,85,0,1
251280,-100,4,1,0,75,0,0
253442,-100,4,1,0,85,0,1
281551,-100,4,1,0,75,0,0

[HitObjects]
256,192,470,5,8,0:0:0:0:
256,192,740,1,8,0:0:0:0:
256,192,1010,1,0,0:0:0:0:
256,192,1280,1,0,0:0:0:0:
256,192,1551,1,8,0:0:0:0:
256,192,1821,1,8,0:0:0:0:
256,192,2091,1,0,0:0:0:0:
256,192,2361,1,8,0:0:0:0:
256,192,2632,1,0,0:0:0:0:
256,192,4794,1,0,0:0:0:0:
256,192,5334,1,8,0:0:0:0:
256,192,5605,1,8,0:0:0:0:
256,192,5875,1,0,0:0:0:0:
256,192,6956,1,0,0:0:0:0:
256,192,7226,1,8,0:0:0:0:
256,192,7497,1,0,0:0:0:0:
256,192,8037,1,8,0:0:0:0:
256,192,9118,1,8,0:0:0:0:
256,192,9388,1,8,0:0:0:0:
256,192,9659,1,0,0:0:0:0:
256,192,10199,1,0,0:0:0:0:
256,192,11280,1,0,0:0:0:0:
256,192,11551,1,8,0:0:0:0:
256,192,11821,1,0,0:0:0:0:
256,192,12361,1,8,0:0:0:0:
256,192,12902,1,8,0:0:0:0:
256,192,13442,1,0,0:0:0:0:
256,192,13983,1,8,0:0:0:0:
256,192,14253,1,8,0:0:0:0:
256,192,14524,1,0,0:0:0:0:
256,192,15605,1,0,0:0:0:0:
256,192,16145,1,8,0:0:0:0:
256,192,16415,1,0,0:0:0:0:
256,192,16686,1,8,0:0:0:0:
256,192,17767,1,0,0:0:0:0:
256,192,18307,1,8,0:0:0:0:
256,192,18578,1,8,0:0:0:0:
256,192,18848,1,0,0:0:0:0:
256,192,19929,1,8,0:0:0:0:
256,192,20199,1,0,0:0:0:0:
256,192,20470,1,8,0:0:0:0:
256,192,20740,1,8,0:0:0:0:
256,192,21010,1,0,0:0:0:0:
256,192,21280,1,8,0:0:0:0:
256,192,21551,1,0,0:0:0:0:
256,192,21686,1,0,0:0:0:0:
256,192,21821,1,8,0:0:0:0:
256,192,22091,1,12,0:0:0:0:
256,192,22632,1,12,0:0:0:0:
256,192,23172,1,12,0:0:0:0:
256,192,23578,1,0,0:0:0:0:
256,192,23713,1,8,0:0:0:0:
256,192,23983,1,8,0:0:0:0:
256,192,24253,1,4,0:0:0:0:
256,192,24524,1,8,0:0:0:0:
256,192,24794,1,8,0:0:0:0:
256,192,25064,1,0,0:0:0:0:
256,192,25199,1,8,0:0:0:0:
256,192,25267,1,8,0:0:0:0:
256,192,25334,1,0,0:0:0:0:
256,192,25875,1,8,0:0:0:0:
256,192,26145,1,0,0:0:0:0:
256,192,26280,1,8,0:0:0:0:
256,192,26415,1,0,0:0:0:0:
256,192,26686,1,0,0:0:0:0:
256,192,26956,1,8,0:0:0:0:
256,192,27226,1,0,0:0:0:0:
256,192,27361,1,0,0:0:0:0:
256,192,27429,1,0,0:0:0:0:
256,192,27497,1,8,0:0:0:0:
256,192,27632,1,8,0:0:0:0:
256,192,27767,1,0,0:0:0:0:
256,192,28037,1,8,0:0:0:0:
256,192,28307,1,0,0:0:0:0:
256,192,28442,1,8,0:0:0:0:
256,192,28578,1,0,0:0:0:0:
256,192,28848,1,0,0:0:0:0:
256,192,29118,1,8,0:0:0:0:
256,192,29388,1,0,0:0:0:0:
256,192,29659,1,0,0:0:0:0:
256,192,29794,1,0,0:0:0:0:
256,192,29929,1,0,0:0:0:0:
256,192,30199,1,8,0:0:0:0:
256,192,30470,1,0,0:0:0:0:
256,192,30740,1,0,0:0:0:0:
256,192,30875,1,0,0:0:0:0:
256,192,31010,1,8,0:0:0:0:
256,192,31280,1,8,0:0:0:0:
256,192,31551,1,0,0:0:0:0:
256,192,31686,1,0,0:0:0:0:
256,192,31821,1,8,0:0:0:0:
256,192,32091,1,0,0:0:0:0:
256,192,32361,1,8,0:0:0:0:
256,192,32632,1,8,0:0:0:0:
256,192,32767,1,8,0:0:0:0:
256,192,32902,1,0,0:0:0:0:
256,192,33172,1,8,0:0:0:0:
256,192,33442,1,8,0:0:0:0:
256,192,33713,1,0,0:0:0:0:
256,192,33848,1,8,0:0:0:0:
256,192,33915,1,8,0:0:0:0:
256,192,33983,1,0,0:0:0:0:
256,192,34524,1,8,0:0:0:0:
256,192,34794,1,0,0:0:0:0:
256,192,34929,1,8,0:0:0:0:
256,192,35064,1,0,0:0:0:0:
256,192,35334,1,0,0:0:0:0:
256,192,35605,1,8,0:0:0:0:
256,192,35875,1,0,0:0:0:0:
256,192,36010,1,0,0:0:0:0:
256,192,36078,1,0,0:0:0:0:
256,192,36145,1,8,0:0:0:0:
256,192,36280,1,8,0:0:0:0:
256,192,36415,1,0,0:0:0:0:
256,192,36686,1,8,0:0:0:0:
256,192,36956,1,0,0:0:0:0:
256,192,37091,1,8,0:0:0:0:
256,192,37226,1,0,0:0:0:0:
256,192,37497,1,0,0:0:0:0:
256,192,37767,1,8,0:0:0:0:
256,192,38037,1,0,0:0:0:0:
256,192,38307,1,0,0:0:0:0:
256,192,38442,1,0,0:0:0:0:
256,192,38578,1,0,0:0:0:0:
256,192,38848,1,8,0:0:0:0:
256,192,39118,1,0,0:0:0:0:
256,192,39388,1,0,0:0:0:0:
256,192,39524,1,0,0:0:0:0:
256,192,39659,1,8,0:0:0:0:
256,192,39929,1,8,0:0:0:0:
256,192,40199,1,0,0:0:0:0:
256,192,40334,1,0,0:0:0:0:
256,192,40470,1,8,0:0:0:0:
256,192,40605,1,0,0:0:0:0:
256,192,40875,1,0,0:0:0:0:
256,192,41010,1,8,0:0:0:0:
256,192,41280,1,8,0:0:0:0:
256,192,41415,1,8,0:0:0:0:
256,192,41551,1,0,0:0:0:0:
256,192,42091,1,8,0:0:0:0:
256,192,42361,1,0,0:0:0:0:
256,192,42632,1,8,0:0:0:0:
256,192,42902,1,0,0:0:0:0:
256,192,43037,1,0,0:0:0:0:
256,192,43172,1,8,0:0:0:0:
256,192,43442,1,8,0:0:0:0:
256,192,43578,1,8,0:0:0:0:
256,192,43713,1,0,0:0:0:0:
256,192,44253,1,8,0:0:0:0:
256,192,44524,1,0,0:0:0:0:
256,192,44659,1,0,0:0:0:0:
256,192,44794,1,0,0:0:0:0:
256,192,45064,1,0,0:0:0:0:
256,192,45334,1,8,0:0:0:0:
256,192,45605,1,8,0:0:0:0:
256,192,45740,1,8,0:0:0:0:
256,192,45875,1,0,0:0:0:0:
256,192,46145,1,0,0:0:0:0:
256,192,46415,1,8,0:0:0:0:
256,192,46686,1,8,0:0:0:0:
256,192,46956,1,0,0:0:0:0:
256,192,47497,1,8,0:0:0:0:
256,192,47767,1,0,0:0:0:0:
256,192,47902,1,0,0:0:0:0:
256,192,48037,1,8,0:0:0:0:
256,192,48307,1,0,0:0:0:0:
256,192,48578,1,8,0:0:0:0:
256,192,48848,1,8,0:0:0:0:
256,192,49118,1,0,0:0:0:0:
256,192,49659,1,8,0:0:0:0:
256,192,50199,1,0,0:0:0:0:
256,192,50470,1,0,0:0:0:0:
256,192,50740,1,8,0:0:0:0:
256,192,51010,1,0,0:0:0:0:
256,192,51280,1,0,0:0:0:0:
256,192,51415,1,0,0:0:0:0:
256,192,51551,1,0,0:0:0:0:
256,192,51821,1,8,0:0:0:0:
256,192,52091,1,8,0:0:0:0:
256,192,52226,1,8,0:0:0:0:
256,192,52361,1,0,0:0:0:0:
256,192,52632,1,0,0:0:0:0:
256,192,52902,1,8,0:0:0:0:
256,192,53307,1,8,0:0:0:0:
256,192,53442,1,0,0:0:0:0:
256,192,53713,1,0,0:0:0:0:
256,192,53983,1,8,0:0:0:0:
256,192,54118,1,0,0:0:0:0:
256,192,54253,1,8,0:0:0:0:
256,192,54524,1,0,0:0:0:0:
256,192,54794,1,0,0:0:0:0:
256,192,55064,1,8,0:0:0:0:
256,192,55334,1,8,0:0:0:0:
256,192,55470,1,8,0:0:0:0:
256,192,55605,1,0,0:0:0:0:
256,192,55875,1,0,0:0:0:0:
256,192,56145,1,8,0:0:0:0:
256,192,56415,1,0,0:0:0:0:
256,192,56686,1,8,0:0:0:0:
256,192,56956,1,0,0:0:0:0:
256,192,57091,1,0,0:0:0:0:
256,192,57226,1,8,0:0:0:0:
256,192,57497,1,0,0:0:0:0:
256,192,57767,1,8,0:0:0:0:
256,192,57902,1,8,0:0:0:0:
256,192,58037,1,0,0:0:0:0:
256,192,58307,1,8,0:0:0:0:
256,192,58848,1,4,0:0:0:0:
256,192,59388,1,8,0:0:0:0:
256,192,59794,1,8,0:0:0:0:
256,192,59929,1,0,0:0:0:0:
256,192,60199,1,0,0:0:0:0:
256,192,60470,1,8,0:0:0:0:
256,192,60740,1,0,0:0:0:0:
256,192,60875,1,8,0:0:0:0:
256,192,61010,1,0,0:0:0:0:
256,192,61280,1,0,0:0:0:0:
256,192,61551,1,8,0:0:0:0:
256,192,61821,1,8,0:0:0:0:
256,192,61956,1,8,0:0:0:0:
256,192,62091,1,0,0:0:0:0:
256,192,62361,1,0,0:0:0:0:
256,192,62632,1,8,0:0:0:0:
256,192,62902,1,8,0:0:0:0:
256,192,63172,1,0,0:0:0:0:
256,192,63713,1,8,0:0:0:0:
256,192,63983,1,0,0:0:0:0:
256,192,64118,1,0,0:0:0:0:
256,192,64253,1,8,0:0:0:0:
256,192,64524,1,0,0:0:0:0:
256,192,64794,1,8,0:0:0:0:
256,192,65064,1,8,0:0:0:0:
256,192,65334,1,0,0:0:0:0:
256,192,65605,1,0,0:0:0:0:
256,192,65875,1,8,0:0:0:0:
256,192,66145,1,8,0:0:0:0:
256,192,66280,1,0,0:0:0:0:
256,192,66686,1,0,0:0:0:0:
256,192,66956,1,8,0:0:0:0:
256,192,67226,1,8,0:0:0:0:
256,192,67497,1,4,0:0:0:0:
256,192,67767,1,0,0:0:0:0:
256,192,67902,1,0,0:0:0:0:
256,192,68037,1,8,0:0:0:0:
256,192,68307,1,0,0:0:0:0:
256,192,68848,1,0,0:0:0:0:
256,192,69118,1,8,0:0:0:0:
256,192,69388,1,8,0:0:0:0:
256,192,69659,1,4,0:0:0:0:
256,192,70199,1,8,0:0:0:0:
256,192,70470,1,0,0:0:0:0:
256,192,70605,1,0,0:0:0:0:
256,192,70740,1,0,0:0:0:0:
256,192,71010,1,0,0:0:0:0:
256,192,71280,1,8,0:0:0:0:
256,192,71551,1,0,0:0:0:0:
256,192,71821,1,12,0:0:0:0:
256,192,72091,1,0,0:0:0:0:
256,192,72361,1,8,0:0:0:0:
256,192,72632,1,8,0:0:0:0:
256,192,72902,1,0,0:0:0:0:
256,192,73172,1,0,0:0:0:0:
256,192,73442,1,0,0:0:0:0:
256,192,73713,1,8,0:0:0:0:
256,192,74524,1,8,0:0:0:0:
256,192,75605,1,0,0:0:0:0:
256,192,76145,1,4,0:0:0:0:
256,192,76686,1,8,0:0:0:0:
256,192,76956,1,0,0:0:0:0:
256,192,77091,1,8,0:0:0:0:
256,192,77226,1,0,0:0:0:0:
256,192,77497,1,0,0:0:0:0:
256,192,77767,1,8,0:0:0:0:
256,192,77902,1,0,0:0:0:0:
256,192,78037,1,8,0:0:0:0:
256,192,78307,1,0,0:0:0:0:
256,192,78848,1,8,0:0:0:0:
256,192,79118,1,0,0:0:0:0:
256,192,79253,1,0,0:0:0:0:
256,192,79388,1,8,0:0:0:0:
256,192,79659,1,0,0:0:0:0:
256,192,79929,1,8,0:0:0:0:
256,192,80064,1,0,0:0:0:0:
256,192,80199,1,8,0:0:0:0:
256,192,80334,1,8,0:0:0:0:
256,192,80470,1,0,0:0:0:0:
256,192,80740,1,0,0:0:0:0:
256,192,81010,1,8,0:0:0:0:
256,192,81280,1,8,0:0:0:0:
256,192,81415,1,8,0:0:0:0:
256,192,81551,1,0,0:0:0:0:
256,192,81821,1,0,0:0:0:0:
256,192,82091,1,8,0:0:0:0:
256,192,82361,1,0,0:0:0:0:
256,192,82497,1,8,0:0:0:0:
256,192,82632,1,0,0:0:0:0:
256,192,82902,1,0,0:0:0:0:
256,192,83172,1,8,0:0:0:0:
256,192,83713,1,0,0:0:0:0:
256,192,83983,1,8,0:0:0:0:
256,192,84253,1,8,0:0:0:0:
256,192,84524,1,0,0:0:0:0:
256,192,84794,1,12,0:0:0:0:
256,192,85334,1,8,0:0:0:0:
256,192,85605,1,0,0:0:0:0:
256,192,85740,1,0,0:0:0:0:
256,192,85875,1,8,0:0:0:0:
256,192,86145,1,0,0:0:0:0:
256,192,86415,1,8,0:0:0:0:
256,192,86551,1,0,0:0:0:0:
256,192,86686,1,8,0:0:0:0:
256,192,86956,1,8,0:0:0:0:
256,192,87497,1,8,0:0:0:0:
256,192,87767,1,0,0:0:0:0:
256,192,87902,1,0,0:0:0:0:
256,192,88037,1,8,0:0:0:0:
256,192,88307,1,0,0:0:0:0:
256,192,88578,1,8,0:0:0:0:
256,192,88848,1,8,0:0:0:0:
256,192,88983,1,8,0:0:0:0:
256,192,89118,1,0,0:0:0:0:
256,192,89388,1,0,0:0:0:0:
256,192,89659,1,8,0:0:0:0:
256,192,89794,1,0,0:0:0:0:
256,192,89929,1,8,0:0:0:0:
256,192,90199,1,0,0:0:0:0:
256,192,90470,1,0,0:0:0:0:
256,192,90740,1,8,0:0:0:0:
256,192,91010,1,0,0:0:0:0:
256,192,91145,1,0,0:0:0:0:
256,192,91280,1,8,0:0:0:0:
256,192,91551,1,0,0:0:0:0:
256,192,91821,1,8,0:0:0:0:
256,192,91956,1,8,0:0:0:0:
256,192,92091,1,0,0:0:0:0:
256,192,92226,1,0,0:0:0:0:
256,192,92361,1,8,0:0:0:0:
256,192,92632,1,0,0:0:0:0:
256,192,92902,1,8,0:0:0:0:
256,192,93037,1,0,0:0:0:0:
256,192,93172,1,8,0:0:0:0:
256,192,93442,1,4,0:0:0:0:
256,192,93983,1,8,0:0:0:0:
256,192,94253,1,0,0:0:0:0:
256,192,94388,1,8,0:0:0:0:
256,192,94524,1,0,0:0:0:0:
256,192,94794,1,0,0:0:0:0:
256,192,95064,1,8,0:0:0:0:
256,192,95334,1,8,0:0:0:0:
256,192,95470,1,0,0:0:0:0:
256,192,95605,1,8,0:0:0:0:
256,192,96145,1,8,0:0:0:0:
256,192,96415,1,0,0:0:0:0:
256,192,96551,1,0,0:0:0:0:
256,192,96686,1,8,0:0:0:0:
256,192,96956,1,0,0:0:0:0:
256,192,97226,1,8,0:0:0:0:
256,192,97497,1,8,0:0:0:0:
256,192,97632,1,8,0:0:0:0:
256,192,97767,1,0,0:0:0:0:
256,192,98037,1,0,0:0:0:0:
256,192,98172,1,0,0:0:0:0:
256,192,98307,1,8,0:0:0:0:
256,192,98442,1,0,0:0:0:0:
256,192,98578,1,8,0:0:0:0:
256,192,98848,1,0,0:0:0:0:
256,192,99118,1,0,0:0:0:0:
256,192,99253,1,0,0:0:0:0:
256,192,99388,1,8,0:0:0:0:
256,192,99659,1,0,0:0:0:0:
256,192,99929,1,8,0:0:0:0:
256,192,100199,1,8,0:0:0:0:
256,192,100470,1,0,0:0:0:0:
256,192,101010,1,8,0:0:0:0:
256,192,101280,1,0,0:0:0:0:
256,192,101551,1,8,0:0:0:0:
256,192,101821,1,8,0:0:0:0:
256,192,102091,1,4,0:0:0:0:
256,192,102361,1,0,0:0:0:0:
256,192,102632,1,8,0:0:0:0:
256,192,102902,1,0,0:0:0:0:
256,192,103037,1,8,0:0:0:0:
256,192,103172,1,0,0:0:0:0:
256,192,103442,1,0,0:0:0:0:
256,192,103713,1,8,0:0:0:0:
256,192,103983,1,0,0:0:0:0:
256,192,104253,1,12,0:0:0:0:
256,192,105064,1,0,0:0:0:0:
256,192,105334,1,0,0:0:0:0:
256,192,105875,1,8,0:0:0:0:
256,192,106415,1,4,0:0:0:0:
256,192,106686,1,8,0:0:0:0:
256,192,106956,1,8,0:0:0:0:
256,192,107226,1,0,0:0:0:0:
256,192,107361,1,8,0:0:0:0:
256,192,107429,1,8,0:0:0:0:
256,192,107497,1,0,0:0:0:0:
256,192,108037,1,8,0:0:0:0:
256,192,108307,1,0,0:0:0:0:
256,192,108442,1,8,0:0:0:0:
256,192,108578,1,0,0:0:0:0:
256,192,108848,1,0,0:0:0:0:
256,192,109118,1,8,0:0:0:0:
256,192,109388,1,0,0:0:0:0:
256,192,109524,1,0,0:0:0:0:
256,192,109591,1,0,0:0:0:0:
256,192,109659,1,8,0:0:0:0:
256,192,109794,1,8,0:0:0:0:
256,192,109929,1,0,0:0:0:0:
256,192,110199,1,8,0:0:0:0:
256,192,110470,1,0,0:0:0:0:
256,192,110605,1,8,0:0:0:0:
256,192,110740,1,0,0:0:0:0:
256,192,111010,1,0,0:0:0:0:
256,192,111280,1,8,0:0:0:0:
256,192,111551,1,0,0:0:0:0:
256,192,111821,1,0,0:0:0:0:
256,192,111956,1,0,0:0:0:0:
256,192,112091,1,0,0:0:0:0:
256,192,112361,1,8,0:0:0:0:
256,192,112632,1,0,0:0:0:0:
256,192,112902,1,0,0:0:0:0:
256,192,113037,1,0,0:0:0:0:
256,192,113172,1,8,0:0:0:0:
256,192,113442,1,8,0:0:0:0:
256,192,113713,1,0,0:0:0:0:
256,192,113848,1,0,0:0:0:0:
256,192,113983,1,8,0:0:0:0:
256,192,114253,1,0,0:0:0:0:
256,192,114524,1,8,0:0:0:0:
256,192,114794,1,8,0:0:0:0:
256,192,114929,1,8,0:0:0:0:
256,192,115064,1,0,0:0:0:0:
256,192,115334,1,8,0:0:0:0:
256,192,115605,1,8,0:0:0:0:
256,192,115875,1,0,0:0:0:0:
256,192,116010,1,8,0:0:0:0:
256,192,116078,1,8,0:0:0:0:
256,192,116145,1,0,0:0:0:0:
256,192,116686,1,8,0:0:0:0:
256,192,116956,1,0,0:0:0:0:
256,192,117091,1,8,0:0:0:0:
256,192,117226,1,0,0:0:0:0:
256,192,117497,1,0,0:0:0:0:
256,192,117767,1,8,0:0:0:0:
256,192,118037,1,0,0:0:0:0:
256,192,118172,1,0,0:0:0:0:
256,192,118240,1,0,0:0:0:0:
256,192,118307,1,8,0:0:0:0:
256,192,118442,1,8,0:0:0:0:
256,192,118578,1,0,0:0:0:0:
256,192,118848,1,8,0:0:0:0:
256,192,119118,1,0,0:0:0:0:
256,192,119253,1,8,0:0:0:0:
256,192,119388,1,0,0:0:0:0:
256,192,119659,1,0,0:0:0:0:
256,192,119929,1,8,0:0:0:0:
256,192,120199,1,0,0:0:0:0:
256,192,120470,1,0,0:0:0:0:
256,192,120605,1,0,0:0:0:0:
256,192,120740,1,0,0:0:0:0:
256,192,121010,1,8,0:0:0:0:
256,192,121280,1,0,0:0:0:0:
256,192,121551,1,0,0:0:0:0:
256,192,121686,1,0,0:0:0:0:
256,192,121821,1,8,0:0:0:0:
256,192,122091,1,8,0:0:0:0:
256,192,122361,1,0,0:0:0:0:
256,192,122497,1,0,0:0:0:0:
256,192,122632,1,8,0:0:0:0:
256,192,122767,1,0,0:0:0:0:
256,192,123037,1,0,0:0:0:0:
256,192,123172,1,8,0:0:0:0:
256,192,123442,1,8,0:0:0:0:
256,192,123578,1,8,0:0:0:0:
256,192,123713,1,0,0:0:0:0:
256,192,124253,1,8,0:0:0:0:
256,192,124524,1,0,0:0:0:0:
256,192,124794,1,8,0:0:0:0:
256,192,125064,1,0,0:0:0:0:
256,192,125199,1,0,0:0:0:0:
256,192,125334,1,8,0:0:0:0:
256,192,125605,1,8,0:0:0:0:
256,192,125740,1,8,0:0:0:0:
256,192,125875,1,0,0:0:0:0:
256,192,126415,1,8,0:0:0:0:
256,192,126686,1,0,0:0:0:0:
256,192,126821,1,0,0:0:0:0:
256,192,126956,1,0,0:0:0:0:
256,192,127226,1,0,0:0:0:0:
256,192,127497,1,8,0:0:0:0:
256,192,127767,1,8,0:0:0:0:
256,192,127902,1,8,0:0:0:0:
256,192,128037,1,0,0:0:0:0:
256,192,128307,1,0,0:0:0:0:
256,192,128578,1,8,0:0:0:0:
256,192,128848,1,8,0:0:0:0:
256,192,129118,1,0,0:0:0:0:
256,192,129659,1,8,0:0:0:0:
256,192,129929,1,0,0:0:0:0:
256,192,130064,1,0,0:0:0:0:
256,192,130199,1,8,0:0:0:0:
256,192,130470,1,0,0:0:0:0:
256,192,130740,1,8,0:0:0:0:
256,192,131010,1,8,0:0:0:0:
256,192,131280,1,0,0:0:0:0:
256,192,131821,1,8,0:0:0:0:
256,192,132361,1,4,0:0:0:0:
256,192,132632,1,0,0:0:0:0:
256,192,132902,1,8,0:0:0:0:
256,192,133172,1,0,0:0:0:0:
256,192,133442,1,0,0:0:0:0:
256,192,133578,1,0,0:0:0:0:
256,192,133713,1,0,0:0:0:0:
256,192,133983,1,8,0:0:0:0:
256,192,134253,1,8,0:0:0:0:
256,192,134388,1,8,0:0:0:0:
256,192,134524,1,0,0:0:0:0:
256,192,134794,1,0,0:0:0:0:
256,192,135064,1,8,0:0:0:0:
256,192,135470,1,8,0:0:0:0:
256,192,135605,1,0,0:0:0:0:
256,192,135875,1,0,0:0:0:0:
256,192,136145,1,8,0:0:0:0:
256,192,136280,1,0,0:0:0:0:
256,192,136415,1,8,0:0:0:0:
256,192,136686,1,0,0:0:0:0:
256,192,136956,1,0,0:0:0:0:
256,192,137226,1,8,0:0:0:0:
256,192,137497,1,8,0:0:0:0:
256,192,137632,1,8,0:0:0:0:
256,192,137767,1,0,0:0:0:0:
256,192,138037,1,0,0:0:0:0:
256,192,138307,1,8,0:0:0:0:
256,192,138578,1,0,0:0:0:0:
256,192,138848,1,8,0:0:0:0:
256,192,139118,1,0,0:0:0:0:
256,192,139253,1,0,0:0:0:0:
256,192,139388,1,8,0:0:0:0:
256,192,139659,1,0,0:0:0:0:
256,192,139929,1,8,0:0:0:0:
256,192,140064,1,8,0:0:0:0:
256,192,140199,1,0,0:0:0:0:
256,192,140470,1,8,0:0:0:0:
256,192,141010,1,4,0:0:0:0:
256,192,141551,1,8,0:0:0:0:
256,192,141821,1,8,0:0:0:0:
256,192,141956,1,8,0:0:0:0:
256,192,142091,1,0,0:0:0:0:
256,192,142361,1,0,0:0:0:0:
256,192,142632,1,8,0:0:0:0:
256,192,142902,1,0,0:0:0:0:
256,192,143037,1,8,0:0:0:0:
256,192,143172,1,0,0:0:0:0:
256,192,143442,1,0,0:0:0:0:
256,192,143713,1,8,0:0:0:0:
256,192,143983,1,8,0:0:0:0:
256,192,144118,1,8,0:0:0:0:
256,192,144253,1,0,0:0:0:0:
256,192,144524,1,0,0:0:0:0:
256,192,144794,1,8,0:0:0:0:
256,192,145064,1,8,0:0:0:0:
256,192,145334,1,0,0:0:0:0:
256,192,145875,1,8,0:0:0:0:
256,192,146145,1,0,0:0:0:0:
256,192,146280,1,0,0:0:0:0:
256,192,146415,1,8,0:0:0:0:
256,192,146686,1,0,0:0:0:0:
256,192,146956,1,8,0:0:0:0:
256,192,147226,1,8,0:0:0:0:
256,192,147497,1,0,0:0:0:0:
256,192,147767,1,0,0:0:0:0:
256,192,148037,1,8,0:0:0:0:
256,192,148307,1,8,0:0:0:0:
256,192,148442,1,0,0:0:0:0:
256,192,148848,1,0,0:0:0:0:
256,192,149118,1,8,0:0:0:0:
256,192,149388,1,8,0:0:0:0:
256,192,149659,1,4,0:0:0:0:
256,192,149929,1,0,0:0:0:0:
256,192,150064,1,0,0:0:0:0:
256,192,150199,1,8,0:0:0:0:
256,192,150470,1,0,0:0:0:0:
256,192,151010,1,0,0:0:0:0:
256,192,151280,1,8,0:0:0:0:
256,192,151551,1,8,0:0:0:0:
256,192,151821,1,4,0:0:0:0:
256,192,152361,1,8,0:0:0:0:
256,192,152632,1,0,0:0:0:0:
256,192,152767,1,0,0:0:0:0:
256,192,152902,1,0,0:0:0:0:
256,192,153172,1,0,0:0:0:0:
256,192,153442,1,8,0:0:0:0:
256,192,153713,1,0,0:0:0:0:
256,192,153983,1,12,0:0:0:0:
256,192,154253,1,0,0:0:0:0:
256,192,154524,1,8,0:0:0:0:
256,192,154794,1,8,0:0:0:0:
256,192,155064,1,0,0:0:0:0:
256,192,155334,1,0,0:0:0:0:
256,192,155605,1,0,0:0:0:0:
256,192,155875,1,8,0:0:0:0:
256,192,156686,1,12,0:0:0:0:
256,192,157767,1,0,0:0:0:0:
256,192,158307,1,4,0:0:0:0:
256,192,158848,1,8,0:0:0:0:
256,192,159118,1,0,0:0:0:0:
256,192,159253,1,8,0:0:0:0:
256,192,159388,1,0,0:0:0:0:
256,192,159659,1,0,0:0:0:0:
256,192,159929,1,8,0:0:0:0:
256,192,160064,1,0,0:0:0:0:
256,192,160199,1,8,0:0:0:0:
256,192,160470,1,0,0:0:0:0:
256,192,161010,1,8,0:0:0:0:
256,192,161280,1,0,0:0:0:0:
256,192,161415,1,0,0:0:0:0:
256,192,161551,1,8,0:0:0:0:
256,192,161821,1,0,0:0:0:0:
256,192,162091,1,8,0:0:0:0:
256,192,162226,1,0,0:0:0:0:
256,192,162361,1,8,0:0:0:0:
256,192,162497,1,8,0:0:0:0:
256,192,162632,1,0,0:0:0:0:
256,192,162902,1,0,0:0:0:0:
256,192,163172,1,8,0:0:0:0:
256,192,163442,1,8,0:0:0:0:
256,192,163578,1,8,0:0:0:0:
256,192,163713,1,0,0:0:0:0:
256,192,163983,1,0,0:0:0:0:
256,192,164253,1,8,0:0:0:0:
256,192,164524,1,0,0:0:0:0:
256,192,164659,1,8,0:0:0:0:
256,192,164794,1,0,0:0:0:0:
256,192,165064,1,0,0:0:0:0:
256,192,165334,1,8,0:0:0:0:
256,192,165875,1,0,0:0:0:0:
256,192,166145,1,8,0:0:0:0:
256,192,166415,1,8,0:0:0:0:
256,192,166686,1,0,0:0:0:0:
256,192,166956,1,12,0:0:0:0:
256,192,167497,1,8,0:0:0:0:
256,192,167767,1,0,0:0:0:0:
256,192,167902,1,0,0:0:0:0:
256,192,168037,1,8,0:0:0:0:
256,192,168307,1,0,0:0:0:0:
256,192,168578,1,8,0:0:0:0:
256,192,168713,1,0,0:0:0:0:
256,192,168848,1,8,0:0:0:0:
256,192,169118,1,8,0:0:0:0:
256,192,169659,1,8,0:0:0:0:
256,192,169929,1,0,0:0:0:0:
256,192,170064,1,0,0:0:0:0:
256,192,170199,1,8,0:0:0:0:
256,192,170470,1,0,0:0:0:0:
256,192,170740,1,8,0:0:0:0:
256,192,171010,1,8,0:0:0:0:
256,192,171145,1,8,0:0:0:0:
256,192,171280,1,0,0:0:0:0:
256,192,171551,1,0,0:0:0:0:
256,192,171821,1,8,0:0:0:0:
256,192,171956,1,0,0:0:0:0:
256,192,172091,1,8,0:0:0:0:
256,192,172361,1,0,0:0:0:0:
256,192,172632,1,0,0:0:0:0:
256,192,172902,1,8,0:0:0:0:
256,192,173172,1,0,0:0:0:0:
256,192,173307,1,0,0:0:0:0:
256,192,173442,1,8,0:0:0:0:
256,192,173713,1,0,0:0:0:0:
256,192,173983,1,8,0:0:0:0:
256,192,174118,1,8,0:0:0:0:
256,192,174253,1,0,0:0:0:0:
256,192,174388,1,0,0:0:0:0:
256,192,174524,1,8,0:0:0:0:
256,192,174794,1,0,0:0:0:0:
256,192,175064,1,8,0:0:0:0:
256,192,175199,1,0,0:0:0:0:
256,192,175334,1,8,0:0:0:0:
256,192,175605,1,4,0:0:0:0:
256,192,176145,1,8,0:0:0:0:
256,192,176415,1,0,0:0:0:0:
256,192,176551,1,8,0:0:0:0:
256,192,176686,1,0,0:0:0:0:
256,192,176956,1,0,0:0:0:0:
256,192,177226,1,8,0:0:0:0:
256,192,177497,1,8,0:0:0:0:
256,192,177632,1,0,0:0:0:0:
256,192,177767,1,8,0:0:0:0:
256,192,178307,1,8,0:0:0:0:
256,192,178578,1,0,0:0:0:0:
256,192,178713,1,0,0:0:0:0:
256,192,178848,1,8,0:0:0:0:
256,192,179118,1,0,0:0:0:0:
256,192,179388,1,8,0:0:0:0:
256,192,179659,1,8,0:0:0:0:
256,192,179794,1,8,0:0:0:0:
256,192,179929,1,0,0:0:0:0:
256,192,180199,1,0,0:0:0:0:
256,192,180334,1,0,0:0:0:0:
256,192,180470,1,8,0:0:0:0:
256,192,180605,1,0,0:0:0:0:
256,192,180740,1,8,0:0:0:0:
256,192,181010,1,0,0:0:0:0:
256,192,181280,1,0,0:0:0:0:
256,192,181415,1,0,0:0:0:0:
256,192,181551,1,8,0:0:0:0:
256,192,181821,1,0,0:0:0:0:
256,192,182091,1,8,0:0:0:0:
256,192,182361,1,8,0:0:0:0:
256,192,182632,1,0,0:0:0:0:
256,192,183172,1,8,0:0:0:0:
256,192,183442,1,0,0:0:0:0:
256,192,183713,1,8,0:0:0:0:
256,192,183983,1,8,0:0:0:0:
256,192,184253,1,4,0:0:0:0:
256,192,184524,1,0,0:0:0:0:
256,192,184794,1,8,0:0:0:0:
256,192,185064,1,0,0:0:0:0:
256,192,185199,1,8,0:0:0:0:
256,192,185334,1,0,0:0:0:0:
256,192,185605,1,0,0:0:0:0:
256,192,185875,1,8,0:0:0:0:
256,192,186145,1,0,0:0:0:0:
256,192,186415,1,12,0:0:0:0:
256,192,187226,1,0,0:0:0:0:
256,192,187497,1,0,0:0:0:0:
256,192,188037,1,8,0:0:0:0:
256,192,188578,1,0,0:0:0:0:
256,192,189118,1,8,0:0:0:0:
256,192,189659,1,0,0:0:0:0:
256,192,189929,1,0,0:0:0:0:
256,192,190064,1,0,0:0:0:0:
256,192,190199,1,8,0:0:0:0:
256,192,190740,1,0,0:0:0:0:
256,192,191280,1,8,0:0:0:0:
256,192,191821,1,0,0:0:0:0:
256,192,192091,1,0,0:0:0:0:
256,192,192226,1,0,0:0:0:0:
256,192,192361,1,8,0:0:0:0:
256,192,192632,1,8,0:0:0:0:
256,192,192902,1,4,0:0:0:0:
256,192,193442,1,8,0:0:0:0:
256,192,193983,1,0,0:0:0:0:
256,192,194253,1,0,0:0:0:0:
256,192,194388,1,0,0:0:0:0:
256,192,194524,1,8,0:0:0:0:
256,192,195064,1,0,0:0:0:0:
256,192,195605,1,0,0:0:0:0:
256,192,196145,1,0,0:0:0:0:
256,192,196415,1,8,0:0:0:0:
256,192,196686,1,8,0:0:0:0:
256,192,196956,1,8,0:0:0:0:
256,192,197226,1,4,0:0:0:0:
256,192,197632,1,0,0:0:0:0:
256,192,198037,1,0,0:0:0:0:
256,192,198307,1,8,0:0:0:0:
256,192,198848,1,8,0:0:0:0:
256,192,199118,1,0,0:0:0:0:
256,192,199388,1,0,0:0:0:0:
256,192,199794,1,0,0:0:0:0:
256,192,200199,1,0,0:0:0:0:
256,192,200470,1,8,0:0:0:0:
256,192,200740,1,0,0:0:0:0:
256,192,200875,1,0,0:0:0:0:
256,192,201010,1,8,0:0:0:0:
256,192,201280,1,8,0:0:0:0:
256,192,201415,1,8,0:0:0:0:
256,192,201551,1,0,0:0:0:0:
256,192,201956,1,0,0:0:0:0:
256,192,202361,1,0,0:0:0:0:
256,192,202632,1,8,0:0:0:0:
256,192,202902,1,0,0:0:0:0:
256,192,203172,1,8,0:0:0:0:
256,192,203307,1,8,0:0:0:0:
256,192,203442,1,8,0:0:0:0:
256,192,203713,1,0,0:0:0:0:
256,192,204118,1,0,0:0:0:0:
256,192,204524,1,0,0:0:0:0:
256,192,204794,1,8,0:0:0:0:
256,192,205199,1,0,0:0:0:0:
256,192,205334,1,8,0:0:0:0:
256,192,205605,1,0,0:0:0:0:
256,192,205875,1,4,0:0:0:0:
256,192,206280,1,0,0:0:0:0:
256,192,206686,1,0,0:0:0:0:
256,192,206956,1,8,0:0:0:0:
256,192,207497,1,8,0:0:0:0:
256,192,207767,1,8,0:0:0:0:
256,192,208037,1,0,0:0:0:0:
256,192,208442,1,0,0:0:0:0:
256,192,208848,1,0,0:0:0:0:
256,192,209118,1,8,0:0:0:0:
256,192,209388,1,0,0:0:0:0:
256,192,209524,1,0,0:0:0:0:
256,192,209659,1,8,0:0:0:0:
256,192,209929,1,8,0:0:0:0:
256,192,210199,1,4,0:0:0:0:
256,192,211010,1,0,0:0:0:0:
256,192,211145,1,0,0:0:0:0:
256,192,211280,1,8,0:0:0:0:
256,192,212091,1,0,0:0:0:0:
256,192,212361,1,4,0:0:0:0:
256,192,213172,1,0,0:0:0:0:
256,192,213442,1,8,0:0:0:0:
256,192,213983,1,8,0:0:0:0:
256,192,214524,8,0,218307,0:0:0:0:
256,192,218848,5,0,0:0:0:0:
256,192,219118,1,0,0:0:0:0:
256,192,219388,1,0,0:0:0:0:
256,192,219659,1,8,0:0:0:0:
256,192,219929,1,0,0:0:0:0:
256,192,220199,1,0,0:0:0:0:
256,192,220470,1,0,0:0:0:0:
256,192,220740,1,8,0:0:0:0:
256,192,221010,8,0,221551,0:0:0:0:
256,192,222632,5,12,0:0:0:0:
256,192,223172,1,4,0:0:0:0:
256,192,223713,1,8,0:0:0:0:
256,192,223983,1,0,0:0:0:0:
256,192,224118,1,8,0:0:0:0:
256,192,224253,1,0,0:0:0:0:
256,192,224524,1,0,0:0:0:0:
256,192,224794,1,8,0:0:0:0:
256,192,224929,1,0,0:0:0:0:
256,192,225064,1,8,0:0:0:0:
256,192,225334,1,0,0:0:0:0:
256,192,225875,1,8,0:0:0:0:
256,192,226145,1,0,0:0:0:0:
256,192,226280,1,0,0:0:0:0:
256,192,226415,1,8,0:0:0:0:
256,192,226686,1,0,0:0:0:0:
256,192,226956,1,8,0:0:0:0:
256,192,227091,1,0,0:0:0:0:
256,192,227226,1,8,0:0:0:0:
256,192,227361,1,8,0:0:0:0:
256,192,227497,1,0,0:0:0:0:
256,192,227767,1,0,0:0:0:0:
256,192,228037,1,8,0:0:0:0:
256,192,228307,1,8,0:0:0:0:
256,192,228442,1,8,0:0:0:0:
256,192,228578,1,0,0:0:0:0:
256,192,228848,1,0,0:0:0:0:
256,192,229118,1,8,0:0:0:0:
256,192,229388,1,0,0:0:0:0:
256,192,229524,1,8,0:0:0:0:
256,192,229659,1,0,0:0:0:0:
256,192,229929,1,0,0:0:0:0:
256,192,230199,1,8,0:0:0:0:
256,192,230740,1,0,0:0:0:0:
256,192,231010,1,8,0:0:0:0:
256,192,231280,1,8,0:0:0:0:
256,192,231551,1,0,0:0:0:0:
256,192,231821,1,12,0:0:0:0:
256,192,232361,1,8,0:0:0:0:
256,192,232632,1,0,0:0:0:0:
256,192,232767,1,0,0:0:0:0:
256,192,232902,1,8,0:0:0:0:
256,192,233172,1,0,0:0:0:0:
256,192,233442,1,8,0:0:0:0:
256,192,233578,1,0,0:0:0:0:
256,192,233713,1,8,0:0:0:0:
256,192,233983,1,0,0:0:0:0:
256,192,234524,1,8,0:0:0:0:
256,192,234794,1,0,0:0:0:0:
256,192,234929,1,0,0:0:0:0:
256,192,235064,1,8,0:0:0:0:
256,192,235334,1,0,0:0:0:0:
256,192,235605,1,8,0:0:0:0:
256,192,235875,1,8,0:0:0:0:
256,192,236010,1,8,0:0:0:0:
256,192,236145,1,0,0:0:0:0:
256,192,236415,1,0,0:0:0:0:
256,192,236686,1,8,0:0:0:0:
256,192,236821,1,0,0:0:0:0:
256,192,236956,1,8,0:0:0:0:
256,192,237226,1,0,0:0:0:0:
256,192,237497,1,0,0:0:0:0:
256,192,237767,1,8,0:0:0:0:
256,192,238037,1,0,0:0:0:0:
256,192,238172,1,0,0:0:0:0:
256,192,238307,1,8,0:0:0:0:
256,192,238578,1,0,0:0:0:0:
256,192,238848,1,8,0:0:0:0:
256,192,238983,1,8,0:0:0:0:
256,192,239118,1,0,0:0:0:0:
256,192,239253,1,0,0:0:0:0:
256,192,239388,1,8,0:0:0:0:
256,192,239659,1,0,0:0:0:0:
256,192,239929,1,8,0:0:0:0:
256,192,240064,1,0,0:0:0:0:
256,192,240199,1,8,0:0:0:0:
256,192,240470,1,4,0:0:0:0:
256,192,241010,1,8,0:0:0:0:
256,192,241280,1,0,0:0:0:0:
256,192,241415,1,8,0:0:0:0:
256,192,241551,1,0,0:0:0:0:
256,192,241821,1,0,0:0:0:0:
256,192,242091,1,8,0:0:0:0:
256,192,242361,1,8,0:0:0:0:
256,192,242497,1,0,0:0:0:0:
256,192,242632,1,8,0:0:0:0:
256,192,243172,1,8,0:0:0:0:
256,192,243442,1,0,0:0:0:0:
256,192,243578,1,0,0:0:0:0:
256,192,243713,1,8,0:0:0:0:
256,192,243983,1,0,0:0:0:0:
256,192,244253,1,8,0:0:0:0:
256,192,244524,1,8,0:0:0:0:
256,192,244659,1,8,0:0:0:0:
256,192,244794,1,0,0:0:0:0:
256,192,245064,1,0,0:0:0:0:
256,192,245199,1,0,0:0:0:0:
256,192,245334,1,8,0:0:0:0:
256,192,245470,1,0,0:0:0:0:
256,192,245605,1,8,0:0:0:0:
256,192,245875,1,0,0:0:0:0:
256,192,246145,1,0,0:0:0:0:
256,192,246280,1,0,0:0:0:0:
256,192,246415,1,8,0:0:0:0:
256,192,246686,1,0,0:0:0:0:
256,192,246956,1,8,0:0:0:0:
256,192,247226,1,8,0:0:0:0:
256,192,247497,1,0,0:0:0:0:
256,192,248037,1,8,0:0:0:0:
256,192,248307,1,0,0:0:0:0:
256,192,248578,1,8,0:0:0:0:
256,192,248848,1,8,0:0:0:0:
256,192,249118,1,4,0:0:0:0:
256,192,249388,1,0,0:0:0:0:
256,192,249659,1,8,0:0:0:0:
256,192,249929,1,0,0:0:0:0:
256,192,250064,1,8,0:0:0:0:
256,192,250199,1,0,0:0:0:0:
256,192,250470,1,0,0:0:0:0:
256,192,250740,1,8,0:0:0:0:
256,192,250875,1,8,0:0:0:0:
256,192,251010,1,8,0:0:0:0:
256,192,251280,1,4,0:0:0:0:
256,192,251551,1,8,0:0:0:0:
256,192,251821,1,8,0:0:0:0:
256,192,252091,1,0,0:0:0:0:
256,192,252226,1,0,0:0:0:0:
256,192,252361,1,8,0:0:0:0:
256,192,252497,1,0,0:0:0:0:
256,192,252767,1,0,0:0:0:0:
256,192,252902,1,8,0:0:0:0:
256,192,253037,1,8,0:0:0:0:
256,192,253172,1,0,0:0:0:0:
256,192,253442,1,4,0:0:0:0:
256,192,253983,1,8,0:0:0:0:
256,192,254253,1,0,0:0:0:0:
256,192,254388,1,8,0:0:0:0:
256,192,254524,1,0,0:0:0:0:
256,192,254659,1,8,0:0:0:0:
256,192,254794,1,0,0:0:0:0:
256,192,255064,1,8,0:0:0:0:
256,192,255334,1,0,0:0:0:0:
256,192,255470,1,0,0:0:0:0:
256,192,255605,1,8,0:0:0:0:
256,192,255740,1,8,0:0:0:0:
256,192,255875,1,0,0:0:0:0:
256,192,256145,1,8,0:0:0:0:
256,192,256415,1,0,0:0:0:0:
256,192,256551,1,0,0:0:0:0:
256,192,256686,1,8,0:0:0:0:
256,192,256956,1,0,0:0:0:0:
256,192,257226,1,8,0:0:0:0:
256,192,257361,1,0,0:0:0:0:
256,192,257497,1,8,0:0:0:0:
256,192,257632,1,8,0:0:0:0:
256,192,257767,1,0,0:0:0:0:
256,192,258037,1,0,0:0:0:0:
256,192,258307,1,8,0:0:0:0:
256,192,258578,1,8,0:0:0:0:
256,192,258713,1,8,0:0:0:0:
256,192,258848,1,0,0:0:0:0:
256,192,258983,1,8,0:0:0:0:
256,192,259118,1,0,0:0:0:0:
256,192,259388,1,8,0:0:0:0:
256,192,259659,1,0,0:0:0:0:
256,192,259929,1,0,0:0:0:0:
256,192,260064,1,0,0:0:0:0:
256,192,260199,1,0,0:0:0:0:
256,192,260470,1,8,0:0:0:0:
256,192,261010,1,0,0:0:0:0:
256,192,261280,1,8,0:0:0:0:
256,192,261551,1,8,0:0:0:0:
256,192,261821,1,0,0:0:0:0:
256,192,262091,1,12,0:0:0:0:
256,192,262632,1,8,0:0:0:0:
256,192,262902,1,0,0:0:0:0:
256,192,263037,1,0,0:0:0:0:
256,192,263172,1,8,0:0:0:0:
256,192,263307,1,8,0:0:0:0:
256,192,263442,1,0,0:0:0:0:
256,192,263713,1,8,0:0:0:0:
256,192,263983,1,8,0:0:0:0:
256,192,264118,1,0,0:0:0:0:
256,192,264253,1,8,0:0:0:0:
256,192,264388,1,8,0:0:0:0:
256,192,264524,1,0,0:0:0:0:
256,192,264794,1,8,0:0:0:0:
256,192,265064,1,0,0:0:0:0:
256,192,265199,1,0,0:0:0:0:
256,192,265334,1,8,0:0:0:0:
256,192,265605,1,0,0:0:0:0:
256,192,265875,1,8,0:0:0:0:
256,192,266145,1,8,0:0:0:0:
256,192,266280,1,0,0:0:0:0:
256,192,266415,1,8,0:0:0:0:
256,192,266686,1,0,0:0:0:0:
256,192,266956,1,8,0:0:0:0:
256,192,267091,1,8,0:0:0:0:
256,192,267226,1,0,0:0:0:0:
256,192,267361,1,0,0:0:0:0:
256,192,267497,1,8,0:0:0:0:
256,192,267767,1,0,0:0:0:0:
256,192,268037,1,8,0:0:0:0:
256,192,268307,1,0,0:0:0:0:
256,192,268442,1,0,0:0:0:0:
256,192,268578,1,8,0:0:0:0:
256,192,268848,1,0,0:0:0:0:
256,192,269118,1,8,0:0:0:0:
256,192,269253,1,0,0:0:0:0:
256,192,269388,1,0,0:0:0:0:
256,192,269524,1,0,0:0:0:0:
256,192,269659,1,8,0:0:0:0:
256,192,269929,1,0,0:0:0:0:
256,192,270199,1,8,0:0:0:0:
256,192,270334,1,0,0:0:0:0:
256,192,270470,1,8,0:0:0:0:
256,192,270740,1,4,0:0:0:0:
256,192,271280,1,8,0:0:0:0:
256,192,271551,1,0,0:0:0:0:
256,192,271686,1,8,0:0:0:0:
256,192,271821,1,0,0:0:0:0:
256,192,271956,1,8,0:0:0:0:
256,192,272091,1,0,0:0:0:0:
256,192,272361,1,8,0:0:0:0:
256,192,272632,1,0,0:0:0:0:
256,192,272767,1,0,0:0:0:0:
256,192,272902,1,8,0:0:0:0:
256,192,273037,1,8,0:0:0:0:
256,192,273172,1,0,0:0:0:0:
256,192,273442,1,8,0:0:0:0:
256,192,273713,1,0,0:0:0:0:
256,192,273848,1,0,0:0:0:0:
256,192,273983,1,8,0:0:0:0:
256,192,274253,1,0,0:0:0:0:
256,192,274524,1,8,0:0:0:0:
256,192,274794,1,8,0:0:0:0:
256,192,274929,1,0,0:0:0:0:
256,192,275064,1,8,0:0:0:0:
256,192,275334,1,0,0:0:0:0:
256,192,275470,1,0,0:0:0:0:
256,192,275605,1,8,0:0:0:0:
256,192,275740,1,0,0:0:0:0:
256,192,275875,1,8,0:0:0:0:
256,192,276145,1,0,0:0:0:0:
256,192,276415,1,0,0:0:0:0:
256,192,276551,1,0,0:0:0:0:
256,192,276686,1,8,0:0:0:0:
256,192,276956,1,0,0:0:0:0:
256,192,277226,1,8,0:0:0:0:
256,192,277497,1,8,0:0:0:0:
256,192,277767,1,0,0:0:0:0:
256,192,278307,1,8,0:0:0:0:
256,192,278578,1,0,0:0:0:0:
256,192,278713,1,0,0:0:0:0:
256,192,278848,1,8,0:0:0:0:
256,192,279118,1,8,0:0:0:0:
256,192,279388,1,4,0:0:0:0:
256,192,279659,1,0,0:0:0:0:
256,192,279929,1,8,0:0:0:0:
256,192,280199,1,0,0:0:0:0:
256,192,280334,1,8,0:0:0:0:
256,192,280470,1,0,0:0:0:0:
256,192,280740,1,0,0:0:0:0:
256,192,281010,1,8,0:0:0:0:
256,192,281145,1,8,0:0:0:0:
256,192,281280,1,0,0:0:0:0:
256,192,281551,1,12,0:0:0:0:
256,192,282361,1,0,0:0:0:0:
256,192,282632,1,0,0:0:0:0:
256,192,283172,1,8,0:0:0:0:
256,192,283713,1,4,0:0:0:0:
256,192,283983,1,8,0:0:0:0:
256,192,284253,1,8,0:0:0:0:
256,192,284524,1,0,0:0:0:0:
256,192,284659,1,8,0:0:0:0:
256,192,284726,1,8,0:0:0:0:
256,192,284794,1,0,0:0:0:0:
256,192,285334,1,8,0:0:0:0:
256,192,285605,1,0,0:0:0:0:
256,192,285740,1,8,0:0:0:0:
256,192,285875,1,0,0:0:0:0:
256,192,286145,1,0,0:0:0:0:
256,192,286415,1,8,0:0:0:0:
256,192,286686,1,0,0:0:0:0:
256,192,286821,1,0,0:0:0:0:
256,192,286888,1,0,0:0:0:0:
256,192,286956,1,8,0:0:0:0:
256,192,287091,1,8,0:0:0:0:
256,192,287226,1,0,0:0:0:0:
256,192,287497,1,8,0:0:0:0:
256,192,287767,1,0,0:0:0:0:
256,192,287902,1,8,0:0:0:0:
256,192,288037,1,0,0:0:0:0:
256,192,288307,1,0,0:0:0:0:
256,192,288442,1,0,0:0:0:0:
256,192,288578,1,8,0:0:0:0:
256,192,288848,1,0,0:0:0:0:
256,192,289118,1,0,0:0:0:0:
256,192,289253,1,0,0:0:0:0:
256,192,289388,1,0,0:0:0:0:
256,192,289659,1,8,0:0:0:0:
256,192,289929,1,0,0:0:0:0:
256,192,290064,1,8,0:0:0:0:
256,192,290199,1,0,0:0:0:0:
256,192,290470,1,8,0:0:0:0:
256,192,290740,1,8,0:0:0:0:
256,192,291010,1,0,0:0:0:0:
256,192,291145,1,0,0:0:0:0:
256,192,291280,1,8,0:0:0:0:
256,192,291551,1,0,0:0:0:0:
256,192,291821,1,8,0:0:0:0:
256,192,292091,1,8,0:0:0:0:
256,192,292226,1,8,0:0:0:0:
256,192,292361,1,0,0:0:0:0:
256,192,292632,1,8,0:0:0:0:
256,192,292902,1,8,0:0:0:0:
256,192,293172,1,0,0:0:0:0:
256,192,293307,1,8,0:0:0:0:
256,192,293375,1,8,0:0:0:0:
256,192,293442,1,0,0:0:0:0:
256,192,293983,1,8,0:0:0:0:
256,192,294253,1,0,0:0:0:0:
256,192,294388,1,8,0:0:0:0:
256,192,294524,1,0,0:0:0:0:
256,192,294794,1,0,0:0:0:0:
256,192,295064,1,8,0:0:0:0:
256,192,295334,1,0,0:0:0:0:
256,192,295470,1,0,0:0:0:0:
256,192,295537,1,0,0:0:0:0:
256,192,295605,1,8,0:0:0:0:
256,192,295740,1,8,0:0:0:0:
256,192,295875,1,0,0:0:0:0:
256,192,296145,1,8,0:0:0:0:
256,192,296415,1,0,0:0:0:0:
256,192,296551,1,8,0:0:0:0:
256,192,296686,1,0,0:0:0:0:
256,192,296956,1,0,0:0:0:0:
256,192,297091,1,0,0:0:0:0:
256,192,297226,1,8,0:0:0:0:
256,192,297497,1,0,0:0:0:0:
256,192,297767,1,0,0:0:0:0:
256,192,297902,1,0,0:0:0:0:
256,192,298037,1,0,0:0:0:0:
256,192,298307,1,8,0:0:0:0:
256,192,298578,1,0,0:0:0:0:
256,192,298713,1,8,0:0:0:0:
256,192,298848,1,0,0:0:0:0:
256,192,299118,1,8,0:0:0:0:
256,192,299388,1,8,0:0:0:0:
256,192,299659,1,0,0:0:0:0:
256,192,299794,1,0,0:0:0:0:
256,192,299929,1,8,0:0:0:0:
256,192,300334,1,8,0:0:0:0:
256,192,300470,1,8,0:0:0:0:
256,192,300740,1,0,0:0:0:0:
256,192,301010,8,0,303172,0:0:0:0:
