osu file format v14

[General]
AudioFilename: gravity.mp3
AudioLeadIn: 0
PreviewTime: 52654
Countdown: 0
SampleSet: Soft
StackLeniency: 0.7
Mode: 0
LetterboxInBreaks: 0
WidescreenStoryboard: 1

[Editor]
Bookmarks: 9454
DistanceSpacing: 0.9
BeatDivisor: 2
GridSize: 4
TimelineZoom: 1.4

[Metadata]
Title:Gravity -TV MIX-
TitleUnicode:Gravity -TV MIX-
Artist:ClariS
ArtistUnicode:ClariS
Creator:Neoskylove
Version:Normal
Source:クオリディア・コード
Tags:Qualidea Code Ending Doyak
BeatmapID:1236836
BeatmapSetID:582785

[Difficulty]
HPDrainRate:4
CircleSize:3.5
OverallDifficulty:4
ApproachRate:4
SliderMultiplier:1.1
SliderTickRate:1

[Events]
//Background and Video events
Video,0,"ED.avi"
0,0,"BG.jpg",0,0
//Break Periods
//Storyboard Layer 0 (Background)
//Storyboard Layer 1 (Fail)
//Storyboard Layer 2 (Pass)
//Storyboard Layer 3 (Foreground)
//Storyboard Sound Samples

[TimingPoints]
-120,342.857142857143,4,2,9,35,1,0
1251,342.857142857143,4,2,9,35,1,0
1251,-100,4,2,9,35,0,0
6736,-100,4,2,9,25,0,0
8708,-100,4,2,9,5,0,0
8793,-100,4,2,9,50,0,0
9393,-100,4,2,9,5,0,0
9479,-100,4,2,9,60,0,0
20451,-100,4,2,8,40,0,0
30051,-100,4,2,9,80,0,0
30308,-100,4,2,9,5,0,0
30393,-100,4,2,9,80,0,0
30822,-100,4,2,9,5,0,0
30908,-100,4,2,9,80,0,0
31079,-100,4,2,9,50,0,0
36222,-100,4,2,9,70,0,0
36908,-100,4,2,9,60,0,0
37165,-100,4,2,9,5,0,0
37251,-100,4,2,9,60,0,0
37679,-100,4,2,9,5,0,0
37765,-100,4,2,9,60,0,0
38365,-100,4,2,9,5,0,0
38451,-100,4,2,9,60,0,0
39051,-100,4,2,9,5,0,0
39136,-100,4,2,9,60,0,0
39651,-100,4,2,9,50,0,0
42393,-100,4,3,9,50,0,0
47879,-100,4,2,9,60,0,0
50622,-100,4,2,9,80,0,0
50879,-100,4,2,9,5,0,0
50965,-100,4,2,9,80,0,0
52165,-100,4,2,9,50,0,0
52508,-100,4,2,9,55,0,0
52851,-100,4,2,9,60,0,0
53193,-100,4,2,9,65,0,0
53365,-100,4,2,9,70,0,1
61593,-100,4,2,9,90,0,1
61679,-100,4,2,9,70,0,1
72565,-100,4,2,9,70,0,0
75565,-100,4,2,9,5,0,0
75651,-100,4,2,9,70,0,0
76079,-100,4,2,9,5,0,0
76165,-100,4,2,9,70,0,0
78308,-100,4,2,9,5,0,0
78393,-100,4,2,9,70,0,0
78822,-100,4,2,9,5,0,0
78908,-100,4,2,9,70,0,0
79593,-100,4,2,9,40,0,0
79765,-100,4,2,9,50,0,0
79936,-100,4,2,9,55,0,0
80108,-100,4,2,9,60,0,0
80279,-100,4,2,9,65,0,0
80451,-100,4,2,9,70,0,0
80622,-100,4,2,9,75,0,0
80793,-100,4,2,9,30,0,0
89022,-100,4,2,9,5,0,0

[Colours]
Combo1 : 240,236,233
Combo2 : 240,73,55
Combo3 : 240,216,151
Combo4 : 230,199,171

[HitObjects]
280,192,1251,6,0,B|321:175|357:195|357:195|395:214|438:192,2,165,2|2|2,0:0|0:0|0:0,0:0:0:0:
93,258,2965,2,0,L|96:367,2,110,2|2|2,0:0|0:0|0:0,0:0:0:0:
186,224,3993,6,0,L|189:115,1,110,2|0,0:0|0:0,0:0:0:0:
190,64,4508,1,2,0:0:0:0:
279,294,5365,2,0,L|282:185,1,110,2|0,0:0|0:0,0:0:0:0:
283,134,5880,1,2,0:0:0:0:
372,364,6736,6,0,L|375:255,1,110,2|0,0:0|0:0,0:0:0:0:
376,204,7251,2,0,P|428:217|482:207,2,110,2|2|2,0:0|0:0|0:0,0:0:0:0:
330,183,8108,2,0,P|277:169|223:179,1,110,2|0,0:0|0:0,0:0:0:0:
145,239,8793,2,0,L|149:348,1,110,2|0,0:0|0:0,0:0:0:0:
52,327,9479,6,0,L|47:217,1,110,6|8,0:0|0:0,0:0:0:0:
66,119,10165,2,0,L|63:64,2,55,0|2|10,0:0|0:0|0:0,0:0:0:0:
107,146,10679,2,0,P|160:157|211:140,1,110,2|0,0:0|0:0,0:0:0:0:
256,120,11193,2,0,P|307:102|360:114,2,110,10|2|10,0:0|0:0|0:0,0:0:0:0:
312,203,12222,6,0,P|365:214|416:197,2,110,2|10|2,0:0|0:0|0:0,0:0:0:0:
280,164,13079,1,2,0:0:0:0:
184,190,13422,2,0,L|189:299,1,110,2|0,0:0|0:0,0:0:0:0:
192,349,13936,2,0,P|138:360|87:343,2,110,10|2|2,0:0|3:0|3:0,0:0:0:0:
281,306,14965,6,0,P|334:294|385:311,1,110,6|8,0:0|0:0,0:0:0:0:
424,342,15479,2,0,L|415:177,1,165,2|8,0:0|0:0,0:0:0:0:
378,84,16336,2,0,P|405:77|432:79,2,55,2|2|10,0:0|0:0|0:0,0:0:0:0:
338,112,16851,2,0,P|284:123|233:106,1,110,2|2,0:0|0:0,0:0:0:0:
196,73,17365,1,10,0:0:0:0:
102,107,17708,6,0,L|107:216,1,110,4|8,0:0|0:0,0:0:0:0:
110,267,18222,1,2,0:0:0:0:
113,318,18393,2,0,P|86:324|59:322,2,55,0|2|8,3:0|3:0|3:0,0:0:0:0:
203,276,19079,1,4,3:2:0:0:
203,275,20451,6,0,P|256:266|307:286,1,110,6|2,0:0|0:0,0:0:0:0:
348,313,20965,2,0,P|339:260|359:209,1,110,2|2,0:0|0:0,0:0:0:0:
416,71,21822,2,0,P|363:85|311:71,1,110,6|2,0:0|0:0,0:0:0:0:
265,52,22336,2,0,P|212:38|160:52,1,110,2|2,0:0|0:0,0:0:0:0:
69,169,23193,6,0,L|73:278,1,110,6|2,0:0|0:0,0:0:0:0:
104,318,23708,2,0,P|51:303|0:318,2,110,2|2|2,0:0|0:0|0:0,0:0:0:0:
151,333,24565,2,0,P|203:347|255:332,1,110,4|2,0:0|0:0,0:0:0:0:
249,232,25251,2,0,L|246:177,2,55,2|0|2,0:0|0:0|0:0,0:0:0:0:
339,190,25936,6,0,L|334:80,1,110,10|2,0:0|0:0,0:0:0:0:
363,39,26451,2,0,B|319:57|283:40|283:40|244:20|203:41,1,165,8|0,0:0|0:0,0:0:0:0:
137,115,27308,2,0,L|141:224,1,110,10|2,0:0|0:0,0:0:0:0:
118,269,27822,2,0,B|159:248|198:268|198:268|234:285|277:266,1,165,10|0,0:0|0:0,0:0:0:0:
329,182,28679,6,0,P|372:249|353:327,2,165,10|10|2,0:0|0:0|0:0,0:0:0:0:
236,144,30051,2,0,L|127:148,1,110,4|8,0:0|0:0,0:0:0:0:
94,186,30565,2,0,P|78:237|90:290,1,110,4|8,0:0|0:0,0:0:0:0:
125,326,31079,1,8,3:0:0:0:
177,242,31422,6,0,L|286:238,1,110,6|10,0:0|0:0,0:0:0:0:
318,276,31936,2,0,L|427:280,1,110,2|2,0:0|0:0,0:0:0:0:
459,242,32451,1,8,0:0:0:0:
383,178,32793,2,0,P|370:125|387:73,1,110,2|10,0:0|0:0,0:0:0:0:
412,30,33308,2,0,L|303:26,1,110,2|2,0:0|0:0,0:0:0:0:
253,20,33822,1,8,0:0:0:0:
208,108,34165,6,0,L|99:112,1,110,2|10,0:0|0:0,0:0:0:0:
55,137,34679,2,0,P|67:84|50:32,2,110,2|2|2,0:0|0:0|0:0,0:0:0:0:
18,170,35536,2,0,P|6:223|23:275,1,110,0|10,0:0|0:0,0:0:0:0:
58,310,36051,1,2,0:0:0:0:
94,346,36222,2,0,L|148:348,2,55,8|8|8,0:0|0:0|0:0,0:0:0:0:
125,252,36908,6,0,L|234:257,1,110,6|10,0:0|0:0,0:0:0:0:
282,273,37422,2,0,P|267:220|280:168,1,110,6|2,0:0|0:0,0:0:0:0:
332,83,38108,2,0,L|222:88,1,110,6|2,0:0|0:0,0:0:0:0:
172,94,38622,1,8,0:0:0:0:
122,99,38793,2,0,P|136:151|123:203,1,110,6|2,0:0|0:0,0:0:0:0:
96,246,39308,1,8,0:0:0:0:
172,308,39651,6,0,P|224:293|276:306,1,110,6|8,0:0|0:0,0:0:0:0:
320,332,40165,2,0,P|372:345|424:330,2,110,2|2|2,0:0|0:0|0:0,0:0:0:0:
321,281,41022,2,0,L|334:171,1,110,2|2,0:0|3:0,0:0:0:0:
293,142,41536,1,8,3:0:0:0:
253,113,41708,2,0,L|198:119,2,55,4|4|4,3:0|3:0|3:0,0:0:0:0:
228,208,42393,6,0,L|64:227,1,165,4|0,0:2|0:0,0:0:0:0:
14,231,43079,1,8,0:2:0:0:
8,132,43422,1,0,0:2:0:0:
8,132,43593,2,0,L|117:119,1,110,4|8,0:0|0:2,0:0:0:0:
166,129,44108,2,0,P|146:78|157:25,2,110,8|8|4,0:0|0:2|0:0,0:0:0:0:
231,203,45136,6,0,P|250:253|239:306,1,110,0|0,0:0|0:0,0:0:0:0:
215,350,45651,2,0,L|160:343,2,55,0|8|4,0:0|0:2|0:0,0:0:0:0:
312,369,46336,2,0,L|421:356,1,110,4|8,0:0|0:2,0:0:0:0:
438,309,46851,2,0,P|448:255|429:205,2,110,4|8|4,0:0|0:2|0:0,0:0:0:0:
348,264,47879,6,0,P|329:214|340:161,1,110,6|8,0:0|0:0,0:0:0:0:
363,117,48393,2,0,L|253:122,1,110,2|2,0:0|0:0,0:0:0:0:
203,125,48908,1,8,0:0:0:0:
216,27,49251,2,0,L|325:21,1,110,2|10,0:0|0:0,0:0:0:0:
376,18,49765,2,0,P|426:40|457:85,1,110,2|2,0:0|0:0,0:0:0:0:
460,133,50279,1,8,0:0:0:0:
464,232,50622,6,0,P|413:211|360:222,1,110,4|8,0:0|0:0,0:0:0:0:
318,246,51136,2,0,P|264:256|214:236,1,110,4|4,0:0|0:3,0:0:0:0:
179,200,51651,2,0,L|170:309,1,110,4|4,0:0|0:3,0:0:0:0:
165,359,52165,1,10,0:0:0:0:
76,314,52508,2,0,L|80:259,1,55,10|0,0:0|0:0,0:0:0:0:
46,222,52851,2,0,L|50:167,1,55,10|0,0:0|0:0,0:0:0:0:
122,101,53365,6,0,L|126:46,2,55,6|2|10,0:0|0:0|0:0,0:0:0:0:
133,149,53879,1,2,0:0:0:0:
217,201,54222,2,0,L|221:256,2,55,2|10|2,0:0|0:0|0:0,0:0:0:0:
301,149,54908,2,0,L|305:94,2,55,2|10|2,0:0|0:0|0:0,0:0:0:0:
385,201,55593,2,0,L|389:256,2,55,2|10|2,0:0|0:0|0:0,0:0:0:0:
400,153,56108,6,0,P|453:164|503:143,1,110,2|10,0:0|0:0,0:0:0:0:
497,94,56622,2,0,P|443:82|393:103,1,110,2|2,0:0|0:0,0:0:0:0:
312,164,57308,2,0,P|262:185|209:174,1,110,2|2,0:0|0:0,0:0:0:0:
163,153,57822,1,10,0:0:0:0:
118,133,57993,2,0,L|125:242,1,110,2|2,0:0|0:0,0:0:0:0:
130,292,58508,1,10,0:0:0:0:
224,320,58851,6,0,L|220:265,2,55,6|2|10,0:0|0:0|0:0,0:0:0:0:
255,359,59365,1,2,0:0:0:0:
314,280,59708,2,0,L|310:225,2,55,2|10|2,0:0|0:0|0:0,0:0:0:0:
404,240,60393,2,0,L|400:185,2,55,2|10|2,0:0|0:0|0:0,0:0:0:0:
435,279,60908,2,0,L|431:333,2,55,2|2|10,0:0|0:0|0:0,0:0:0:0:
494,200,61593,6,0,L|486:90,1,110,6|10,0:0|0:0,0:0:0:0:
397,44,62279,2,0,P|345:28|292:43,1,110,2|10,0:0|0:0,0:0:0:0:
254,75,62793,1,2,0:0:0:0:
215,106,62965,2,0,P|162:121|111:106,1,110,2|8,0:0|0:0,0:0:0:0:
16,75,63651,2,0,L|19:129,1,55,0|2,0:0|0:0,0:0:0:0:
50,168,63993,2,0,L|46:222,1,55,8|8,0:0|0:0,0:0:0:0:
16,261,64336,6,0,P|69:246|120:261,1,110,6|10,0:0|0:0,0:0:0:0:
164,284,64851,2,0,P|216:299|268:284,1,110,2|0,0:0|0:0,0:0:0:0:
308,255,65365,1,8,0:0:0:0:
318,156,65708,2,0,L|322:102,1,55,0|0,0:0|0:0,0:0:0:0:
326,51,66051,2,0,P|378:35|430:51,2,110,10|2|10,0:0|0:0|0:0,0:0:0:0:
234,87,67079,6,0,P|182:103|130:87,1,110,6|10,0:0|0:0,0:0:0:0:
88,60,67593,2,0,L|91:169,1,110,2|2,0:0|0:0,0:0:0:0:
93,219,68108,1,10,0:0:0:0:
42,303,68451,6,0,P|94:317|146:302,1,110,6|10,0:0|0:0,0:0:0:0:
184,270,68965,2,0,L|181:161,1,110,6|0,0:0|0:0,0:0:0:0:
179,111,69479,1,8,0:0:0:0:
264,62,69822,6,0,P|316:45|368:60,1,110,4|10,0:0|0:0,0:0:0:0:
404,92,70336,2,0,L|407:201,1,110,2|0,0:0|0:0,0:0:0:0:
407,251,70851,1,10,0:0:0:0:
336,320,71193,2,0,L|227:317,1,110,6|8,0:0|0:0,0:0:0:0:
176,330,71708,2,0,P|188:276|173:224,1,110,2|0,0:0|0:0,0:0:0:0:
149,181,72222,1,10,0:0:0:0:
214,106,72565,6,0,L|323:109,1,110,6|8,0:0|0:0,0:0:0:0:
403,170,73251,2,0,L|457:171,2,55,0|2|10,0:0|0:0|0:0,0:0:0:0:
361,197,73765,2,0,P|346:249|368:299,1,110,2|2,0:0|0:0,0:0:0:0:
400,336,74279,1,8,0:0:0:0:
432,373,74451,2,0,L|323:370,1,110,2|2,0:0|0:0,0:0:0:0:
272,367,74965,1,10,0:0:0:0:
180,328,75308,6,0,P|163:276|179:224,1,110,6|8,0:0|0:0,0:0:0:0:
211,185,75822,2,0,P|227:133|211:81,1,110,6|8,0:0|0:0,0:0:0:0:
180,41,76336,2,0,L|345:52,1,165,4|4,0:0|0:3,0:0:0:0:
367,95,77022,2,0,L|476:87,2,110,8|8|8,0:0|0:0|0:0,0:0:0:0:
367,194,78051,6,0,L|421:197,2,55,6|0|8,0:0|0:0|0:0,0:0:0:0:
320,177,78565,2,0,L|210:184,1,110,6|8,0:0|0:0,0:0:0:0:
161,173,79079,2,0,P|177:225|160:277,1,110,6|0,0:0|0:0,0:0:0:0:
62,278,79765,2,0,P|45:226|61:174,2,110,2|2|2,3:0|3:0|3:0,0:0:0:0:
160,277,80793,6,0,L|269:274,1,110,2|0,0:0|0:0,0:0:0:0:
320,273,81308,1,2,0:0:0:0:
434,53,82165,2,0,L|325:50,1,110,2|0,0:0|0:0,0:0:0:0:
274,49,82680,1,2,0:0:0:0:
61,174,83536,6,0,L|170:171,1,110,2|0,0:0|0:0,0:0:0:0:
219,156,84051,2,0,P|206:209|223:261,2,110,2|2|2,0:0|0:0|0:0,0:0:0:0:
268,155,84908,2,0,P|284:206|272:259,1,110,2|0,0:0|0:0,0:0:0:0:
234,351,85593,2,0,L|343:348,1,110,2|0,0:0|0:0,0:0:0:0:
442,338,86279,5,2,0:0:0:0:
256,192,86451,12,0,89022,0:0:0:0:
