osu file format v14

[General]
AudioFilename: audio.mp3
AudioLeadIn: 0
PreviewTime: 52556
Countdown: 0
SampleSet: Soft
StackLeniency: 0.7
Mode: 3
LetterboxInBreaks: 0
SpecialStyle: 0
WidescreenStoryboard: 1

[Editor]
Bookmarks: 84270
DistanceSpacing: 1
BeatDivisor: 4
GridSize: 32
TimelineZoom: 2.3

[Metadata]
Title:Gravity (TV Size)
TitleUnicode:Gravity (TV Size)
Artist:ClariS
ArtistUnicode:ClariS
Creator:Savageeeee
Version:Luminous Bonds
Source:クオリディア・コード
Tags:FerdiXIA- Qualidea Code japanese anime pop jpop j-pop Clara Karen ending ed Fairy Castle
BeatmapID:4492035
BeatmapSetID:2134903

[Difficulty]
HPDrainRate:8.5
CircleSize:4
OverallDifficulty:8.2
ApproachRate:5
SliderMultiplier:1.4
SliderTickRate:1

[Events]
//Background and Video events
0,0,"bg.jpg",0,0
//Break Periods
//Storyboard Layer 0 (Background)
//Storyboard Layer 1 (Fail)
//Storyboard Layer 2 (Pass)
//Storyboard Layer 3 (Foreground)
//Storyboard Layer 4 (Overlay)
//Storyboard Sound Samples

[TimingPoints]
956,342.857142857143,4,2,1,50,1,0
53070,-100,4,2,1,50,0,1
80498,-100,4,2,1,50,0,0

[HitObjects]
192,192,441,128,0,527:0:0:0:0:
320,192,613,128,0,698:0:0:0:0:
448,192,784,128,0,870:0:0:0:0:
64,192,870,1,0,0:0:0:0:
192,192,913,1,0,0:0:0:0:
320,192,955,128,0,1470:0:0:0:0:
448,192,955,128,0,1813:0:0:0:0:
64,192,1470,128,0,1813:0:0:0:0:
192,192,1470,128,0,1984:0:0:0:0:
320,192,1813,128,0,1984:0:0:0:0:
64,192,1984,128,0,2327:0:0:0:0:
448,192,1984,128,0,2327:0:0:0:0:
64,192,2670,128,0,3013:0:0:0:0:
192,192,3013,128,0,3356:0:0:0:0:
320,192,3356,128,0,3698:0:0:0:0:
192,192,3698,128,0,3870:0:0:0:0:
448,192,3698,1,0,0:0:0:0:
64,192,3698,128,0,4041:0:0:0:0:
448,192,3870,128,0,4898:0:0:0:0:
320,192,4041,128,0,4898:0:0:0:0:
192,192,4213,128,0,4898:0:0:0:0:
64,192,4213,128,0,4898:0:0:0:0:
64,192,5070,1,0,0:0:0:0:
320,192,5070,128,0,5241:0:0:0:0:
448,192,5070,128,0,5413:0:0:0:0:
64,192,5241,128,0,6270:0:0:0:0:
192,192,5413,128,0,6270:0:0:0:0:
320,192,5584,128,0,6270:0:0:0:0:
448,192,5584,128,0,6270:0:0:0:0:
64,192,6441,128,0,6784:0:0:0:0:
192,192,6441,128,0,6613:0:0:0:0:
448,192,6441,1,0,0:0:0:0:
448,192,6613,128,0,7127:0:0:0:0:
320,192,6784,128,0,7127:0:0:0:0:
64,192,6956,128,0,7470:0:0:0:0:
192,192,6956,128,0,7641:0:0:0:0:
320,192,7298,128,0,7641:0:0:0:0:
448,192,7298,128,0,7641:0:0:0:0:
64,192,7641,1,0,0:0:0:0:
64,192,7813,128,0,9098:0:0:0:0:
192,192,7813,128,0,9098:0:0:0:0:
448,192,7813,128,0,8413:0:0:0:0:
320,192,8498,128,0,9098:0:0:0:0:
448,192,8498,128,0,9098:0:0:0:0:
64,192,9184,1,2,0:0:0:0:
320,192,9184,1,4,0:0:0:0:
448,192,9184,128,0,9870:0:0:0:0:
192,192,9356,1,0,0:0:0:0:
64,192,9527,1,8,0:0:0:0:
192,192,9527,1,0,0:0:0:0:
320,192,9527,1,0,0:0:0:0:
320,192,9698,1,0,0:0:0:0:
64,192,9870,1,2,0:0:0:0:
192,192,9870,1,0,0:0:0:0:
320,192,10041,128,0,10213:0:0:0:0:
448,192,10041,1,0,0:0:0:0:
64,192,10213,1,8,0:0:0:0:
192,192,10213,128,0,10384:0:0:0:0:
448,192,10213,1,0,0:0:0:0:
64,192,10384,128,0,10898:0:0:0:0:
320,192,10384,1,0,0:0:0:0:
192,192,10556,1,2,0:0:0:0:
448,192,10556,1,0,0:0:0:0:
320,192,10727,1,0,0:0:0:0:
192,192,10898,1,8,0:0:0:0:
320,192,10898,1,0,0:0:0:0:
448,192,10898,128,0,11241:0:0:0:0:
64,192,11070,1,0,0:0:0:0:
64,192,11241,1,2,0:0:0:0:
192,192,11241,128,0,11584:0:0:0:0:
448,192,11413,1,0,0:0:0:0:
64,192,11584,1,8,0:0:0:0:
320,192,11584,128,0,11927:0:0:0:0:
448,192,11584,1,0,0:0:0:0:
192,192,11756,1,0,0:0:0:0:
64,192,11927,1,2,0:0:0:0:
192,192,11927,1,0,0:0:0:0:
448,192,11927,128,0,12270:0:0:0:0:
320,192,12098,1,0,0:0:0:0:
64,192,12270,128,8,12613:0:0:0:0:
192,192,12270,1,0,0:0:0:0:
320,192,12270,1,0,0:0:0:0:
192,192,12441,1,0,0:0:0:0:
320,192,12613,128,2,12784:0:0:0:0:
448,192,12613,128,0,12698:0:0:0:0:
64,192,12784,128,0,12870:0:0:0:0:
192,192,12784,128,0,12956:0:0:0:0:
64,192,12956,1,8,0:0:0:0:
320,192,12956,1,0,0:0:0:0:
448,192,12956,1,0,0:0:0:0:
192,192,13127,1,0,0:0:0:0:
448,192,13127,128,0,13641:0:0:0:0:
64,192,13298,1,2,0:0:0:0:
320,192,13298,1,0,0:0:0:0:
192,192,13470,1,0,0:0:0:0:
64,192,13641,128,8,13984:0:0:0:0:
192,192,13641,1,0,0:0:0:0:
320,192,13641,1,0,0:0:0:0:
448,192,13813,1,0,0:0:0:0:
192,192,13984,128,2,14327:0:0:0:0:
448,192,13984,1,0,0:0:0:0:
320,192,14156,1,0,0:0:0:0:
64,192,14327,1,8,0:0:0:0:
320,192,14327,128,0,14498:0:0:0:0:
448,192,14327,1,0,0:0:0:0:
64,192,14498,1,8,0:0:0:0:
192,192,14498,1,0,0:0:0:0:
320,192,14584,1,8,0:0:0:0:
64,192,14670,1,2,0:0:0:0:
192,192,14670,1,4,0:0:0:0:
448,192,14670,128,0,15184:0:0:0:0:
64,192,15013,1,8,0:0:0:0:
192,192,15013,1,0,0:0:0:20:Hat Open2.wav
320,192,15013,1,0,0:0:0:0:
64,192,15184,128,0,16898:0:0:0:0:
320,192,15184,1,0,0:0:0:0:
192,192,15356,1,2,0:0:0:0:
448,192,15356,1,0,0:0:0:20:Hat Open2.wav
192,192,15527,1,2,0:0:0:0:
320,192,15527,1,0,0:0:0:0:
192,192,15698,1,8,0:0:0:0:
320,192,15698,1,0,0:0:0:20:Hat Open2.wav
448,192,15698,1,0,0:0:0:0:
448,192,15870,128,0,15956:0:0:0:0:
192,192,16041,128,2,16127:0:0:0:0:
320,192,16041,1,0,0:0:0:20:Hat Open2.wav
320,192,16213,128,0,16298:0:0:0:0:
448,192,16213,1,0,0:0:0:0:
192,192,16384,1,8,0:0:0:0:
320,192,16384,1,0,0:0:0:20:Hat Open2.wav
448,192,16384,128,0,16470:0:0:0:0:
192,192,16556,128,2,16898:0:0:0:0:
448,192,16556,1,0,0:0:0:0:
320,192,16727,1,0,0:0:0:20:Hat Open2.wav
320,192,16898,1,2,0:0:0:0:
448,192,16898,128,0,16984:0:0:0:0:
64,192,17070,128,8,17156:0:0:0:0:
192,192,17070,128,0,17413:0:0:0:20:Hat Open2.wav
448,192,17070,1,0,0:0:0:0:
320,192,17241,1,0,0:0:0:0:
64,192,17413,128,2,17927:0:0:0:0:
320,192,17413,1,4,0:0:0:0:
448,192,17413,1,0,0:0:0:0:
192,192,17756,1,8,0:0:0:0:
320,192,17756,1,0,0:0:0:20:Hat Open2.wav
448,192,17756,1,0,0:0:0:0:
448,192,17927,128,0,18784:0:0:0:0:
64,192,18098,1,2,0:0:0:0:
320,192,18098,1,0,0:0:0:20:Hat Open2.wav
64,192,18270,1,8,0:0:0:0:
192,192,18270,1,0,0:0:0:0:
320,192,18270,1,0,0:0:0:0:
192,192,18441,1,0,0:0:0:20:Hat Open2.wav
320,192,18613,1,0,0:0:0:0:
64,192,18784,128,4,20070:0:0:0:0:
192,192,18784,128,2,20070:0:0:0:0:
320,192,18784,1,0,0:0:0:0:
64,192,20156,1,0,0:0:0:0:
320,192,20156,128,0,20327:0:0:0:0:
448,192,20156,128,0,20670:0:0:0:0:
192,192,20327,1,0,0:0:0:0:
64,192,20498,128,0,20670:0:0:0:0:
192,192,20670,128,0,21184:0:0:0:0:
320,192,20670,128,0,20841:0:0:0:0:
448,192,20841,1,0,0:0:0:0:
64,192,21013,128,0,21184:0:0:0:0:
320,192,21013,128,0,21527:0:0:0:0:
448,192,21184,1,0,0:0:0:0:
192,192,21356,128,0,21527:0:0:0:0:
64,192,21527,128,0,22041:0:0:0:0:
448,192,21527,128,0,21870:0:0:0:0:
320,192,21698,128,0,21870:0:0:0:0:
192,192,21870,128,0,22041:0:0:0:0:
320,192,22041,128,0,22556:0:0:0:0:
448,192,22041,128,0,22213:0:0:0:0:
192,192,22213,128,0,22384:0:0:0:0:
64,192,22384,128,0,22727:0:0:0:0:
448,192,22384,128,0,22556:0:0:0:0:
192,192,22556,1,0,0:0:0:0:
320,192,22727,128,0,22898:0:0:0:0:
192,192,22813,1,0,0:0:0:0:
64,192,22898,128,0,23413:0:0:0:0:
448,192,22898,1,0,0:0:0:0:
320,192,23070,1,0,0:0:0:0:
192,192,23241,128,0,23413:0:0:0:0:
320,192,23413,128,0,23584:0:0:0:0:
448,192,23413,128,0,23927:0:0:0:0:
64,192,23584,1,0,0:0:0:0:
192,192,23756,128,0,24270:0:0:0:0:
320,192,23756,128,0,23927:0:0:0:0:
64,192,23927,1,0,0:0:0:0:
320,192,24098,128,0,24441:0:0:0:0:
64,192,24270,1,0,0:0:0:0:
448,192,24270,128,0,24613:0:0:0:0:
192,192,24441,1,0,0:0:0:0:
320,192,24613,1,0,0:0:0:0:
64,192,24784,128,0,25127:0:0:0:0:
192,192,24784,128,0,24956:0:0:0:0:
320,192,24956,128,0,25041:0:0:0:0:
448,192,24956,128,0,25127:0:0:0:0:
192,192,25127,128,0,25213:0:0:0:0:
320,192,25127,128,0,25298:0:0:0:0:
64,192,25298,128,0,25384:0:0:0:0:
192,192,25298,128,0,25470:0:0:0:0:
64,192,25470,128,0,25641:0:0:0:0:
448,192,25470,128,0,25556:0:0:0:0:
320,192,25641,128,2,25813:0:0:0:0:
448,192,25641,128,0,26156:0:0:0:0:
192,192,25813,1,0,0:0:0:0:
320,192,25984,128,0,26156:0:0:0:0:
64,192,26156,128,2,26327:0:0:0:0:
192,192,26156,128,0,26670:0:0:0:0:
448,192,26327,1,0,0:0:0:0:
320,192,26498,128,0,26670:0:0:0:0:
64,192,26670,1,0,0:0:0:0:
448,192,26841,128,0,27356:0:0:0:0:
64,192,27013,128,2,27527:0:0:0:0:
192,192,27013,1,0,0:0:0:0:
320,192,27184,1,0,0:0:0:0:
192,192,27356,128,0,27527:0:0:0:0:
320,192,27527,128,2,28041:0:0:0:0:
448,192,27527,128,0,27698:0:0:0:0:
64,192,27698,1,0,0:0:0:0:
192,192,27870,128,0,28041:0:0:0:0:
448,192,28041,1,0,0:0:0:0:
64,192,28213,128,0,28727:0:0:0:0:
192,192,28298,1,0,0:0:0:0:
320,192,28384,1,2,0:0:0:0:
448,192,28384,128,0,28898:0:0:0:0:
192,192,28556,1,0,0:0:0:0:
320,192,28727,1,0,0:0:0:0:
64,192,28898,128,2,29670:0:0:0:0:
192,192,28898,1,0,0:0:0:0:
448,192,29070,128,0,29670:0:0:0:0:
192,192,29413,128,0,29670:0:0:0:0:
320,192,29413,128,0,29670:0:0:0:0:
64,192,29756,128,2,30013:0:0:0:0:
320,192,29756,128,4,30013:0:0:0:0:
448,192,29756,128,0,30013:0:0:0:0:
64,192,30098,1,8,0:0:0:0:
320,192,30098,1,0,0:0:0:0:
448,192,30098,1,0,0:0:0:0:
64,192,30270,128,2,30527:0:0:0:0:
192,192,30270,128,4,30527:0:0:0:0:
448,192,30270,128,0,30527:0:0:0:0:
64,192,30613,1,8,0:0:0:0:
192,192,30613,1,0,0:0:0:0:
448,192,30613,1,0,0:0:0:0:
192,192,30784,1,0,0:0:0:25:tom4.wav
320,192,30784,1,0,0:0:0:0:
320,192,30956,1,0,0:0:0:30:tom3.wav
448,192,30956,1,0,0:0:0:0:
64,192,31127,128,4,31298:0:0:0:0:
192,192,31127,1,2,0:0:0:0:
448,192,31127,128,0,31641:0:0:0:0:
320,192,31298,1,0,0:0:0:0:
64,192,31470,1,8,0:0:0:0:
192,192,31470,1,0,0:0:0:0:
320,192,31470,128,0,31641:0:0:0:0:
64,192,31641,128,0,32070:0:0:0:0:
192,192,31813,1,2,0:0:0:0:
448,192,31813,1,0,0:0:0:0:
192,192,31984,128,0,32156:0:0:0:0:
320,192,31984,1,0,0:0:0:0:
64,192,32156,1,8,0:0:0:0:
320,192,32156,1,0,0:0:0:0:
448,192,32156,1,0,0:0:0:0:
192,192,32327,128,0,32498:0:0:0:0:
64,192,32498,1,2,0:0:0:0:
320,192,32498,128,0,32670:0:0:0:0:
448,192,32498,128,0,33013:0:0:0:0:
192,192,32670,1,0,0:0:0:0:
64,192,32841,128,8,33013:0:0:0:0:
192,192,32841,1,0,0:0:0:0:
320,192,32841,1,0,0:0:0:0:
320,192,33013,128,0,33441:0:0:0:0:
64,192,33184,1,2,0:0:0:0:
448,192,33184,1,0,0:0:0:0:
192,192,33356,128,0,33527:0:0:0:0:
64,192,33527,1,8,0:0:0:0:
320,192,33527,1,0,0:0:0:0:
448,192,33527,1,0,0:0:0:0:
192,192,33698,128,0,33870:0:0:0:0:
64,192,33870,128,2,34384:0:0:0:0:
448,192,33870,128,0,34041:0:0:0:0:
320,192,34041,1,0,0:0:0:0:
192,192,34213,1,8,0:0:0:0:
320,192,34213,128,0,34384:0:0:0:0:
448,192,34213,1,0,0:0:0:0:
192,192,34384,128,0,34727:0:0:0:0:
64,192,34556,128,2,34727:0:0:0:0:
448,192,34556,1,0,0:0:0:0:
320,192,34727,128,0,35070:0:0:0:0:
64,192,34898,1,8,0:0:0:0:
192,192,34898,128,0,35070:0:0:0:0:
448,192,34898,1,0,0:0:0:0:
448,192,35070,128,0,35413:0:0:0:0:
64,192,35241,1,2,0:0:0:0:
320,192,35241,128,0,35413:0:0:0:20:Hat Open2.wav
64,192,35413,128,0,35841:0:0:0:0:
192,192,35413,128,0,35498:0:0:0:0:
192,192,35584,128,8,35841:0:0:0:0:
320,192,35584,128,0,35670:0:0:0:20:Hat Open2.wav
320,192,35756,128,0,35841:0:0:0:0:
448,192,35756,128,0,35841:0:0:0:0:
192,192,35927,1,2,0:0:0:0:
448,192,35927,128,0,36013:0:0:0:20:Hat Open2.wav
64,192,36098,128,8,36184:0:0:0:0:
192,192,36098,1,0,0:0:0:0:
320,192,36098,1,0,0:0:0:0:
64,192,36270,128,8,36356:0:0:0:0:
320,192,36270,1,2,0:0:0:0:
448,192,36270,1,0,0:0:0:20:Hat Open2.wav
192,192,36441,1,8,0:0:0:0:
448,192,36441,1,0,0:0:0:0:
320,192,36527,1,8,0:0:0:0:
64,192,36613,128,2,36784:0:0:0:0:
192,192,36613,128,4,36956:0:0:0:0:
448,192,36613,128,0,36784:0:0:0:0:
64,192,36956,1,8,0:0:0:0:
320,192,36956,1,0,0:0:0:0:
448,192,36956,1,0,0:0:0:0:
64,192,37127,128,2,37298:0:0:0:0:
320,192,37127,128,4,37470:0:0:0:0:
448,192,37127,128,0,37298:0:0:0:0:
64,192,37470,1,2,0:0:0:0:
448,192,37470,1,0,0:0:0:0:
192,192,37641,1,8,0:0:0:0:
320,192,37641,1,0,0:0:0:0:
448,192,37641,1,0,0:0:0:0:
64,192,37813,128,2,38156:0:0:0:0:
192,192,37813,128,0,37984:0:0:0:0:
320,192,37813,128,0,37984:0:0:0:0:
192,192,38156,1,2,0:0:0:0:
320,192,38156,1,0,0:0:0:0:
64,192,38327,1,8,0:0:0:0:
192,192,38327,1,0,0:0:0:0:
448,192,38327,1,0,0:0:0:0:
64,192,38498,128,2,38670:0:0:0:0:
320,192,38498,128,4,38670:0:0:0:0:
448,192,38498,128,0,38841:0:0:0:0:
64,192,38841,1,2,0:0:0:0:
320,192,38841,1,0,0:0:0:0:
64,192,39013,1,8,0:0:0:0:
192,192,39013,1,0,0:0:0:20:Hat Open2.wav
448,192,39013,1,0,0:0:0:0:
320,192,39184,1,0,0:0:0:0:
64,192,39270,1,0,0:0:0:0:
192,192,39313,1,0,0:0:0:0:
320,192,39356,128,2,39870:0:0:0:0:
448,192,39356,1,4,0:0:0:0:
64,192,39698,1,8,0:0:0:0:
192,192,39698,128,0,39870:0:0:0:20:Hat Open2.wav
448,192,39698,1,0,0:0:0:0:
448,192,39870,128,0,40213:0:0:0:0:
192,192,40041,1,0,0:0:0:20:Hat Open2.wav
64,192,40213,128,2,40727:0:0:0:0:
320,192,40213,1,0,0:0:0:0:
192,192,40384,1,8,0:0:0:0:
320,192,40384,1,0,0:0:0:20:Hat Open2.wav
448,192,40384,1,0,0:0:0:0:
192,192,40556,128,0,40727:0:0:0:0:
320,192,40727,1,2,0:0:0:0:
448,192,40727,128,0,41413:0:0:0:20:Hat Open2.wav
192,192,40898,1,0,0:0:0:0:
64,192,41070,1,8,0:0:0:0:
192,192,41070,1,0,0:0:0:0:
320,192,41070,1,0,0:0:0:0:
320,192,41241,1,0,0:0:0:25:tom3.wav
64,192,41413,128,0,41927:0:0:0:25:tom3.wav
192,192,41413,1,0,0:0:0:0:
448,192,41584,1,0,0:0:0:30:tom4.wav
320,192,41756,1,0,0:0:0:30:tom4.wav
192,192,41927,1,0,0:0:0:0:
320,192,42013,1,0,0:0:0:0:
64,192,42098,1,2,0:0:0:0:
192,192,42098,1,4,0:0:0:0:
448,192,42098,1,0,0:0:0:0:
320,192,42270,128,0,42441:0:0:0:0:
64,192,42441,128,0,42613:0:0:0:0:
192,192,42613,1,2,0:0:0:0:
448,192,42613,128,0,42784:0:0:0:0:
64,192,42784,1,8,0:0:0:0:
192,192,42784,128,0,43127:0:0:0:0:
320,192,42784,1,0,0:0:0:0:
320,192,43127,128,0,43298:0:0:0:0:
64,192,43298,128,2,43641:0:0:0:0:
448,192,43298,1,0,0:0:0:0:
192,192,43470,1,0,0:0:0:0:
192,192,43641,1,8,0:0:0:0:
320,192,43641,1,0,0:0:0:0:
448,192,43641,128,0,43898:0:0:0:0:
320,192,43813,128,0,44156:0:0:0:0:
64,192,43984,1,2,0:0:0:0:
192,192,43984,1,0,0:0:0:0:
448,192,43984,128,0,44156:0:0:0:0:
64,192,44156,1,8,0:0:0:0:
192,192,44156,1,0,0:0:0:0:
448,192,44327,128,0,44670:0:0:0:0:
320,192,44498,128,2,44841:0:0:0:0:
192,192,44670,128,0,44841:0:0:0:0:
64,192,44841,128,2,45184:0:0:0:0:
448,192,44841,128,0,45013:0:0:0:0:
320,192,45184,128,0,45527:0:0:0:0:
192,192,45356,1,2,0:0:0:0:
448,192,45356,128,0,45698:0:0:0:0:
64,192,45527,1,8,0:0:0:0:
192,192,45527,1,0,0:0:0:0:
64,192,45698,128,2,46041:0:0:0:0:
320,192,45698,1,0,0:0:0:0:
192,192,45870,1,0,0:0:0:0:
320,192,46041,1,2,0:0:0:0:
448,192,46041,128,0,46384:0:0:0:0:
64,192,46213,1,0,0:0:0:0:
192,192,46384,128,8,46727:0:0:0:0:
320,192,46384,1,0,0:0:0:0:
64,192,46556,128,0,46898:0:0:0:0:
320,192,46727,1,0,0:0:0:0:
192,192,46898,1,8,0:0:0:0:
320,192,46898,1,0,0:0:0:0:
448,192,46898,1,0,0:0:0:0:
64,192,47070,1,0,0:0:0:30:tom4.wav
448,192,47070,1,0,0:0:0:0:
192,192,47241,128,0,47584:0:0:0:30:tom4.wav
320,192,47241,1,0,0:0:0:0:
64,192,47584,1,2,0:0:0:0:
320,192,47584,1,4,0:0:0:0:
448,192,47584,128,0,47927:0:0:0:0:
64,192,47927,1,8,0:0:0:0:
192,192,47927,128,0,48270:0:0:0:20:Hat Open2.wav
320,192,47927,1,0,0:0:0:0:
320,192,48098,128,0,48441:0:0:0:0:
64,192,48270,1,2,0:0:0:0:
448,192,48270,1,0,0:0:0:20:Hat Open2.wav
64,192,48441,128,2,48613:0:0:0:0:
192,192,48613,1,8,0:0:0:0:
320,192,48613,1,0,0:0:0:20:Hat Open2.wav
448,192,48613,1,0,0:0:0:0:
192,192,48784,128,0,49127:0:0:0:0:
64,192,48956,128,2,49298:0:0:0:0:
448,192,48956,1,0,0:0:0:20:Hat Open2.wav
320,192,49127,1,0,0:0:0:0:
192,192,49298,1,8,0:0:0:0:
320,192,49298,128,0,49641:0:0:0:20:Hat Open2.wav
448,192,49298,1,0,0:0:0:0:
192,192,49470,128,0,49813:0:0:0:0:
64,192,49641,1,2,0:0:0:0:
448,192,49641,1,0,0:0:0:20:Hat Open2.wav
320,192,49813,1,2,0:0:0:0:
448,192,49813,128,0,49984:0:0:0:0:
64,192,49984,1,8,0:0:0:0:
192,192,49984,1,0,0:0:0:20:Hat Open2.wav
320,192,49984,1,0,0:0:0:0:
64,192,50156,1,8,0:0:0:0:
448,192,50156,1,0,0:0:0:0:
192,192,50241,1,8,0:0:0:0:
64,192,50327,128,4,50498:0:0:0:0:
320,192,50327,128,2,50670:0:0:0:0:
448,192,50327,128,0,50498:0:0:0:0:
64,192,50670,1,8,0:0:0:0:
192,192,50670,1,0,0:0:0:0:
448,192,50670,1,0,0:0:0:0:
64,192,50841,128,2,51013:0:0:0:0:
192,192,50841,128,0,51184:0:0:0:20:Hat Open2.wav
448,192,50841,128,0,51013:0:0:0:0:
64,192,51184,1,2,0:0:0:0:
320,192,51184,1,0,0:0:0:0:
448,192,51184,1,0,0:0:0:0:
64,192,51356,128,8,51613:0:0:0:0:
192,192,51356,128,4,51613:0:0:0:0:
320,192,51356,128,0,51698:0:0:0:0:
448,192,51356,128,0,51698:0:0:0:0:
64,192,51698,1,2,0:0:0:0:
192,192,51698,1,0,0:0:0:0:
64,192,51870,128,8,51956:0:0:0:0:
320,192,51870,1,0,0:0:0:0:
448,192,51870,1,0,0:0:0:0:
192,192,51956,128,0,52041:0:0:0:0:
320,192,52041,128,0,52127:0:0:0:0:
64,192,52213,128,0,52298:0:0:0:30:tom3.wav
448,192,52213,128,0,52298:0:0:0:0:
320,192,52298,128,0,52384:0:0:0:0:
192,192,52384,128,0,52470:0:0:0:0:
320,192,52470,128,0,52556:0:0:0:0:
64,192,52556,128,0,52641:0:0:0:30:tom4.wav
448,192,52556,128,0,52641:0:0:0:0:
192,192,52641,128,0,52727:0:0:0:0:
320,192,52727,128,0,52813:0:0:0:30:tom4.wav
448,192,52727,128,0,52813:0:0:0:0:
192,192,52813,128,0,52898:0:0:0:0:
64,192,52898,128,8,52984:0:0:0:0:
448,192,52898,128,0,52984:0:0:0:0:
320,192,52984,128,8,53070:0:0:0:0:
64,192,53070,128,4,53413:0:0:0:0:
192,192,53070,1,2,0:0:0:0:
448,192,53070,1,0,0:0:0:0:
320,192,53241,128,0,53584:0:0:0:0:
192,192,53413,128,8,53756:0:0:0:0:
448,192,53413,1,0,0:0:0:0:
64,192,53584,128,0,53756:0:0:0:0:
320,192,53756,1,2,0:0:0:0:
448,192,53756,1,0,0:0:0:0:
64,192,53927,1,2,0:0:0:0:
448,192,53927,128,0,54270:0:0:0:0:
64,192,54098,1,8,0:0:0:0:
192,192,54098,1,0,0:0:0:0:
320,192,54098,128,0,54441:0:0:0:0:
192,192,54270,128,0,54441:0:0:0:0:
64,192,54441,1,2,0:0:0:0:
448,192,54441,1,0,0:0:0:0:
64,192,54613,128,0,54956:0:0:0:0:
192,192,54784,128,8,55127:0:0:0:0:
320,192,54784,1,0,0:0:0:0:
448,192,54784,1,0,0:0:0:0:
320,192,54956,128,0,55127:0:0:0:0:
64,192,55127,1,2,0:0:0:0:
448,192,55127,1,0,0:0:0:0:
192,192,55298,1,2,0:0:0:0:
448,192,55298,128,0,55641:0:0:0:0:
64,192,55470,1,8,0:0:0:0:
192,192,55470,1,0,0:0:0:0:
320,192,55470,128,0,55813:0:0:0:0:
192,192,55641,128,0,55813:0:0:0:0:
64,192,55813,128,2,56156:0:0:0:0:
448,192,55813,1,0,0:0:0:0:
320,192,55984,1,0,0:0:0:0:
192,192,56156,1,8,0:0:0:0:
320,192,56156,128,0,56498:0:0:0:0:
448,192,56156,1,0,0:0:0:0:
192,192,56327,128,0,56670:0:0:0:0:
64,192,56498,1,2,0:0:0:0:
448,192,56498,1,0,0:0:0:0:
320,192,56670,1,2,0:0:0:0:
448,192,56670,128,0,56841:0:0:0:0:
64,192,56841,1,8,0:0:0:0:
192,192,56841,1,0,0:0:0:0:
320,192,56841,1,0,0:0:0:0:
448,192,57013,128,0,57356:0:0:0:0:
64,192,57184,128,2,57356:0:0:0:0:
320,192,57184,1,0,0:0:0:0:
192,192,57356,128,0,57698:0:0:0:0:
64,192,57527,1,8,0:0:0:0:
320,192,57527,128,0,57870:0:0:0:0:
448,192,57527,1,0,0:0:0:0:
448,192,57698,128,0,57870:0:0:0:0:
64,192,57870,1,2,0:0:0:0:
192,192,57870,1,0,0:0:0:0:
64,192,58041,128,2,58213:0:0:0:0:
448,192,58041,1,0,0:0:0:0:
192,192,58213,1,8,0:0:0:0:
320,192,58213,1,0,0:0:0:0:
448,192,58213,128,0,58384:0:0:0:0:
64,192,58384,1,8,0:0:0:0:
320,192,58384,1,0,0:0:0:0:
192,192,58470,1,8,0:0:0:0:
64,192,58556,1,2,0:0:0:0:
320,192,58556,128,4,58898:0:0:0:0:
448,192,58556,1,0,0:0:0:0:
192,192,58727,128,0,59070:0:0:0:0:
64,192,58898,1,8,0:0:0:0:
448,192,58898,128,0,59241:0:0:0:0:
320,192,59070,128,0,59241:0:0:0:0:
64,192,59241,1,2,0:0:0:0:
192,192,59241,1,0,0:0:0:0:
64,192,59413,128,2,59756:0:0:0:0:
448,192,59413,1,0,0:0:0:0:
192,192,59584,128,8,59927:0:0:0:0:
320,192,59584,1,0,0:0:0:0:
448,192,59584,1,0,0:0:0:0:
320,192,59756,128,0,59927:0:0:0:0:
64,192,59927,1,2,0:0:0:0:
448,192,59927,1,0,0:0:0:0:
448,192,60098,128,0,60441:0:0:0:0:
64,192,60270,1,8,0:0:0:0:
192,192,60270,1,0,0:0:0:0:
320,192,60270,128,0,60613:0:0:0:0:
192,192,60441,128,0,60613:0:0:0:0:
64,192,60613,128,2,60956:0:0:0:0:
448,192,60613,1,0,0:0:0:0:
192,192,60784,1,2,0:0:0:0:
320,192,60784,128,0,60956:0:0:0:0:
192,192,60956,128,8,61298:0:0:0:0:
448,192,60956,1,0,0:0:0:0:
448,192,61127,128,0,61298:0:0:0:0:
64,192,61298,128,2,61641:0:0:0:0:
320,192,61298,1,0,0:0:0:0:
192,192,61470,1,0,0:0:0:0:
192,192,61641,1,8,0:0:0:0:
320,192,61641,1,0,0:0:0:0:
448,192,61641,128,0,61984:0:0:0:0:
320,192,61813,1,0,0:0:0:0:
64,192,61984,1,2,0:0:0:0:
192,192,61984,128,0,62156:0:0:0:0:
320,192,62156,1,2,0:0:0:0:
448,192,62156,1,0,0:0:0:0:
64,192,62327,1,8,0:0:0:0:
192,192,62327,128,0,62498:0:0:0:0:
448,192,62327,1,0,0:0:0:0:
320,192,62498,128,0,63013:0:0:0:0:
64,192,62670,1,2,0:0:0:0:
448,192,62670,1,0,0:0:0:0:
192,192,62841,1,0,0:0:0:0:
64,192,63013,1,8,0:0:0:0:
192,192,63013,1,0,0:0:0:0:
448,192,63013,1,0,0:0:0:0:
448,192,63184,128,0,63356:0:0:0:0:
64,192,63356,1,2,0:0:0:0:
320,192,63356,1,0,0:0:0:0:
64,192,63527,128,2,63698:0:0:0:0:
192,192,63527,1,0,0:0:0:0:
192,192,63698,1,8,0:0:0:0:
320,192,63698,1,0,0:0:0:0:
448,192,63698,1,0,0:0:0:0:
64,192,63870,1,8,0:0:0:0:
448,192,63870,1,0,0:0:0:0:
320,192,63956,1,8,0:0:0:0:
64,192,64041,1,2,0:0:0:0:
192,192,64041,1,4,0:0:0:0:
448,192,64041,128,0,64384:0:0:0:0:
64,192,64384,1,8,0:0:0:0:
192,192,64384,128,0,64727:0:0:0:0:
320,192,64384,1,0,0:0:0:0:
64,192,64556,128,0,65413:0:0:0:0:
320,192,64727,1,2,0:0:0:0:
448,192,64727,1,0,0:0:0:0:
192,192,64898,1,2,0:0:0:0:
448,192,64898,1,0,0:0:0:0:
192,192,65070,1,8,0:0:0:0:
320,192,65070,1,0,0:0:0:0:
448,192,65070,1,0,0:0:0:0:
320,192,65241,1,0,0:0:0:0:
192,192,65413,1,2,0:0:0:0:
448,192,65413,1,0,0:0:0:0:
320,192,65584,1,0,0:0:0:0:
64,192,65756,1,8,0:0:0:0:
192,192,65756,1,0,0:0:0:0:
448,192,65756,128,0,66098:0:0:0:0:
320,192,65927,1,0,0:0:0:0:
64,192,66098,1,2,0:0:0:0:
320,192,66098,128,0,66441:0:0:0:0:
192,192,66270,1,2,0:0:0:0:
64,192,66441,1,8,0:0:0:0:
192,192,66441,128,0,66784:0:0:0:0:
448,192,66441,1,0,0:0:0:0:
320,192,66613,1,0,0:0:0:0:
64,192,66784,1,2,0:0:0:0:
320,192,66784,1,4,0:0:0:0:
448,192,66784,128,0,67127:0:0:0:0:
64,192,67127,128,8,67470:0:0:0:0:
192,192,67127,1,0,0:0:0:0:
320,192,67127,1,0,0:0:0:0:
192,192,67298,128,0,67641:0:0:0:0:
320,192,67470,1,2,0:0:0:0:
448,192,67470,1,0,0:0:0:0:
64,192,67641,1,2,0:0:0:0:
448,192,67641,128,0,67984:0:0:0:0:
64,192,67813,1,8,0:0:0:0:
192,192,67813,1,0,0:0:0:0:
320,192,67813,128,0,68156:0:0:0:0:
192,192,67984,1,0,0:0:0:0:
64,192,68156,128,4,68498:0:0:0:0:
192,192,68156,1,2,0:0:0:0:
448,192,68156,1,0,0:0:0:0:
320,192,68327,1,0,0:0:0:0:
192,192,68498,1,8,0:0:0:0:
320,192,68498,128,0,68841:0:0:0:0:
448,192,68498,1,0,0:0:0:0:
64,192,68670,1,2,0:0:0:0:
192,192,68670,128,0,69184:0:0:0:0:
448,192,68841,1,0,0:0:0:0:
64,192,69013,1,2,0:0:0:0:
320,192,69013,1,0,0:0:0:0:
64,192,69184,1,8,0:0:0:0:
320,192,69184,1,0,0:0:0:0:
448,192,69184,1,0,0:0:0:0:
448,192,69356,128,0,69527:0:0:0:0:
64,192,69527,128,2,69870:0:0:0:0:
192,192,69527,1,4,0:0:0:0:
320,192,69527,1,0,0:0:0:0:
192,192,69870,1,8,0:0:0:0:
320,192,69870,128,0,70213:0:0:0:20:Hat Open2.wav
448,192,69870,1,0,0:0:0:0:
192,192,70041,128,0,70213:0:0:0:0:
64,192,70213,1,0,0:0:0:20:Hat Open2.wav
192,192,70384,1,2,0:0:0:0:
448,192,70384,1,0,0:0:0:0:
64,192,70556,1,8,0:0:0:0:
320,192,70556,1,0,0:0:0:20:Hat Open2.wav
448,192,70556,128,0,70898:0:0:0:0:
192,192,70727,1,0,0:0:0:0:
64,192,70898,128,4,71413:0:0:0:0:
192,192,70898,1,2,0:0:0:0:
320,192,70898,1,0,0:0:0:0:
192,192,71241,1,8,0:0:0:0:
320,192,71241,1,0,0:0:0:20:Hat Open2.wav
448,192,71241,1,0,0:0:0:0:
320,192,71413,128,2,71927:0:0:0:0:
448,192,71413,1,0,0:0:0:0:
192,192,71584,1,0,0:0:0:20:Hat Open2.wav
64,192,71756,1,2,0:0:0:0:
448,192,71756,1,0,0:0:0:0:
64,192,71927,1,8,0:0:0:0:
192,192,71927,128,0,72270:0:0:0:20:Hat Open2.wav
448,192,71927,1,0,0:0:0:0:
64,192,72270,1,2,0:0:0:0:
320,192,72270,1,4,0:0:0:0:
448,192,72270,128,0,73641:0:0:0:0:
192,192,72441,1,0,0:0:0:0:
64,192,72613,1,8,0:0:0:0:
192,192,72613,1,0,0:0:0:20:Hat Open2.wav
320,192,72613,1,0,0:0:0:0:
320,192,72784,1,0,0:0:0:0:
192,192,72956,1,0,0:0:0:20:Hat Open2.wav
64,192,73127,1,2,0:0:0:0:
320,192,73127,1,0,0:0:0:0:
64,192,73298,1,8,0:0:0:0:
192,192,73298,1,0,0:0:0:20:Hat Open2.wav
320,192,73298,1,0,0:0:0:0:
64,192,73470,1,2,0:0:0:0:
192,192,73470,1,0,0:0:0:0:
320,192,73641,1,0,0:0:0:20:Hat Open2.wav
64,192,73813,1,2,0:0:0:0:
448,192,73813,1,0,0:0:0:0:
192,192,73984,1,8,0:0:0:0:
320,192,73984,1,0,0:0:0:20:Hat Open2.wav
448,192,73984,1,0,0:0:0:0:
64,192,74156,1,2,0:0:0:0:
320,192,74156,1,0,0:0:0:0:
192,192,74327,1,0,0:0:0:20:Hat Open2.wav
320,192,74498,1,2,0:0:0:0:
448,192,74498,1,0,0:0:0:0:
64,192,74670,1,8,0:0:0:0:
192,192,74670,1,0,0:0:0:0:
448,192,74670,1,0,0:0:0:0:
64,192,74841,1,8,0:0:0:0:
320,192,74841,1,0,0:0:0:0:
192,192,74927,1,8,0:0:0:0:
64,192,75013,128,2,75441:0:0:0:0:
320,192,75013,128,4,75270:0:0:0:0:
448,192,75013,128,0,75441:0:0:0:0:
192,192,75356,128,8,75441:0:0:0:0:
320,192,75356,128,0,75784:0:0:0:0:
64,192,75527,128,2,75956:0:0:0:0:
192,192,75527,128,0,75956:0:0:0:0:
448,192,75527,128,0,75784:0:0:0:0:
320,192,75870,128,8,75956:0:0:0:0:
448,192,75870,128,0,75956:0:0:0:0:
64,192,76041,128,2,76556:0:0:0:0:
192,192,76041,1,4,0:0:0:0:
320,192,76041,1,0,0:0:0:0:
448,192,76041,128,0,77070:0:0:0:0:
192,192,76556,1,2,0:0:0:0:
320,192,76556,1,0,0:0:0:0:
64,192,76727,1,8,0:0:0:0:
192,192,76727,1,0,0:0:0:0:
320,192,76727,1,0,0:0:0:0:
64,192,77070,1,8,0:0:0:0:
192,192,77070,1,0,0:0:0:0:
320,192,77070,1,0,0:0:0:0:
64,192,77241,1,2,0:0:0:0:
448,192,77241,1,0,0:0:0:0:
192,192,77413,1,8,0:0:0:0:
320,192,77413,1,0,0:0:0:0:
448,192,77413,1,0,0:0:0:0:
64,192,77584,1,8,0:0:0:0:
320,192,77584,1,0,0:0:0:0:
192,192,77670,1,8,0:0:0:0:
64,192,77756,128,2,78184:0:0:0:0:
320,192,77756,128,4,78013:0:0:0:0:
448,192,77756,128,0,78184:0:0:0:0:
192,192,78098,128,8,78184:0:0:0:0:
320,192,78098,128,0,78184:0:0:0:0:
64,192,78270,128,2,78698:0:0:0:0:
192,192,78270,128,0,78527:0:0:0:0:
448,192,78270,128,0,78698:0:0:0:0:
192,192,78613,128,8,78698:0:0:0:0:
320,192,78613,128,0,78698:0:0:0:0:
64,192,78784,128,2,78956:0:0:0:0:
192,192,78784,128,4,79041:0:0:0:0:
320,192,78784,128,0,79127:0:0:0:0:
448,192,78784,128,0,79213:0:0:0:0:
192,192,79298,1,0,0:0:0:0:
64,192,79470,1,8,0:0:0:0:
448,192,79470,1,0,0:0:0:0:
64,192,79641,1,8,0:0:0:0:
448,192,79641,1,0,0:0:0:0:
64,192,79813,1,8,0:0:0:0:
192,192,79813,1,0,0:0:0:0:
320,192,79813,1,0,0:0:0:0:
64,192,79984,1,8,0:0:0:0:
192,192,79984,1,0,0:0:0:0:
320,192,79984,1,0,0:0:0:0:
192,192,80156,1,8,0:0:0:0:
320,192,80156,1,0,0:0:0:0:
448,192,80156,1,0,0:0:0:0:
192,192,80327,1,8,0:0:0:0:
320,192,80327,1,0,0:0:0:0:
448,192,80327,1,0,0:0:0:0:
320,192,80498,128,0,80670:0:0:0:0:
448,192,80498,128,0,80841:0:0:0:0:
64,192,80498,1,0,0:0:0:0:
64,192,80670,128,0,81698:0:0:0:0:
192,192,80841,128,0,81698:0:0:0:0:
320,192,81013,128,0,81698:0:0:0:0:
448,192,81013,128,0,81698:0:0:0:0:
448,192,81870,1,0,0:0:0:0:
192,192,81870,128,0,82041:0:0:0:0:
64,192,81870,128,0,82213:0:0:0:0:
448,192,82041,128,0,83070:0:0:0:0:
320,192,82213,128,0,83070:0:0:0:0:
192,192,82384,128,0,83070:0:0:0:0:
64,192,82384,128,0,83070:0:0:0:0:
448,192,83241,128,0,83584:0:0:0:0:
320,192,83241,128,0,83413:0:0:0:0:
64,192,83241,1,0,0:0:0:0:
64,192,83413,128,0,83927:0:0:0:0:
192,192,83584,128,0,83927:0:0:0:0:
448,192,83756,128,0,84270:0:0:0:0:
320,192,83756,128,0,84441:0:0:0:0:
192,192,84098,128,0,84441:0:0:0:0:
64,192,84098,128,0,84441:0:0:0:0:
448,192,84441,1,0,0:0:0:0:
64,192,84613,128,0,85641:0:0:0:0:
448,192,84613,128,0,85641:0:0:0:0:
192,192,85298,128,0,85641:0:0:0:0:
320,192,85298,128,0,85641:0:0:0:0:
64,192,85813,1,0,0:0:0:0:
192,192,85856,1,0,0:0:0:0:
320,192,85898,1,0,0:0:0:0:
448,192,85941,1,0,0:0:0:0:
64,192,85984,128,0,88727:0:0:0:0:
192,192,85984,128,0,88727:0:0:0:0:
