osu file format v14

[General]
AudioFilename: audio.mp3
AudioLeadIn: 0
PreviewTime: 52556
Countdown: 0
SampleSet: Soft
StackLeniency: 0.7
Mode: 3
LetterboxInBreaks: 0
SpecialStyle: 0
WidescreenStoryboard: 1

[Editor]
DistanceSpacing: 1
BeatDivisor: 4
GridSize: 32
TimelineZoom: 2.3

[Metadata]
Title:Gravity (TV Size)
TitleUnicode:Gravity (TV Size)
Artist:ClariS
ArtistUnicode:ClariS
Creator:Savageeeee
Version:Easy
Source:クオリディア・コード
Tags:FerdiXIA- Qualidea Code japanese anime pop jpop j-pop Clara Karen ending ed Fairy Castle
BeatmapID:4493242
BeatmapSetID:2134903

[Difficulty]
HPDrainRate:7
CircleSize:4
OverallDifficulty:7
ApproachRate:5
SliderMultiplier:1.4
SliderTickRate:1

[Events]
//Background and Video events
0,0,"bg.jpg",0,0
//Break Periods
//Storyboard Layer 0 (Background)
//Storyboard Layer 1 (Fail)
//Storyboard Layer 2 (Pass)
//Storyboard Layer 3 (Foreground)
//Storyboard Layer 4 (Overlay)
//Storyboard Sound Samples
Sample,15013,0,"Hat Open2.wav",20
Sample,15698,0,"Hat Open2.wav",20
Sample,16041,0,"Hat Open2.wav",20
Sample,16384,0,"Hat Open2.wav",20
Sample,17070,0,"Hat Open2.wav",20
Sample,17756,0,"Hat Open2.wav",20
Sample,35241,0,"Hat Open2.wav",20
Sample,35584,0,"Hat Open2.wav",20
Sample,35927,0,"Hat Open2.wav",20
Sample,36270,0,"Hat Open2.wav",20
Sample,39013,0,"Hat Open2.wav",20
Sample,39698,0,"Hat Open2.wav",20
Sample,40384,0,"Hat Open2.wav",20
Sample,40727,0,"Hat Open2.wav",20
Sample,47927,0,"Hat Open2.wav",20
Sample,48270,0,"Hat Open2.wav",20
Sample,48613,0,"Hat Open2.wav",20
Sample,48956,0,"Hat Open2.wav",20
Sample,49298,0,"Hat Open2.wav",20
Sample,49641,0,"Hat Open2.wav",20
Sample,49984,0,"Hat Open2.wav",20
Sample,69870,0,"Hat Open2.wav",20
Sample,70556,0,"Hat Open2.wav",20
Sample,71241,0,"Hat Open2.wav",20
Sample,71927,0,"Hat Open2.wav",20
Sample,72613,0,"Hat Open2.wav",20
Sample,73298,0,"Hat Open2.wav",20
Sample,73984,0,"Hat Open2.wav",20

[TimingPoints]
956,342.857142857143,4,2,1,50,1,0
53070,-100,4,2,1,50,0,1
80498,-100,4,2,1,50,0,0

[HitObjects]
64,192,955,5,0,0:0:0:0:
448,192,955,128,0,1470:0:0:0:0:
192,192,1470,128,0,1984:0:0:0:0:
320,192,1984,128,0,2327:0:0:0:0:
64,192,2670,128,0,3013:0:0:0:0:
192,192,3013,128,0,3356:0:0:0:0:
320,192,3356,128,0,3698:0:0:0:0:
64,192,3698,128,0,4041:0:0:0:0:
320,192,4041,1,0,0:0:0:0:
448,192,4213,128,0,5070:0:0:0:0:
192,192,5070,128,0,5413:0:0:0:0:
320,192,5413,1,0,0:0:0:0:
64,192,5584,128,0,6441:0:0:0:0:
448,192,6441,128,0,6784:0:0:0:0:
192,192,6784,1,0,0:0:0:0:
320,192,6956,128,0,7298:0:0:0:0:
64,192,7298,128,0,7641:0:0:0:0:
448,192,7641,1,0,0:0:0:0:
320,192,7813,128,0,8498:0:0:0:0:
192,192,8498,128,0,9184:0:0:0:0:
64,192,9184,1,2,0:0:0:0:
448,192,9184,128,4,10041:0:0:0:0:
64,192,10041,1,0,0:0:0:0:
192,192,10213,1,8,0:0:0:0:
320,192,10384,128,0,10898:0:0:0:0:
64,192,10898,128,8,11241:0:0:0:0:
448,192,11241,128,2,11584:0:0:0:0:
192,192,11584,128,8,11927:0:0:0:0:
320,192,11927,128,2,12270:0:0:0:0:
448,192,12270,128,8,12613:0:0:0:0:
64,192,12613,1,2,0:0:0:0:
320,192,12784,1,0,0:0:0:0:
64,192,13127,128,0,13641:0:0:0:0:
448,192,13641,128,8,13984:0:0:0:0:
320,192,13984,128,2,14327:0:0:0:0:
192,192,14327,128,8,14670:0:0:0:0:
64,192,14670,128,2,15013:0:0:0:0:
448,192,14670,1,4,0:0:0:0:
192,192,15013,1,8,0:0:0:0:
320,192,15184,128,0,15698:0:0:0:0:
64,192,15698,1,8,0:0:0:0:
448,192,16041,1,2,0:0:0:0:
320,192,16213,1,0,0:0:0:0:
192,192,16384,1,8,0:0:0:0:
64,192,16556,128,2,16898:0:0:0:0:
320,192,16898,1,2,0:0:0:0:
192,192,17070,128,8,17413:0:0:0:0:
64,192,17413,1,2,0:0:0:0:
448,192,17413,128,4,17756:0:0:0:0:
320,192,17756,1,8,0:0:0:0:
192,192,17927,128,0,18270:0:0:0:0:
448,192,18270,1,8,0:0:0:0:
64,192,18441,128,0,18784:0:0:0:20:Hat Open2.wav
320,192,18784,1,4,0:0:0:0:
448,192,18784,128,2,20156:0:0:0:0:
64,192,20156,1,0,0:0:0:0:
192,192,20156,1,0,0:0:0:0:
320,192,20670,1,0,0:0:0:0:
192,192,21013,1,0,0:0:0:0:
64,192,21527,1,0,0:0:0:0:
448,192,21527,1,0,0:0:0:0:
192,192,22041,1,0,0:0:0:0:
320,192,22384,1,0,0:0:0:0:
64,192,22898,1,0,0:0:0:0:
448,192,22898,1,0,0:0:0:0:
320,192,23070,1,0,0:0:0:0:
192,192,23241,1,0,0:0:0:0:
64,192,23413,1,0,0:0:0:0:
448,192,23756,1,0,0:0:0:0:
64,192,24270,1,0,0:0:0:0:
192,192,24270,1,0,0:0:0:0:
320,192,24441,1,0,0:0:0:0:
448,192,24613,1,0,0:0:0:0:
64,192,24784,1,0,0:0:0:0:
320,192,25127,1,0,0:0:0:0:
192,192,25298,1,0,0:0:0:0:
64,192,25641,1,2,0:0:0:0:
448,192,25641,1,0,0:0:0:0:
320,192,26156,1,2,0:0:0:0:
192,192,27013,1,2,0:0:0:0:
448,192,27013,1,0,0:0:0:0:
64,192,27527,1,2,0:0:0:0:
320,192,28384,1,2,0:0:0:0:
448,192,28384,1,0,0:0:0:0:
192,192,28898,1,2,0:0:0:0:
320,192,29413,128,0,29756:0:0:0:0:
64,192,29756,1,2,0:0:0:0:
448,192,29756,1,4,0:0:0:0:
192,192,30098,1,8,0:0:0:0:
320,192,30270,1,2,0:0:0:0:
448,192,30270,1,4,0:0:0:0:
64,192,30613,1,8,0:0:0:0:
192,192,30784,1,0,0:0:0:25:tom4.wav
320,192,30956,1,0,0:0:0:30:tom3.wav
64,192,31127,1,4,0:0:0:0:
448,192,31127,1,2,0:0:0:0:
192,192,31470,1,8,0:0:0:0:
320,192,31813,1,2,0:0:0:0:
192,192,32156,1,8,0:0:0:0:
320,192,32498,1,2,0:0:0:0:
448,192,32498,1,0,0:0:0:0:
64,192,32841,1,8,0:0:0:0:
448,192,33184,1,2,0:0:0:0:
320,192,33527,1,8,0:0:0:0:
64,192,33870,1,2,0:0:0:0:
192,192,33870,1,0,0:0:0:0:
448,192,34213,1,8,0:0:0:0:
64,192,34556,1,2,0:0:0:0:
192,192,34898,1,8,0:0:0:0:
320,192,35241,1,2,0:0:0:0:
192,192,35584,1,8,0:0:0:0:
448,192,35927,1,2,0:0:0:0:
64,192,36098,1,8,0:0:0:0:
320,192,36270,1,10,0:0:0:0:
192,192,36441,1,8,0:0:0:0:
320,192,36613,1,2,0:0:0:0:
448,192,36613,128,4,36956:0:0:0:0:
64,192,36956,1,8,0:0:0:0:
320,192,37127,128,6,37470:0:0:0:0:
192,192,37470,1,2,0:0:0:0:
448,192,37641,1,8,0:0:0:0:
64,192,37813,128,2,38156:0:0:0:0:
320,192,38156,1,2,0:0:0:0:
192,192,38327,1,8,0:0:0:0:
448,192,38498,128,6,38841:0:0:0:0:
64,192,38841,1,2,0:0:0:0:
320,192,39013,1,8,0:0:0:0:
64,192,39356,128,2,39698:0:0:0:0:
448,192,39356,1,4,0:0:0:0:
192,192,39698,1,8,0:0:0:0:
320,192,39870,128,0,40213:0:0:0:0:
64,192,40213,1,2,0:0:0:0:
448,192,40384,1,8,0:0:0:0:
192,192,40727,128,2,41070:0:0:0:0:
320,192,41070,1,8,0:0:0:0:
64,192,41241,1,0,0:0:0:25:tom3.wav
448,192,41413,1,0,0:0:0:25:tom3.wav
320,192,41584,1,0,0:0:0:30:tom4.wav
192,192,41756,1,0,0:0:0:30:tom4.wav
64,192,42098,1,2,0:0:0:0:
448,192,42098,1,4,0:0:0:0:
192,192,42613,1,2,0:0:0:0:
320,192,42784,1,8,0:0:0:0:
448,192,43298,1,2,0:0:0:0:
64,192,43641,1,8,0:0:0:0:
320,192,43984,1,2,0:0:0:0:
192,192,44156,1,8,0:0:0:0:
448,192,44498,1,2,0:0:0:0:
64,192,44841,1,2,0:0:0:0:
192,192,44841,1,0,0:0:0:0:
320,192,45356,1,2,0:0:0:0:
64,192,45527,1,8,0:0:0:0:
448,192,46041,1,2,0:0:0:0:
192,192,46384,1,8,0:0:0:0:
320,192,46727,1,0,0:0:0:0:
64,192,46898,1,8,0:0:0:0:
448,192,47070,1,0,0:0:0:30:tom4.wav
192,192,47241,128,0,47584:0:0:0:30:tom4.wav
64,192,47584,1,2,0:0:0:0:
448,192,47584,1,4,0:0:0:0:
320,192,47927,1,8,0:0:0:0:
64,192,48270,1,2,0:0:0:0:
192,192,48441,1,2,0:0:0:0:
320,192,48613,1,8,0:0:0:0:
64,192,48956,1,2,0:0:0:0:
448,192,49298,1,8,0:0:0:0:
192,192,49641,1,2,0:0:0:0:
320,192,49813,1,2,0:0:0:0:
64,192,49984,1,8,0:0:0:0:
448,192,50156,1,8,0:0:0:0:
64,192,50327,1,4,0:0:0:0:
192,192,50327,1,2,0:0:0:0:
320,192,50670,1,8,0:0:0:0:
64,192,50841,1,2,0:0:0:0:
448,192,50841,1,0,0:0:0:20:Hat Open2.wav
192,192,51184,1,2,0:0:0:0:
320,192,51356,1,8,0:0:0:0:
448,192,51356,1,4,0:0:0:0:
64,192,51698,1,2,0:0:0:0:
448,192,51870,128,8,52213:0:0:0:0:
192,192,52213,128,0,52556:0:0:0:30:tom3.wav
320,192,52556,1,0,0:0:0:30:tom4.wav
64,192,52727,128,0,53070:0:0:0:30:tom4.wav
320,192,53070,1,4,0:0:0:0:
448,192,53070,1,2,0:0:0:0:
192,192,53413,1,8,0:0:0:0:
448,192,53756,1,2,0:0:0:0:
64,192,53927,1,2,0:0:0:0:
320,192,54098,1,8,0:0:0:0:
192,192,54441,1,2,0:0:0:0:
448,192,54784,1,8,0:0:0:0:
64,192,55127,1,2,0:0:0:0:
192,192,55298,1,2,0:0:0:0:
320,192,55470,1,8,0:0:0:0:
64,192,55813,1,2,0:0:0:0:
448,192,56156,1,8,0:0:0:0:
192,192,56498,1,2,0:0:0:0:
320,192,56670,1,2,0:0:0:0:
64,192,56841,1,8,0:0:0:0:
448,192,57184,1,2,0:0:0:0:
192,192,57527,1,8,0:0:0:0:
320,192,57870,1,2,0:0:0:0:
64,192,58041,1,2,0:0:0:0:
448,192,58213,1,8,0:0:0:0:
192,192,58384,1,8,0:0:0:0:
320,192,58556,1,2,0:0:0:0:
448,192,58556,1,4,0:0:0:0:
64,192,58898,1,8,0:0:0:0:
448,192,59241,1,2,0:0:0:0:
320,192,59413,1,2,0:0:0:0:
192,192,59584,1,8,0:0:0:0:
448,192,59927,1,2,0:0:0:0:
64,192,60270,1,8,0:0:0:0:
320,192,60613,1,2,0:0:0:0:
192,192,60784,1,2,0:0:0:0:
448,192,60956,1,8,0:0:0:0:
64,192,61298,1,2,0:0:0:0:
320,192,61641,1,8,0:0:0:0:
192,192,61984,1,2,0:0:0:0:
448,192,62156,1,2,0:0:0:0:
64,192,62327,1,8,0:0:0:0:
320,192,62670,1,2,0:0:0:0:
192,192,63013,1,8,0:0:0:0:
448,192,63356,1,2,0:0:0:0:
64,192,63527,1,2,0:0:0:0:
192,192,63698,1,8,0:0:0:0:
320,192,63870,1,8,0:0:0:0:
64,192,64041,1,2,0:0:0:0:
448,192,64041,1,4,0:0:0:0:
192,192,64384,1,8,0:0:0:0:
320,192,64727,1,2,0:0:0:0:
192,192,64898,1,2,0:0:0:0:
64,192,65070,1,8,0:0:0:0:
448,192,65413,1,2,0:0:0:0:
320,192,65756,1,8,0:0:0:0:
64,192,66098,1,2,0:0:0:0:
192,192,66270,1,2,0:0:0:0:
320,192,66441,1,8,0:0:0:0:
64,192,66784,1,2,0:0:0:0:
192,192,66784,1,4,0:0:0:0:
448,192,67127,1,8,0:0:0:0:
64,192,67470,1,2,0:0:0:0:
320,192,67641,1,2,0:0:0:0:
192,192,67813,1,8,0:0:0:0:
320,192,68156,1,4,0:0:0:0:
448,192,68156,1,2,0:0:0:0:
64,192,68498,1,8,0:0:0:0:
320,192,68670,1,2,0:0:0:0:
448,192,69013,1,2,0:0:0:0:
192,192,69184,1,8,0:0:0:0:
64,192,69527,1,2,0:0:0:0:
448,192,69527,1,4,0:0:0:0:
320,192,69870,1,8,0:0:0:0:
64,192,70213,1,0,0:0:0:20:Hat Open2.wav
192,192,70384,1,2,0:0:0:0:
320,192,70556,1,8,0:0:0:0:
64,192,70898,1,6,0:0:0:0:
448,192,71241,1,8,0:0:0:0:
192,192,71413,1,2,0:0:0:0:
64,192,71756,1,2,0:0:0:0:
320,192,71927,1,8,0:0:0:0:
64,192,72270,1,2,0:0:0:0:
448,192,72270,1,4,0:0:0:0:
192,192,72613,1,8,0:0:0:0:
320,192,72784,1,0,0:0:0:0:
448,192,73127,1,2,0:0:0:0:
320,192,73298,1,8,0:0:0:0:
192,192,73470,1,2,0:0:0:0:
64,192,73813,1,2,0:0:0:0:
192,192,73984,1,8,0:0:0:0:
320,192,74156,1,2,0:0:0:0:
64,192,74498,1,2,0:0:0:0:
448,192,74670,1,8,0:0:0:0:
320,192,74841,1,8,0:0:0:0:
64,192,75013,1,2,0:0:0:0:
192,192,75013,128,4,75356:0:0:0:0:
320,192,75356,1,8,0:0:0:0:
64,192,75527,128,2,75870:0:0:0:0:
448,192,75527,1,0,0:0:0:0:
192,192,75870,1,8,0:0:0:0:
320,192,76041,128,2,76556:0:0:0:0:
448,192,76041,1,4,0:0:0:0:
64,192,76556,1,2,0:0:0:0:
448,192,76727,1,8,0:0:0:0:
448,192,77070,1,8,0:0:0:0:
192,192,77241,1,2,0:0:0:0:
448,192,77413,1,8,0:0:0:0:
320,192,77584,1,8,0:0:0:0:
64,192,77756,1,2,0:0:0:0:
192,192,77756,128,4,78098:0:0:0:0:
320,192,78098,1,8,0:0:0:0:
64,192,78270,128,2,78613:0:0:0:0:
448,192,78270,1,0,0:0:0:0:
192,192,78613,1,8,0:0:0:0:
320,192,78784,1,2,0:0:0:0:
448,192,78784,128,4,79470:0:0:0:0:
64,192,79470,128,8,79813:0:0:0:0:
192,192,79813,128,8,80156:0:0:0:0:
320,192,80156,128,8,80498:0:0:0:0:
64,192,80498,128,0,80841:0:0:0:0:
448,192,80841,1,0,0:0:0:0:
192,192,81013,1,0,0:0:0:0:
320,192,81870,128,0,82213:0:0:0:0:
64,192,82213,1,0,0:0:0:0:
448,192,82384,1,0,0:0:0:0:
192,192,83241,128,0,83584:0:0:0:0:
320,192,83584,1,0,0:0:0:0:
64,192,83756,1,0,0:0:0:0:
448,192,84098,1,0,0:0:0:0:
192,192,84441,1,0,0:0:0:0:
320,192,84613,128,0,85298:0:0:0:0:
64,192,85298,128,0,85813:0:0:0:0:
192,192,85813,1,0,0:0:0:0:
448,192,85984,128,0,88727:0:0:0:0:
320,192,85984,1,0,0:0:0:0:
