osu file format v14

[General]
AudioFilename: audio.mp3
AudioLeadIn: 0
PreviewTime: 184030
Countdown: 0
SampleSet: Soft
StackLeniency: 0.5
Mode: 0
LetterboxInBreaks: 0
WidescreenStoryboard: 1

[Editor]
Bookmarks: 52973,118801,170914,190116
DistanceSpacing: 1
BeatDivisor: 4
GridSize: 32
TimelineZoom: 1.9

[Metadata]
Title:Gravity
TitleUnicode:Gravity
Artist:ClariS
ArtistUnicode:ClariS
Creator:Ayana
Version:Hard
Source:クオリディア・コード
Tags:Qualidea Code japanese anime pop jpop j-pop Clara Karen ending ed Fairy Castle full size length version Mayu Sakuma Xexyz Azunyan-
BeatmapID:3367062
BeatmapSetID:1608616

[Difficulty]
HPDrainRate:4
CircleSize:3.6
OverallDifficulty:6
ApproachRate:8
SliderMultiplier:1.4
SliderTickRate:1

[Events]
//Background and Video events
0,0,"chigusa_asuha_wallpaper267762.jpg",0,0
//Break Periods
2,86086,94736
2,171114,178393
//Storyboard Layer 0 (Background)
//Storyboard Layer 1 (Fail)
//Storyboard Layer 2 (Pass)
//Storyboard Layer 3 (Foreground)
//Storyboard Layer 4 (Overlay)
//Storyboard Sound Samples

[TimingPoints]
-514,342.857142857143,4,2,1,40,1,0
3600,-166.666666666667,4,2,1,40,0,0
9000,-166.666666666667,4,2,1,5,0,0
9086,-100,4,2,1,60,0,0
17571,-100,4,2,1,5,0,0
17657,-100,4,2,1,60,0,0
18686,-133.333333333333,4,2,1,60,0,0
19886,-133.333333333333,4,2,1,5,0,0
20057,-166.666666666667,4,2,1,40,0,0
29571,-166.666666666667,4,2,1,5,0,0
29657,-111.111111111111,4,2,1,60,0,0
37286,-111.111111111111,4,2,1,5,0,0
37371,-111.111111111111,4,2,1,60,0,0
37971,-111.111111111111,4,2,1,5,0,0
38057,-111.111111111111,4,2,1,60,0,0
42171,-133.333333333333,4,2,1,60,0,0
47486,-100,4,2,1,60,0,0
47743,-100,4,2,1,5,0,0
47828,-100,4,2,1,60,0,0
51000,-100,4,2,1,5,0,0
51086,-100,4,2,1,60,0,0
52971,-90.9090909090909,4,2,1,80,0,1
72086,-90.9090909090909,4,2,1,5,0,1
72171,-90.9090909090909,4,2,1,80,0,1
73628,-90.9090909090909,4,2,1,5,0,1
73714,-90.9090909090909,4,2,1,80,0,1
79200,-90.9090909090909,4,2,1,60,0,1
79371,-90.9090909090909,4,2,1,65,0,1
79543,-90.9090909090909,4,2,1,70,0,1
79714,-90.9090909090909,4,2,1,75,0,1
79886,-90.9090909090909,4,2,1,80,0,1
80400,-166.666666666667,4,2,1,60,0,0
95486,-111.111111111111,4,2,1,60,0,0
103114,-111.111111111111,4,2,1,5,0,0
103200,-111.111111111111,4,2,1,60,0,0
107828,-133.333333333333,4,2,1,60,0,0
113228,-133.333333333333,4,2,1,5,0,0
113314,-100,4,2,1,60,0,0
116828,-100,4,2,1,5,0,0
116914,-100,4,2,1,60,0,0
117986,-100,4,2,1,40,0,0
118457,-100,4,2,1,80,0,0
118800,-90.9090909090909,4,2,1,80,0,1
131400,-90.9090909090909,4,2,1,5,0,1
131486,-90.9090909090909,4,2,1,80,0,1
136543,-90.9090909090909,4,2,1,5,0,1
136628,-90.9090909090909,4,2,1,80,0,1
137914,-90.9090909090909,4,2,1,5,0,1
138000,-90.9090909090909,4,2,1,80,0,1
146228,-100,4,2,1,60,0,0
167486,-133.333333333333,4,2,1,60,0,0
184628,-124.44444444444,4,2,1,60,0,0
185828,-124.44444444444,4,2,1,30,0,0
186000,-124.44444444444,4,2,1,60,0,0
190114,-90.9090909090909,4,2,1,80,0,1
205286,-90.9090909090909,4,2,1,5,0,1
205371,-90.9090909090909,4,2,1,80,0,1
225686,-90.9090909090909,4,2,1,5,0,1
225771,-90.9090909090909,4,2,1,80,0,1
231171,-90.9090909090909,4,2,1,5,0,1
231257,-90.9090909090909,4,2,1,80,0,1
232714,-90.9090909090909,4,2,1,5,0,1
232800,-90.9090909090909,4,2,1,80,0,1
233057,-90.9090909090909,4,2,1,5,0,1
233143,-90.9090909090909,4,2,1,80,0,1
233400,-90.9090909090909,4,2,1,5,0,1
233486,-90.9090909090909,4,2,1,80,0,1
239486,-166.666666666667,4,2,1,40,0,0

[Colours]
Combo1 : 250,180,240
Combo2 : 120,200,230
Combo3 : 255,230,130
Combo4 : 160,230,150

[HitObjects]
227,158,3600,6,0,P|235:138|244:119,3,41.9999987182618,2|0|0|0,0:0|0:0|0:0|0:0,0:0:0:0:
249,332,4971,2,0,P|261:348|273:366,3,41.9999987182618,2|0|0|0,0:0|0:0|0:0|0:0,0:0:0:0:
87,263,6343,2,0,P|66:265|45:266,2,41.9999987182618,2|0|0,0:0|0:0|0:0,0:0:0:0:
146,204,6857,2,0,P|127:145|118:106,2,83.9999974365235,2|2|2,0:0|0:0|0:0,0:0:0:0:
216,253,7714,2,0,B|282:260|267:213|353:231,1,125.999996154785,2|0,0:0|0:0,0:0:0:0:
419,258,8400,2,0,P|450:207|459:125,1,125.999996154785,2|0,0:0|0:0,0:0:0:0:
431,61,9086,5,4,0:0:0:0:
289,99,9428,2,0,P|214:84|125:72,1,140,8|8,0:0|0:1,0:0:0:0:
65,55,9943,1,2,0:0:0:0:
65,55,10114,1,10,0:0:0:0:
29,133,10286,6,0,L|68:273,1,140,2|0,0:0|0:0,0:0:0:0:
140,324,10800,2,0,P|177:304|222:295,1,70,8|0,0:0|0:0,0:0:0:0:
290,328,11143,2,0,P|327:348|372:357,1,70,8|0,0:1|0:0,0:0:0:0:
436,313,11486,1,8,0:0:0:0:
436,313,11657,1,0,0:0:0:0:
442,222,11828,2,0,P|409:197|282:180,1,140,4|8,0:3|0:0,0:0:0:0:
181,241,12514,1,8,0:1:0:0:
181,241,12686,2,0,L|110:258,1,70,2|8,0:0|0:0,0:0:0:0:
35,216,13028,6,0,B|23:151|70:150|48:74,1,140,2|0,0:0|0:0,0:0:0:0:
105,16,13543,2,0,P|139:24|178:39,1,70,8|0,0:0|0:0,0:0:0:0:
246,81,13886,2,0,P|280:73|319:58,1,70,8|0,0:1|0:0,0:0:0:0:
384,6,14228,1,8,0:0:0:0:
469,51,14400,1,8,0:0:0:0:
469,51,14486,1,8,0:0:0:0:
469,51,14571,6,0,L|432:191,1,140,4|8,0:0|0:0,0:0:0:0:
374,252,15086,2,0,P|307:232|222:196,1,140,2|8,0:0|0:1,0:0:0:0:
164,155,15600,2,0,P|132:164|96:182,1,70,8|0,0:0|0:0,0:0:0:0:
68,264,15943,2,0,P|-6:248|-22:238,2,70,10|2|10,0:1|0:0|0:0,0:0:0:0:
123,333,16457,2,0,L|276:365,1,140,10|10,0:1|0:1,0:0:0:0:
342,346,16971,1,8,0:0:0:0:
488,272,17314,6,0,P|497:205|481:135,1,140,4|8,0:0|0:0,0:0:0:0:
415,87,17828,2,0,B|338:79|354:125|271:111,1,140,2|8,0:0|0:0,0:0:0:0:
219,48,18343,1,0,0:0:0:0:
74,127,18686,6,0,P|10:191|175:312,1,367.500014019013,4|0,0:0|0:0,0:0:0:0:
227,237,20057,6,0,P|278:244|320:254,1,83.9999974365235,2|2,0:0|0:0,0:0:0:0:
400,236,20571,2,0,P|437:219|472:193,1,83.9999974365235,2|2,0:0|0:0,0:0:0:0:
427,43,21257,1,2,0:0:0:0:
427,43,21428,6,0,P|383:42|329:58,1,83.9999974365235,2|0,0:0|0:0,0:0:0:0:
282,108,21943,2,0,P|253:104|188:78,1,83.9999974365235,2|2,0:0|0:0,0:0:0:0:
26,116,22628,1,2,0:0:0:0:
26,116,22800,6,0,P|41:171|49:213,1,83.9999974365235,2|2,0:0|0:0,0:0:0:0:
102,264,23314,2,0,L|194:286,1,83.9999974365235,2|2,0:0|0:0,0:0:0:0:
354,288,24000,1,2,0:0:0:0:
354,288,24171,6,0,P|418:258|431:236,1,83.9999974365235,2|0,0:0|0:0,0:0:0:0:
469,169,24686,2,0,P|488:164|516:163,2,41.9999987182618,2|2|2,0:0|0:0|0:0,0:0:0:0:
406,108,25200,2,0,L|356:96,1,41.9999987182618,2|0,0:0|0:0,0:0:0:0:
288,142,25543,6,0,P|210:178|199:180,1,83.9999974365235,4|0,0:3|0:0,0:0:0:0:
126,186,26057,2,0,L|36:156,1,83.9999974365235,8|2,0:1|0:0,0:0:0:0:
79,0,26743,1,2,0:0:0:0:
147,50,26914,6,0,P|205:33|245:27,1,83.9999974365235,4|0,0:3|0:0,0:0:0:0:
310,13,27428,2,0,L|404:38,1,83.9999974365235,8|2,0:1|0:0,0:0:0:0:
512,123,28114,1,2,0:0:0:0:
452,174,28286,6,0,L|475:268,1,83.9999974365235,4|0,0:3|0:0,0:0:0:0:
444,334,28800,2,0,P|393:317|357:308,1,83.9999974365235,10|0,0:1|0:0,0:0:0:0:
278,286,29314,2,0,L|230:302,1,41.9999987182618,2|0,0:0|0:0,0:0:0:0:
156,352,29657,6,0,P|114:335|89:251,1,125.999996154785,4|8,0:0|0:0,0:0:0:0:
75,177,30171,2,0,B|108:172|136:189|136:189|173:184|214:144,1,125.999996154785,4|8,0:3|0:0,0:0:0:0:
261,106,30686,1,8,0:3:0:0:
261,106,30857,1,8,0:3:0:0:
318,174,31028,6,0,L|445:205,1,125.999996154785,4|8,0:0|0:0,0:0:0:0:
501,145,31543,2,0,P|506:112|505:73,1,62.9999980773926,2|8,0:0|0:1,0:0:0:0:
447,20,31886,2,0,L|374:3,1,62.9999980773926,2|8,0:0|0:0,0:0:0:0:
303,9,32228,1,2,0:0:0:0:
264,83,32400,6,0,P|214:93|129:101,1,125.999996154785,4|8,0:3|0:0,0:0:0:0:
58,87,32914,2,0,P|45:116|33:148,1,62.9999980773926,2|8,0:0|0:1,0:0:0:0:
52,225,33257,2,0,L|76:297,1,62.9999980773926,2|8,0:0|0:0,0:0:0:0:
121,353,33600,1,2,0:0:0:0:
188,298,33771,6,0,P|258:276|317:265,1,125.999996154785,4|8,0:3|0:0,0:0:0:0:
386,302,34286,2,0,L|467:325,1,62.9999980773926,2|8,0:0|0:1,0:0:0:0:
499,249,34628,2,0,P|509:198|508:171,1,62.9999980773926,2|8,0:0|0:0,0:0:0:0:
459,111,34971,6,0,P|403:112|331:141,1,125.999996154785,2|2,0:0|0:0,0:0:0:0:
280,196,35486,1,8,0:0:0:0:
280,196,35657,2,0,L|199:181,1,62.9999980773926,2|8,0:0|0:1,0:0:0:0:
149,151,36000,1,8,0:0:0:0:
93,216,36171,1,8,0:0:0:0:
25,178,36343,1,8,0:0:0:0:
25,178,36428,1,8,0:0:0:0:
25,178,36514,6,0,B|16:111|56:129|31:40,1,125.999996154785,4|8,0:0|0:0,0:0:0:0:
112,9,37028,2,0,P|231:43|255:47,1,125.999996154785,8|8,0:1|0:1,0:0:0:0:
309,77,37543,1,8,0:0:0:0:
367,15,37714,2,0,P|393:18|435:33,1,62.9999980773926,4|0,0:0|0:0,0:0:0:0:
480,98,38057,2,0,L|493:170,1,62.9999980773926,8|8,0:1|0:0,0:0:0:0:
455,238,38400,2,0,P|401:249|317:242,1,125.999996154785,4|8,0:0|0:1,0:0:0:0:
254,209,38914,1,8,0:0:0:0:
254,209,39086,1,2,0:0:0:0:
204,281,39257,6,0,L|70:254,1,125.999996154785,4|8,0:0|0:0,0:0:0:0:
14,198,39771,2,0,P|5:146|60:76,1,125.999996154785,2|8,0:0|0:1,0:0:0:0:
111,37,40286,1,8,0:0:0:0:
111,37,40457,1,2,0:0:0:0:
171,94,40628,6,0,B|235:92|227:64|298:71,1,125.999996154785,4|8,0:3|0:0,0:0:0:0:
372,33,41143,1,8,0:1:0:0:
372,33,41314,2,0,L|436:50,1,62.9999980773926,8|8,0:1|0:3,0:0:0:0:
501,107,41657,2,0,P|497:132|472:169,1,62.9999980773926,8|8,0:3|0:1,0:0:0:0:
398,202,42000,5,4,0:3:0:0:
398,202,42171,2,0,L|415:262,2,52.5000020027161,2|0|8,0:0|0:0|0:1,0:0:0:0:
338,141,42686,2,0,P|291:130|228:112,1,105.000004005432,8|8,0:0|0:1,0:0:0:0:
174,48,43200,1,4,0:3:0:0:
33,136,43543,5,8,0:0:0:0:
33,136,43714,2,0,L|50:197,1,52.5000020027161,2|0,0:0|0:0,0:0:0:0:
74,272,44057,1,8,0:0:0:0:
74,272,44228,2,0,L|57:333,2,52.5000020027161,2|10|2,0:0|0:1|0:0,0:0:0:0:
151,235,44743,6,0,P|211:218|262:209,1,105.000004005432,4|2,0:3|0:0,0:0:0:0:
328,256,45257,2,0,P|388:273|439:282,1,105.000004005432,10|2,0:1|0:0,0:0:0:0:
496,232,45771,1,0,0:0:0:0:
464,156,45943,6,0,P|455:131|451:101,1,52.5000020027161,8|0,0:1|0:0,0:0:0:0:
432,30,46286,1,8,0:0:0:0:
352,52,46457,2,0,P|301:66|233:69,1,105.000004005432,2|8,0:0|0:0,0:0:0:0:
168,36,46971,1,8,0:1:0:0:
168,36,47143,1,2,0:0:0:0:
56,111,47486,6,0,P|70:148|75:182,1,70,4|0,0:0|0:0,0:0:0:0:
76,265,47828,1,10,0:0:0:0:
76,265,48000,2,0,P|135:250|222:236,1,140,2|10,0:0|0:1,0:0:0:0:
274,300,48514,1,8,0:0:0:0:
352,270,48686,1,8,0:1:0:0:
352,270,48857,6,0,L|441:254,1,70,4|0,0:3|0:0,0:0:0:0:
495,209,49200,1,8,0:0:0:0:
451,135,49371,2,0,P|424:90|415:59,1,70,0|8,0:0|0:1,0:0:0:0:
365,10,49714,1,8,0:1:0:0:
305,70,49886,1,8,0:0:0:0:
242,13,50057,1,8,0:0:0:0:
242,13,50143,1,8,0:0:0:0:
242,13,50228,6,0,P|175:6|112:79,1,140,4|8,0:0|0:0,0:0:0:0:
78,131,50743,2,0,L|110:279,1,140,4|8,0:0|0:1,0:0:0:0:
158,339,51257,2,0,P|191:327|236:324,1,70,4|0,0:0|0:0,0:0:0:0:
305,346,51600,1,8,0:1:0:0:
363,290,51771,2,0,L|463:312,1,70,8|0,3:2|3:2,0:0:0:0:
476,232,52114,2,0,L|517:234,3,35,0|0|0|0,3:2|3:2|3:2|3:2,0:0:0:0:
450,203,52457,2,0,P|414:185|367:173,1,70,2|2,3:2|3:2,0:0:0:0:
301,166,52800,1,2,3:2:0:0:
301,166,52886,1,0,0:0:0:0:
301,166,52971,6,0,L|198:192,1,77.0000023498536,4|0,0:0|0:0,0:0:0:0:
149,242,53314,1,10,0:0:0:0:
63,193,53486,2,0,P|46:117|69:31,1,154.000004699707,2|10,0:0|0:1,0:0:0:0:
147,2,54000,1,10,0:0:0:0:
208,75,54171,6,0,L|293:56,1,77.0000023498536,2|0,0:0|0:0,0:0:0:0:
351,6,54514,1,2,0:0:0:0:
436,24,54686,1,10,0:0:0:0:
475,97,54857,2,0,L|457:191,1,77.0000023498536,2|0,0:0|0:0,0:0:0:0:
435,266,55200,2,0,P|449:296|475:331,2,77.0000023498536,10|10|2,0:1|0:0|0:0,0:0:0:0:
331,248,55714,6,0,P|253:232|152:226,1,154.000004699707,4|10,0:0|0:0,0:0:0:0:
112,297,56228,2,0,P|59:288|19:271,1,77.0000023498536,2|8,0:0|0:1,0:0:0:0:
15,192,56571,2,0,L|5:102,1,77.0000023498536,10|8,0:1|0:0,0:0:0:0:
66,42,56914,6,0,B|142:32|128:82|233:71,1,154.000004699707,2|0,0:0|0:0,0:0:0:0:
286,13,57428,1,8,0:0:0:0:
353,77,57600,2,0,L|444:92,1,77.0000023498536,2|8,0:0|0:1,0:0:0:0:
481,158,57943,1,8,0:1:0:0:
486,245,58114,1,8,0:0:0:0:
439,318,58286,1,8,0:0:0:0:
439,318,58371,1,8,0:0:0:0:
439,318,58457,6,0,L|346:293,1,77.0000023498536,4|2,0:0|0:0,0:0:0:0:
294,246,58800,1,10,0:0:0:0:
243,320,58971,2,0,P|171:345|78:355,1,154.000004699707,2|10,0:0|0:1,0:0:0:0:
21,303,59486,1,10,0:0:0:0:
78,234,59657,2,0,P|90:191|95:147,1,77.0000023498536,2|0,0:0|0:0,0:0:0:0:
142,74,60000,2,0,P|131:37|125:-1,2,77.0000023498536,2|10|2,0:0|0:0|0:0,0:0:0:0:
233,126,60514,1,10,0:1:0:0:
233,126,60686,1,10,0:1:0:0:
293,58,60857,1,10,0:0:0:0:
293,58,61028,1,2,0:0:0:0:
383,92,61200,6,0,P|417:155|432:250,1,154.000004699707,4|8,0:3|0:0,0:0:0:0:
312,353,61886,2,0,L|209:332,1,77.0000023498536,8|8,0:1|0:1,0:0:0:0:
165,291,62228,1,8,0:0:0:0:
102,355,62400,1,8,0:1:0:0:
102,355,62486,1,8,0:1:0:0:
102,355,62571,6,0,P|63:236|66:196,1,154.000004699707,4|8,0:3|0:0,0:0:0:0:
132,143,63086,2,0,L|302:179,1,154.000004699707,2|8,0:0|0:1,0:0:0:0:
369,131,63600,1,8,0:0:0:0:
457,190,63771,1,8,0:0:0:0:
457,190,63857,1,8,0:0:0:0:
457,190,63943,6,0,P|474:149|478:98,1,77.0000023498536,4|0,0:0|0:0,0:0:0:0:
457,22,64286,1,8,0:0:0:0:
353,39,64457,2,0,L|180:60,1,154.000004699707,2|8,0:0|0:1,0:0:0:0:
112,33,64971,2,0,P|87:81|70:124,1,77.0000023498536,8|0,0:0|0:0,0:0:0:0:
84,188,65314,5,4,0:3:0:0:
232,230,65657,2,0,L|332:201,1,77.0000023498536,10|0,0:0|0:0,0:0:0:0:
376,140,66000,1,10,0:1:0:0:
376,140,66171,1,8,0:1:0:0:
455,196,66343,2,0,P|475:248|476:290,1,77.0000023498536,10|0,0:0|0:0,0:0:0:0:
458,358,66686,6,0,P|405:334|291:305,1,154.000004699707,4|8,0:0|0:0,0:0:0:0:
220,332,67200,2,0,P|149:362|74:381,1,154.000004699707,2|8,0:0|0:1,0:0:0:0:
0,336,67714,1,8,0:0:0:0:
79,208,68057,6,0,L|97:126,1,77.0000023498536,4|0,0:3|0:0,0:0:0:0:
110,41,68400,1,8,0:0:0:0:
201,60,68571,2,0,P|289:74|356:78,1,154.000004699707,4|10,0:3|0:1,0:0:0:0:
422,15,69086,1,10,0:0:0:0:
422,15,69257,1,2,0:0:0:0:
486,78,69428,6,0,L|470:169,1,77.0000023498536,4|0,0:3|0:0,0:0:0:0:
445,234,69771,1,8,0:0:0:0:
360,219,69943,2,0,B|267:208|300:178|205:177,1,154.000004699707,2|8,0:0|0:1,0:0:0:0:
145,126,70457,2,0,L|56:160,1,77.0000023498536,8|0,0:0|0:0,0:0:0:0:
28,231,70800,6,0,P|19:297|89:360,1,154.000004699707,4|8,0:3|0:0,0:0:0:0:
143,290,71314,2,0,B|178:270|178:270|291:296,1,154.000004699707,4|8,0:3|0:1,0:0:0:0:
376,316,71828,1,8,0:0:0:0:
508,249,72171,6,0,P|484:204|472:167,1,77.0000023498536,4|0,0:3|0:0,0:0:0:0:
447,100,72514,1,8,0:0:0:0:
374,148,72686,2,0,L|218:166,1,154.000004699707,2|8,0:0|0:1,0:0:0:0:
141,196,73200,1,8,0:0:0:0:
60,224,73371,6,0,P|26:158|23:68,1,154.000004699707,8|8,0:1|0:1,0:0:0:0:
79,3,73886,1,8,0:0:0:0:
148,66,74057,2,0,L|323:39,1,154.000004699707,4|8,0:3|0:1,0:0:0:0:
389,57,74571,1,8,0:0:0:0:
458,8,74743,1,8,0:0:0:0:
458,8,74828,1,8,0:0:0:0:
458,8,74914,6,0,B|480:52|480:52|449:162,1,154.000004699707,4|8,0:0|0:0,0:0:0:0:
426,238,75428,2,0,L|264:192,1,154.000004699707,4|8,0:0|0:0,0:0:0:0:
206,135,75943,2,0,P|166:148|31:208,1,154.000004699707,4|0,0:0|0:0,0:0:0:0:
28,285,76457,1,8,0:1:0:0:
28,285,76628,2,0,L|52:373,1,77.0000023498536,8|0,0:0|0:0,0:0:0:0:
138,339,76971,2,0,L|226:302,1,77.0000023498536,8|8,0:1|0:1,0:0:0:0:
303,281,77314,1,8,0:0:0:0:
365,365,77486,1,8,0:0:0:0:
365,365,77571,1,8,0:0:0:0:
365,365,77657,6,0,P|397:330|418:286,1,77.0000023498536,4|2,0:0|0:0,0:0:0:0:
445,219,78000,1,8,0:0:0:0:
363,157,78171,2,0,L|207:194,1,154.000004699707,4|8,0:0|0:1,0:0:0:0:
123,242,78686,6,0,P|60:187|43:104,1,154.000004699707,12|0,0:0|0:0,0:0:0:0:
60,35,79200,1,0,3:0:0:0:
140,78,79371,2,0,P|177:93|221:93,1,77.0000023498536,0|0,3:0|3:0,0:0:0:0:
274,34,79714,1,8,3:2:0:0:
310,119,79886,1,8,3:2:0:0:
383,60,80057,1,8,3:2:0:0:
418,145,80229,1,8,3:2:0:0:
485,81,80400,6,0,P|494:56|495:33,3,41.9999987182618,2|0|0|2,0:0|0:0|0:0|0:0,0:0:0:0:
365,186,81771,2,0,P|356:211|355:234,3,41.9999987182618,2|0|0|2,0:0|0:0|0:0|0:0,0:0:0:0:
224,83,83143,6,0,P|215:58|214:35,2,41.9999987182618,2|0|0,0:0|0:0|0:0,0:0:0:0:
170,152,83657,2,0,P|103:170|79:170,2,83.9999974365235,2|2|2,0:0|0:0|0:0,0:0:0:0:
224,83,84514,1,2,0:0:0:0:
256,192,84600,12,4,85886,0:0:0:0:
399,28,95486,6,0,P|428:51|453:135,1,125.999996154785,4|8,0:0|0:0,0:0:0:0:
395,199,96000,2,0,B|300:217|300:217|265:179,1,125.999996154785,4|8,0:0|0:3,0:0:0:0:
225,130,96515,1,8,0:3:0:0:
225,130,96686,1,8,0:0:0:0:
171,198,96857,6,0,L|42:171,1,125.999996154785,4|8,0:0|0:0,0:0:0:0:
6,251,97372,2,0,P|1:284|2:323,1,62.9999980773926,2|8,0:0|0:1,0:0:0:0:
72,369,97715,2,0,L|145:386,1,62.9999980773926,2|8,0:0|0:0,0:0:0:0:
217,374,98057,1,8,0:1:0:0:
271,301,98229,6,0,P|321:291|406:283,1,125.999996154785,4|8,0:3|0:0,0:0:0:0:
474,313,98743,2,0,P|487:284|499:252,1,62.9999980773926,2|8,0:0|0:1,0:0:0:0:
470,170,99086,2,0,L|454:100,1,62.9999980773926,2|8,0:0|0:0,0:0:0:0:
434,28,99429,1,0,0:0:0:0:
350,59,99600,6,0,L|221:92,1,125.999996154785,4|8,0:3|0:0,0:0:0:0:
142,89,100115,2,0,L|64:75,1,62.9999980773926,2|8,0:0|0:1,0:0:0:0:
10,127,100457,2,0,P|0:178|1:205,1,62.9999980773926,2|8,0:0|0:0,0:0:0:0:
39,262,100800,6,0,P|77:286|169:293,1,125.999996154785,2|0,0:0|0:0,0:0:0:0:
232,247,101315,1,10,0:0:0:0:
232,247,101486,2,0,L|313:262,1,62.9999980773926,10|8,0:1|0:0,0:0:0:0:
369,295,101829,1,8,0:1:0:0:
423,232,102000,1,8,0:0:0:0:
495,281,102172,1,8,0:0:0:0:
495,281,102257,1,8,0:0:0:0:
495,281,102343,6,0,P|504:233|489:143,1,125.999996154785,4|8,0:0|0:0,0:0:0:0:
422,117,102857,2,0,P|356:139|272:150,1,125.999996154785,4|8,0:0|0:1,0:0:0:0:
217,149,103372,1,8,0:0:0:0:
185,229,103543,2,0,L|116:225,1,62.9999980773926,4|0,0:0|0:0,0:0:0:0:
42,206,103886,2,0,L|16:133,1,62.9999980773926,8|8,0:1|0:0,0:0:0:0:
30,68,104229,2,0,P|84:57|168:64,1,125.999996154785,4|8,0:0|0:1,0:0:0:0:
228,13,104743,1,8,0:0:0:0:
228,13,104915,1,2,0:0:0:0:
294,70,105086,6,0,B|342:84|342:84|424:61,1,125.999996154785,4|8,0:0|0:0,0:0:0:0:
497,36,105600,2,0,P|507:86|483:179,1,125.999996154785,2|8,0:0|0:1,0:0:0:0:
465,236,106115,1,8,0:0:0:0:
465,236,106286,1,2,0:0:0:0:
378,245,106457,6,0,B|337:261|337:261|246:241,1,125.999996154785,4|8,0:3|0:0,0:0:0:0:
169,236,106972,1,8,0:0:0:0:
169,236,107143,2,0,L|105:253,1,62.9999980773926,0|8,0:0|0:3,0:0:0:0:
29,282,107486,2,0,P|16:248|9:206,1,62.9999980773926,8|0,0:3|0:0,0:0:0:0:
27,134,107829,5,4,0:0:0:0:
27,134,108000,2,0,L|10:74,2,52.5000020027161,2|0|8,0:0|0:0|0:1,0:0:0:0:
118,154,108515,2,0,P|166:151|231:151,1,105.000004005432,8|0,0:0|0:0,0:0:0:0:
305,106,109029,1,8,0:1:0:0:
487,163,109372,5,8,0:0:0:0:
487,163,109543,2,0,P|499:133|504:102,1,52.5000020027161,2|8,0:0|0:1,0:0:0:0:
441,53,109886,1,8,0:0:0:0:
441,53,110057,2,0,P|445:24|458:-8,2,52.5000020027161,2|10|2,0:0|0:1|0:0,0:0:0:0:
356,90,110572,6,0,P|296:107|245:116,1,105.000004005432,4|2,0:3|0:0,0:0:0:0:
196,56,111086,2,0,P|136:39|85:30,1,105.000004005432,8|2,0:1|0:0,0:0:0:0:
32,89,111600,1,0,0:0:0:0:
32,89,111772,6,0,P|23:114|19:144,1,52.5000020027161,4|0,0:3|0:0,0:0:0:0:
28,223,112115,1,8,0:0:0:0:
110,215,112286,2,0,L|229:198,1,105.000004005432,2|10,0:0|0:0,0:0:0:0:
271,129,112800,1,8,0:3:0:0:
271,129,112972,1,8,0:3:0:0:
403,209,113315,6,0,P|440:220|471:236,1,70,4|0,0:0|0:0,0:0:0:0:
496,317,113657,1,8,0:0:0:0:
496,317,113829,2,0,P|437:332|350:346,1,140,2|10,0:0|0:1,0:0:0:0:
295,288,114343,1,8,0:0:0:0:
295,288,114515,1,2,0:0:0:0:
217,337,114686,6,0,L|128:353,1,70,4|0,0:0|0:0,0:0:0:0:
105,281,115029,1,8,0:0:0:0:
33,315,115200,2,0,P|6:270|-3:239,1,70,2|8,0:0|0:1,0:0:0:0:
20,175,115543,1,10,0:1:0:0:
107,190,115715,1,8,0:0:0:0:
171,136,115886,1,8,0:0:0:0:
171,136,115972,1,8,0:0:0:0:
171,136,116057,6,0,L|320:159,1,140,4|8,0:0|0:0,0:0:0:0:
378,224,116571,2,0,P|453:205|506:136,1,140,4|8,0:0|0:1,0:0:0:0:
480,82,117086,1,6,0:0:0:0:
329,6,117428,5,8,0:1:0:0:
329,6,117600,1,8,0:0:0:0:
270,65,117771,2,0,L|124:36,1,140,8|2,0:0|0:0,0:0:0:0:
54,98,118286,2,0,P|41:124|30:176,1,70,2|8,0:0|0:0,0:0:0:0:
44,258,118628,1,8,0:0:0:0:
44,258,118714,1,8,0:0:0:0:
44,258,118800,6,0,L|68:348,1,77.0000023498536,4|0,0:0|0:0,0:0:0:0:
142,383,119143,1,10,0:0:0:0:
206,315,119315,2,0,P|276:282|365:287,1,154.000004699707,2|10,0:0|0:1,0:0:0:0:
433,324,119829,1,10,0:0:0:0:
498,254,120000,6,0,L|514:171,1,77.0000023498536,2|0,0:0|0:0,0:0:0:0:
496,95,120343,1,2,0:0:0:0:
409,89,120515,1,10,0:0:0:0:
363,166,120686,2,0,L|265:153,1,77.0000023498536,2|0,0:0|0:0,0:0:0:0:
213,88,121029,2,0,P|199:58|173:23,2,77.0000023498536,10|10|2,0:1|0:0|0:0,0:0:0:0:
143,152,121543,6,0,P|114:226|93:325,1,154.000004699707,4|8,0:0|0:0,0:0:0:0:
167,363,122057,2,0,P|203:351|241:346,1,77.0000023498536,2|8,0:0|0:1,0:0:0:0:
326,314,122400,2,0,P|362:325|400:330,1,77.0000023498536,10|8,0:1|0:0,0:0:0:0:
492,302,122743,6,0,P|495:224|450:137,1,154.000004699707,2|0,0:0|0:0,0:0:0:0:
379,116,123257,1,8,0:0:0:0:
330,192,123429,2,0,L|239:177,1,77.0000023498536,0|8,0:0|0:1,0:0:0:0:
176,145,123772,1,8,0:1:0:0:
118,205,123943,1,8,0:0:0:0:
43,167,124115,1,8,0:1:0:0:
43,167,124200,1,8,0:0:0:0:
43,167,124286,6,0,L|24:68,1,77.0000023498536,4|2,0:0|0:0,0:0:0:0:
77,14,124629,1,10,0:0:0:0:
173,44,124800,2,0,P|245:19|338:9,1,154.000004699707,2|10,0:0|0:1,0:0:0:0:
399,53,125315,1,10,0:0:0:0:
471,107,125486,2,0,P|459:150|454:194,1,77.0000023498536,2|0,0:0|0:0,0:0:0:0:
420,272,125829,2,0,P|431:309|437:347,2,77.0000023498536,2|10|2,0:0|0:0|0:0,0:0:0:0:
330,233,126343,1,10,0:1:0:0:
330,233,126515,1,10,0:1:0:0:
267,309,126686,1,10,0:0:0:0:
267,309,126857,1,2,0:0:0:0:
188,258,127029,6,0,L|34:230,1,154.000004699707,4|8,0:3|0:0,0:0:0:0:
34,50,127715,2,0,P|78:42|141:44,1,77.0000023498536,8|8,0:1|0:1,0:0:0:0:
188,85,128057,1,8,0:0:0:0:
253,26,128229,1,8,0:1:0:0:
253,26,128315,1,8,0:1:0:0:
253,26,128400,6,0,B|296:12|296:12|428:36,1,154.000004699707,4|8,0:3|0:0,0:0:0:0:
462,104,128915,2,0,L|501:281,1,154.000004699707,2|8,0:0|0:1,0:0:0:0:
441,328,129429,1,8,0:0:0:0:
361,289,129600,1,8,0:0:0:0:
361,289,129686,1,8,0:0:0:0:
361,289,129772,6,0,P|317:279|266:284,1,77.0000023498536,4|0,0:0|0:0,0:0:0:0:
189,286,130115,1,8,0:0:0:0:
119,353,130286,2,0,P|81:273|74:177,1,154.000004699707,2|8,0:0|0:1,0:0:0:0:
121,137,130800,2,0,L|212:157,1,77.0000023498536,8|0,0:0|0:0,0:0:0:0:
281,173,131143,5,4,0:0:0:0:
477,178,131486,2,0,P|494:130|500:70,1,77.0000023498536,8|0,0:0|0:0,0:0:0:0:
454,15,131829,1,8,0:1:0:0:
454,15,132000,1,8,0:1:0:0:
371,65,132172,2,0,L|276:42,1,77.0000023498536,8|0,0:0|0:0,0:0:0:0:
203,4,132515,6,0,P|172:53|130:163,1,154.000004699707,4|8,0:0|0:0,0:0:0:0:
71,216,133028,1,0,0:0:0:0:
71,216,133200,2,0,P|109:291|144:389,1,154.000004699707,8|8,0:1|0:0,0:0:0:0:
284,288,133886,6,0,L|371:304,1,77.0000023498536,4|0,0:0|0:0,0:0:0:0:
438,329,134229,1,8,0:0:0:0:
473,253,134400,2,0,P|499:167|512:102,1,154.000004699707,4|8,0:0|0:1,0:0:0:0:
459,36,134915,1,8,0:0:0:0:
459,36,135086,1,0,0:0:0:0:
396,99,135257,6,0,L|310:79,1,77.0000023498536,4|0,0:0|0:0,0:0:0:0:
254,30,135600,1,8,0:0:0:0:
199,97,135772,2,0,B|106:99|139:138|44:139,1,154.000004699707,2|8,0:0|0:1,0:0:0:0:
20,226,136286,2,0,L|46:304,1,77.0000023498536,8|0,0:0|0:0,0:0:0:0:
108,361,136629,6,0,P|174:367|234:295,1,154.000004699707,4|8,0:3|0:0,0:0:0:0:
271,232,137143,2,0,B|306:212|306:212|419:238,1,154.000004699707,4|8,0:3|0:1,0:0:0:0:
501,260,137657,1,8,0:0:0:0:
464,95,138000,6,0,P|415:110|381:128,1,77.0000023498536,4|0,0:0|0:0,0:0:0:0:
313,133,138343,1,8,0:0:0:0:
251,80,138515,2,0,L|86:54,1,154.000004699707,2|8,0:0|0:1,0:0:0:0:
30,108,139029,1,8,0:0:0:0:
30,108,139200,6,0,P|28:182|65:264,1,154.000004699707,4|4,0:3|0:3,0:0:0:0:
115,324,139715,1,8,0:0:0:0:
185,278,139886,2,0,L|360:305,1,154.000004699707,4|8,0:3|0:1,0:0:0:0:
391,229,140400,1,8,0:0:0:0:
460,293,140572,1,8,0:0:0:0:
460,293,140657,1,8,0:0:0:0:
460,293,140743,6,0,P|484:228|480:140,1,154.000004699707,4|8,0:0|0:0,0:0:0:0:
430,70,141257,2,0,L|252:43,1,154.000004699707,4|8,0:0|0:0,0:0:0:0:
189,31,141771,1,4,0:0:0:0:
45,93,142286,1,8,0:1:0:0:
45,93,142457,2,0,L|69:181,1,77.0000023498536,8|0,0:0|0:0,0:0:0:0:
92,251,142800,2,0,P|122:267|183:273,1,77.0000023498536,8|8,0:0|0:1,0:0:0:0:
215,207,143143,1,8,0:0:0:0:
304,255,143315,1,8,0:0:0:0:
304,255,143400,1,8,0:0:0:0:
304,255,143486,6,0,L|392:271,1,77.0000023498536,4|2,0:0|0:0,0:0:0:0:
456,234,143829,1,2,0:0:0:0:
472,145,144000,2,0,B|393:108|402:165|308:137,1,154.000004699707,6|8,0:3|0:1,0:0:0:0:
253,69,144515,6,0,P|177:65|111:103,1,154.000004699707,4|8,0:0|0:1,0:0:0:0:
64,185,145028,1,8,3:1:0:0:
64,185,145200,2,0,L|83:267,1,77.0000023498536,8|0,3:2|3:0,0:0:0:0:
114,334,145543,1,8,3:2:0:0:
179,285,145714,1,8,3:2:0:0:
224,354,145886,1,8,3:2:0:0:
289,303,146057,1,8,3:2:0:0:
336,377,146228,5,2,0:0:0:0:
468,363,147600,5,8,0:0:0:0:
498,292,147771,1,8,0:1:0:0:
463,222,147943,1,8,0:1:0:0:
395,185,148114,2,0,L|238:216,1,140,8|8,0:0|0:3,0:0:0:0:
187,283,148628,1,8,0:0:0:0:
187,283,148800,1,8,0:0:0:0:
92,237,148971,6,0,P|68:183|69:86,1,140,4|8,0:0|0:0,0:0:0:0:
214,17,149657,1,8,0:1:0:0:
214,17,149828,1,8,0:1:0:0:
285,64,150000,2,0,L|358:76,1,70,8|0,0:0|0:0,0:0:0:0:
440,35,150343,2,0,P|474:98|493:172,1,140,4|10,0:3|0:0,0:0:0:0:
440,259,150857,2,0,L|363:250,1,70,10|0,0:1|0:0,0:0:0:0:
282,196,151200,1,10,0:1:0:0:
282,196,151371,2,0,L|205:187,1,70,10|0,0:0|0:0,0:0:0:0:
113,232,151714,6,0,P|102:322|112:400,2,140,4|8|8,0:3|0:0|0:1,0:0:0:0:
115,124,152571,2,0,P|100:64|83:30,2,70,10|10|2,0:1|0:0|0:0,0:0:0:0:
206,187,153086,2,0,P|313:235|358:249,1,140,4|8,0:0|0:0,0:0:0:0:
437,228,153600,2,0,L|487:64,1,140,4|8,0:0|0:1,0:0:0:0:
442,4,154114,1,8,0:0:0:0:
369,64,154286,1,8,0:0:0:0:
369,64,154371,1,8,0:0:0:0:
369,64,154457,6,0,P|298:50|202:24,1,140,4|10,0:0|0:0,0:0:0:0:
29,80,155143,1,8,0:1:0:0:
29,80,155314,1,10,0:1:0:0:
71,153,155486,2,0,L|51:249,1,70,10|8,0:0|0:1,0:0:0:0:
37,310,155828,6,0,B|120:314|90:272|185:284,1,140,4|8,0:3|0:0,0:0:0:0:
258,334,156343,2,0,P|325:312|394:297,1,140,8|8,0:1|0:1,0:0:0:0:
481,336,156857,1,8,0:0:0:0:
399,170,157200,6,0,L|302:145,1,70,4|0,0:3|0:0,0:0:0:0:
259,217,157543,1,8,0:0:0:0:
259,217,157714,2,0,L|184:236,1,70,0|8,0:0|0:1,0:0:0:0:
103,207,158057,1,8,0:1:0:0:
103,207,158228,2,0,L|28:187,1,70,8|0,0:0|0:0,0:0:0:0:
20,100,158571,5,4,0:3:0:0:
20,100,158657,1,8,0:1:0:0:
20,100,158743,2,0,P|10:79|1:53,2,35,8|8|8,0:1|0:1|0:1,0:0:0:0:
102,83,159086,2,0,P|157:61|257:36,1,140,4|8,0:0|0:1,0:0:0:0:
325,50,159600,1,8,0:0:0:0:
420,68,159771,1,8,0:0:0:0:
420,68,159857,1,8,0:0:0:0:
420,68,159943,6,0,L|469:227,1,140,4|8,0:0|0:0,0:0:0:0:
328,289,160628,1,8,0:1:0:0:
328,289,160800,1,8,0:1:0:0:
270,221,160971,2,0,P|237:212|184:208,1,70,8|8,0:0|0:1,0:0:0:0:
123,262,161314,6,0,P|56:195|29:128,1,140,4|8,0:3|0:0,0:0:0:0:
34,52,161828,2,0,B|87:59|111:88|111:88|141:90|186:70,1,140,6|8,0:3|0:1,0:0:0:0:
226,17,162343,1,8,0:0:0:0:
318,138,162686,6,0,P|398:108|456:103,1,140,4|8,0:3|0:0,0:0:0:0:
488,188,163200,1,0,0:0:0:0:
488,188,163371,2,0,L|473:268,1,70,8|8,0:1|0:1,0:0:0:0:
402,331,163714,2,0,P|350:310|319:304,1,70,8|0,0:0|0:0,0:0:0:0:
260,260,164057,6,0,P|249:215|248:166,2,70,6|2|10,0:3|0:0|0:0,0:0:0:0:
199,328,164571,2,0,P|144:324|51:287,1,140,10|10,0:1|0:1,0:0:0:0:
80,219,165086,1,10,0:0:0:0:
102,140,165258,1,8,0:0:0:0:
102,140,165343,1,8,0:0:0:0:
102,140,165428,6,0,L|186:159,1,70,4|0,0:0|0:0,0:0:0:0:
262,174,165771,1,8,0:0:0:0:
338,226,165943,2,0,P|419:225|500:199,1,140,4|0,0:0|0:0,0:0:0:0:
467,125,166457,2,0,L|451:48,1,70,4|0,0:0|0:0,0:0:0:0:
358,45,166800,6,0,L|372:-3,2,46.6666666666667,2|2|6,0:0|0:0|0:0,0:0:0:0:
299,109,167143,2,0,L|312:153,2,46.6666666666667,10|10|10,0:0|0:0|0:0,0:0:0:0:
249,33,167486,2,0,L|263:-15,2,35.0000013351441,10|10|10,0:0|0:3|0:3,0:0:0:0:
198,95,167829,2,0,L|211:139,2,35.0000013351441,10|10|10,0:3|0:3|0:3,0:0:0:0:
128,51,168171,6,0,P|86:83|68:236,2,210.000008010865,6|2|2,0:0|0:0|0:0,0:0:0:0:
256,192,170228,5,2,0:0:0:0:
383,333,170914,5,4,0:0:0:0:
83,132,179143,6,0,L|63:68,2,52.5000020027161,2|0|0,3:0|3:0|3:0,0:0:0:0:
133,204,179657,2,0,L|117:254,2,52.5000020027161,10|8|8,3:1|3:1|3:1,0:0:0:0:
172,125,180171,2,0,P|208:110|238:103,1,52.5000020027161,10|8,0:1|0:1,0:0:0:0:
297,137,180514,1,8,0:1:0:0:
345,72,180686,2,0,P|382:82|410:95,1,52.5000020027161,10|8,0:0|0:0,0:0:0:0:
443,147,181028,1,8,0:0:0:0:
447,224,181199,1,10,0:0:0:0:
404,288,181371,1,8,0:0:0:0:
330,314,181542,1,8,0:0:0:0:
257,290,181714,5,6,0:0:0:0:
90,227,184628,6,1,B|138:222|151:173|151:173|135:106|135:106|153:68|193:68|193:68|339:98|339:98|305:113|295:153,1,450.000000000019,4|2,0:0|0:0,0:0:0:0:
296,151,186514,1,0,0:0:0:0:
420,304,186857,2,0,L|483:288,2,56.2500007663454,0|0|2,0:0|0:0|0:0,0:0:0:0:
343,345,187371,6,0,P|268:317|212:308,1,112.500001532691,4|8,0:0|0:1,0:0:0:0:
147,320,187886,2,0,P|133:361|129:387,2,56.2500007663454,8|8|8,0:1|0:1|0:0,0:0:0:0:
121,231,188400,1,8,0:0:0:0:
85,137,188571,1,12,0:0:0:0:
73,321,190114,6,0,L|166:296,1,77.0000023498536,4|2,0:0|0:0,0:0:0:0:
220,251,190457,1,10,0:0:0:0:
269,323,190628,2,0,P|341:348|434:358,1,154.000004699707,2|10,0:0|0:1,0:0:0:0:
491,306,191143,1,10,0:0:0:0:
434,237,191314,2,0,P|422:194|417:150,1,77.0000023498536,2|0,0:0|0:0,0:0:0:0:
370,77,191657,2,0,P|381:40|387:2,2,77.0000023498536,2|10|2,0:0|0:0|0:0,0:0:0:0:
291,126,192171,1,10,0:1:0:0:
291,126,192343,1,10,0:1:0:0:
215,57,192514,1,10,0:0:0:0:
215,57,192685,1,2,0:0:0:0:
128,95,192857,6,0,L|91:258,1,154.000004699707,4|8,0:3|0:0,0:0:0:0:
200,356,193543,2,0,P|237:353|303:335,1,77.0000023498536,8|8,0:1|0:1,0:0:0:0:
345,293,193885,1,8,0:0:0:0:
410,358,194057,1,8,0:1:0:0:
410,358,194143,1,8,0:1:0:0:
410,358,194228,6,0,P|449:239|446:199,1,154.000004699707,4|8,0:3|0:0,0:0:0:0:
380,146,194743,2,0,L|210:182,1,154.000004699707,2|8,0:0|0:1,0:0:0:0:
142,156,195257,1,8,0:0:0:0:
72,215,195428,1,8,0:0:0:0:
72,215,195514,1,8,0:0:0:0:
72,215,195600,6,0,P|55:174|51:123,1,77.0000023498536,4|0,0:0|0:0,0:0:0:0:
68,59,195943,1,8,0:0:0:0:
159,42,196114,2,0,P|233:59|332:63,1,154.000004699707,2|8,0:0|0:1,0:0:0:0:
400,36,196628,2,0,P|425:84|442:127,1,77.0000023498536,8|0,0:0|0:0,0:0:0:0:
428,191,196971,5,4,0:3:0:0:
257,182,197314,2,0,L|157:153,1,77.0000023498536,10|0,0:0|0:0,0:0:0:0:
115,98,197657,1,10,0:1:0:0:
115,98,197828,1,8,0:1:0:0:
46,165,198000,2,0,P|26:217|25:259,1,77.0000023498536,10|0,0:0|0:0,0:0:0:0:
90,309,198343,6,0,L|259:257,1,154.000004699707,4|8,0:0|0:0,0:0:0:0:
313,212,198857,2,0,P|384:242|459:261,1,154.000004699707,2|8,0:0|0:1,0:0:0:0:
512,199,199371,1,8,0:0:0:0:
329,130,199714,6,0,L|347:48,1,77.0000023498536,4|0,0:0|0:0,0:0:0:0:
281,0,200057,1,8,0:0:0:0:
242,78,200228,2,0,P|154:92|87:96,1,154.000004699707,4|8,0:0|0:1,0:0:0:0:
7,71,200743,1,10,0:0:0:0:
7,71,200914,1,2,0:0:0:0:
0,166,201085,6,0,L|16:257,1,77.0000023498536,4|0,0:0|0:0,0:0:0:0:
93,294,201428,1,8,0:0:0:0:
152,222,201600,2,0,B|245:211|212:181|307:180,1,154.000004699707,2|8,0:0|0:1,0:0:0:0:
367,129,202114,2,0,L|456:163,1,77.0000023498536,8|0,0:0|0:0,0:0:0:0:
483,233,202457,6,0,P|492:299|422:362,1,154.000004699707,4|8,0:3|0:0,0:0:0:0:
369,293,202971,2,0,B|334:273|334:273|221:299,1,154.000004699707,4|8,0:3|0:1,0:0:0:0:
136,319,203485,1,8,0:0:0:0:
75,206,203828,6,0,P|28:208|-11:219,2,77.0000023498536,4|0|8,0:3|0:0|0:0,0:0:0:0:
150,164,204343,2,0,P|164:128|172:66,1,77.0000023498536,2|0,0:3|0:0,0:0:0:0:
240,37,204686,2,0,P|282:49|327:56,1,77.0000023498536,8|8,0:1|0:0,0:0:0:0:
396,14,205028,2,0,P|487:32|502:82,2,154.000004699707,4|4|4,0:0|0:3|0:0,0:0:0:0:
314,54,205886,2,0,P|299:94|288:144,1,77.0000023498536,8|8,0:0|0:0,0:0:0:0:
305,225,206228,1,8,0:0:0:0:
305,225,206314,1,8,0:0:0:0:
305,225,206400,2,0,L|323:278,1,38.5000011749268,8|8,0:0|0:0,0:0:0:0:
294,300,206571,6,0,L|191:326,1,77.0000023498536,4|2,0:0|0:0,0:0:0:0:
138,279,206914,1,10,0:0:0:0:
61,333,207086,2,0,P|44:257|67:171,1,154.000004699707,2|10,0:0|0:1,0:0:0:0:
102,109,207600,1,10,0:0:0:0:
182,148,207771,6,0,L|267:129,1,77.0000023498536,2|0,0:0|0:0,0:0:0:0:
314,69,208114,1,2,0:0:0:0:
403,34,208286,1,10,0:0:0:0:
475,97,208457,2,0,L|457:191,1,77.0000023498536,2|0,0:0|0:0,0:0:0:0:
435,266,208800,2,0,P|449:296|475:331,2,77.0000023498536,10|10|2,0:1|0:0|0:0,0:0:0:0:
348,229,209314,6,0,B|230:201|230:201|168:219,1,154.000004699707,4|8,0:0|0:0,0:0:0:0:
129,281,209828,2,0,P|76:272|36:255,1,77.0000023498536,2|8,0:0|0:1,0:0:0:0:
17,183,210171,2,0,L|7:93,1,77.0000023498536,10|8,0:1|0:0,0:0:0:0:
55,32,210514,6,0,B|90:18|90:18|166:60|166:60|222:41,1,154.000004699707,2|0,0:0|0:0,0:0:0:0:
266,3,211028,1,8,0:0:0:0:
328,64,211200,2,0,L|419:79,1,77.0000023498536,2|8,0:0|0:1,0:0:0:0:
471,136,211543,1,8,0:1:0:0:
452,219,211714,1,8,0:0:0:0:
374,239,211886,1,8,0:0:0:0:
374,239,211971,1,8,0:0:0:0:
374,239,212057,6,0,L|281:214,1,77.0000023498536,6|2,0:0|0:0,0:0:0:0:
220,182,212400,1,10,0:0:0:0:
177,265,212571,2,0,P|105:290|12:300,1,154.000004699707,2|10,0:0|0:1,0:0:0:0:
7,219,213086,1,10,0:0:0:0:
76,168,213257,6,0,P|88:125|93:81,1,77.0000023498536,2|0,0:0|0:0,0:0:0:0:
189,74,213600,2,0,P|178:37|172:-1,2,77.0000023498536,2|10|2,0:0|0:0|0:0,0:0:0:0:
271,125,214114,1,10,0:1:0:0:
271,125,214286,1,10,0:1:0:0:
326,51,214457,1,10,0:0:0:0:
326,51,214628,1,2,0:0:0:0:
406,98,214800,6,0,B|436:134|436:134|405:249,1,154.000004699707,4|8,0:0|0:0,0:0:0:0:
312,353,215486,2,0,L|209:332,1,77.0000023498536,8|8,0:1|0:1,0:0:0:0:
165,291,215828,1,8,0:0:0:0:
102,355,216000,1,8,0:1:0:0:
102,355,216086,1,8,0:1:0:0:
102,355,216171,6,0,P|66:324|66:196,1,154.000004699707,4|8,0:3|0:0,0:0:0:0:
117,150,216686,2,0,P|188:173|287:186,1,154.000004699707,2|8,0:0|0:1,0:0:0:0:
344,132,217200,1,8,0:0:0:0:
406,210,217371,1,8,0:0:0:0:
406,210,217457,1,8,0:0:0:0:
406,210,217543,6,0,P|439:180|465:136,1,77.0000023498536,4|0,0:0|0:0,0:0:0:0:
445,72,217886,1,8,0:0:0:0:
375,14,218057,2,0,B|288:-3|311:52|202:35,1,154.000004699707,2|8,0:0|0:1,0:0:0:0:
128,41,218571,2,0,P|103:89|86:132,1,77.0000023498536,8|0,0:0|0:0,0:0:0:0:
84,203,218914,5,4,0:3:0:0:
232,230,219257,2,0,L|332:201,1,77.0000023498536,8|0,0:0|0:0,0:0:0:0:
376,140,219600,1,8,0:1:0:0:
376,140,219771,1,8,0:1:0:0:
454,183,219943,2,0,P|474:235|475:277,1,77.0000023498536,8|0,0:0|0:0,0:0:0:0:
440,343,220286,6,0,B|392:351|392:351|350:300|306:296,1,154.000004699707,4|8,0:0|0:0,0:0:0:0:
205,296,220800,2,0,B|162:300|120:351|120:351|71:343,1,154.000004699707,2|8,0:0|0:1,0:0:0:0:
0,294,221314,1,8,0:0:0:0:
73,162,221657,6,0,L|91:80,1,77.0000023498536,4|0,0:0|0:0,0:0:0:0:
126,8,222000,1,8,0:0:0:0:
204,52,222171,2,0,B|287:74|272:25|368:49,1,154.000004699707,4|10,0:3|0:1,0:0:0:0:
440,5,222686,1,10,0:0:0:0:
440,5,222857,1,2,0:0:0:0:
486,78,223028,6,0,P|485:121|470:169,1,77.0000023498536,4|0,0:0|0:0,0:0:0:0:
445,234,223371,1,8,0:0:0:0:
417,315,223543,2,0,B|343:279|262:273,1,154.000004699707,4|8,0:0|0:1,0:0:0:0:
189,313,224057,2,0,L|100:347,1,77.0000023498536,8|0,0:0|0:0,0:0:0:0:
47,285,224400,6,0,P|-6:233|0:159,1,154.000004699707,4|8,0:3|0:0,0:0:0:0:
60,85,224914,2,0,B|224:125,1,154.000004699707,4|8,0:3|0:1,0:0:0:0:
283,71,225428,1,8,0:0:0:0:
365,211,225771,6,0,P|372:248|386:284,1,77.0000023498536,4|0,0:3|0:0,0:0:0:0:
481,281,226114,1,8,0:0:0:0:
485,181,226286,2,0,L|505:12,1,154.000004699707,0|8,0:0|0:1,0:0:0:0:
417,0,226800,1,8,0:0:0:0:
355,60,226971,6,0,P|288:31|199:23,1,154.000004699707,4|8,0:3|0:1,0:0:0:0:
111,13,227486,1,8,0:0:0:0:
49,89,227657,2,0,L|77:179,1,77.0000023498536,8|8,0:1|0:0,0:0:0:0:
52,243,228000,1,8,0:1:0:0:
119,307,228171,1,8,0:0:0:0:
200,266,228343,1,8,0:1:0:0:
200,266,228428,1,0,0:0:0:0:
200,266,228514,6,0,B|244:244|244:244|354:275,1,154.000004699707,4|8,0:3|0:0,0:0:0:0:
436,298,229028,2,0,P|467:244|491:144,1,154.000004699707,4|8,0:3|0:1,0:0:0:0:
436,85,229543,2,0,L|341:62,1,77.0000023498536,8|0,0:0|0:0,0:0:0:0:
282,19,229886,6,0,P|243:46|127:90,1,154.000004699707,4|8,0:3|0:0,0:0:0:0:
52,57,230400,2,0,P|29:157|25:233,1,154.000004699707,4|8,0:3|0:1,0:0:0:0:
78,289,230914,1,8,0:0:0:0:
78,289,231086,1,0,0:0:0:0:
151,346,231257,6,0,L|250:320,1,77.0000023498536,4|0,0:3|0:0,0:0:0:0:
322,325,231600,1,8,0:0:0:0:
393,382,231771,2,0,P|426:324|438:226,1,154.000004699707,0|8,0:0|0:1,0:0:0:0:
387,158,232286,1,8,0:0:0:0:
311,198,232457,6,0,L|214:188,1,77.0000023498536,4|0,0:3|0:0,0:0:0:0:
154,219,232800,1,4,0:3:0:0:
154,219,232971,1,0,0:0:0:0:
71,249,233143,2,0,L|23:78,1,154.000004699707,4|8,0:3|0:1,0:0:0:0:
56,16,233657,1,8,0:0:0:0:
144,58,233828,1,8,0:0:0:0:
144,58,233914,1,8,0:0:0:0:
144,58,234000,6,0,P|219:31|329:14,1,154.000004699707,4|8,0:0|0:0,0:0:0:0:
388,60,234514,2,0,P|428:85|375:165,1,154.000004699707,6|8,0:0|0:0,0:0:0:0:
318,231,235028,2,0,P|335:303|419:349,1,154.000004699707,4|0,0:0|0:0,0:0:0:0:
471,309,235543,1,8,0:1:0:0:
471,309,235714,1,8,0:0:0:0:
318,231,236057,2,0,L|212:212,1,77.0000023498536,8|8,0:0|0:1,0:0:0:0:
152,196,236400,1,8,0:0:0:0:
82,257,236571,1,8,0:0:0:0:
82,257,236656,1,8,0:0:0:0:
82,257,236743,6,0,P|36:161|44:90,1,154.000004699707,4|2,0:0|0:0,0:0:0:0:
98,55,237257,2,0,B|157:49|157:49|184:67|184:67|260:58,1,154.000004699707,6|2,0:3|0:0,0:0:0:0:
323,15,237771,2,0,P|398:47|493:72,1,154.000004699707,4|0,0:3|0:0,0:0:0:0:
492,156,238286,1,2,3:0:0:0:
492,156,238457,2,0,L|463:264,1,77.0000023498536,8|8,3:1|3:1,0:0:0:0:
424,294,238800,1,8,3:2:0:0:
359,235,238971,1,8,3:2:0:0:
302,309,239143,1,8,3:2:0:0:
232,242,239314,1,8,3:2:0:0:
166,321,239486,6,0,P|157:349|154:381,3,41.9999987182618,2|0|0|2,0:0|0:0|0:0|0:0,0:0:0:0:
101,132,240857,2,0,P|81:110|55:91,3,41.9999987182618,2|0|0|2,0:0|0:0|0:0|0:0,0:0:0:0:
297,170,242228,2,0,P|325:163|354:150,2,41.9999987182618,2|0|0,0:0|0:0|0:0,0:0:0:0:
230,225,242743,2,0,P|228:266|212:305,2,83.9999974365235,2|2|2,0:0|0:0|0:0,0:0:0:0:
168,175,243600,6,0,P|81:200|80:278,2,167.999994873047,2|2|2,0:0|0:0|0:0,0:0:0:0:
